osu file format v14

[General]
AudioFilename: audio.mp3
AudioLeadIn: 0
PreviewTime: -1
Countdown: 0
SampleSet: None
StackLeniency: 0.7
Mode: 3
LetterboxInBreaks: 0
SpecialStyle: 0
WidescreenStoryboard: 1

[Editor]
Bookmarks: 53676,60097
DistanceSpacing: 0.5
BeatDivisor: 4
GridSize: 32
TimelineZoom: 1

[Metadata]
Title:Capsule
TitleUnicode:Capsule
Artist:Soba
ArtistUnicode:Soba
Creator:Tantei B
Version:Strong vitamins
Source:
Tags:sv
BeatmapID:1900504
BeatmapSetID:910788

[Difficulty]
HPDrainRate:8
CircleSize:4
OverallDifficulty:8.3
ApproachRate:5
SliderMultiplier:1.4
SliderTickRate:1

[Events]
//Background and Video events
0,0,"Abstract-Lineal-PPT-Backgrounds.jpg",0,0
//Break Periods
//Storyboard Layer 0 (Background)
//Storyboard Layer 1 (Fail)
//Storyboard Layer 2 (Pass)
//Storyboard Layer 3 (Foreground)
//Storyboard Sound Samples

[TimingPoints]
148,392.156862745098,4,2,0,20,1,0
178,-200,4,2,0,20,0,0
5322,-200,4,2,0,20,0,0
24883,-125,4,2,0,20,0,0
25079,-111.111111111111,4,2,0,20,0,0
25245,392.156862745098,4,2,0,20,1,0
25246,-100,4,2,0,20,0,0
50343,-25,4,2,0,20,0,0
50363,-125,4,2,0,20,0,0
50539,-14.2857142857143,4,2,0,20,0,0
50549,-37.037037037037,4,2,0,20,0,0
50559,-333.333333333333,4,2,0,20,0,0
50833,-212.765957446809,4,2,0,20,0,0
50931,-161.290322580645,4,2,0,20,0,0
51029,-80.6451612903226,4,2,0,20,0,0
51078,-54.9450549450549,4,2,0,20,0,0
51117,-14.2857142857143,4,2,0,20,0,0
51127,-62.5,4,2,0,20,0,0
51225,-142.857142857143,4,2,0,20,0,0
51323,-25,4,2,0,20,0,0
51343,-125,4,2,0,20,0,0
51519,-25,4,2,0,20,0,0
51539,-125,4,2,0,20,0,0
51715,-25,4,2,0,20,0,0
51735,-125,4,2,0,20,0,0
51911,-25,4,2,0,20,0,0
51931,-125,4,2,0,20,0,0
52108,-10,4,2,0,20,0,0
52118,-16.1290322580645,4,2,0,20,0,0
52119,-333.333333333333,4,2,0,20,0,0
52402,-100,4,2,0,20,0,0
52686,-10,4,2,0,20,0,0
52701,-10000,4,2,0,20,0,0
52852,-40,4,2,0,20,0,0
52892,-25,4,2,0,20,0,0
52912,-125,4,2,0,20,0,0
53088,-25,4,2,0,20,0,0
53108,-125,4,2,0,20,0,0
53284,-25,4,2,0,20,0,0
53304,-125,4,2,0,20,0,0
53480,-25,4,2,0,20,0,0
53500,-125,4,2,0,20,0,0
53676,-14.2857142857143,4,2,0,20,0,0
53690,-37.037037037037,4,2,0,20,0,0
53725,-181.818181818182,4,2,0,20,0,0
53872,-111.111111111111,4,2,0,20,0,0
53921,-90.9090909090909,4,2,0,20,0,0
54068,-10,4,2,0,20,0,0
54078,-55.5555555555556,4,2,0,20,0,0
54117,-125,4,2,0,20,0,0
54254,-14.2857142857143,4,2,0,20,0,0
54269,-1000,4,2,0,20,0,0
54440,-40,4,2,0,20,0,0
54460,-25,4,2,0,20,0,0
54480,-125,4,2,0,20,0,0
54657,-25,4,2,0,20,0,0
54677,-125,4,2,0,20,0,0
54853,-25,4,2,0,20,0,0
54873,-125,4,2,0,20,0,0
55049,-25,4,2,0,20,0,0
55069,-125,4,2,0,20,0,0
55245,-20,4,2,0,20,0,0
55265,-166.666666666667,4,2,0,20,0,0
55431,-27.7777777777778,4,2,0,20,0,0
55441,-10,4,2,0,20,0,0
55451,-166.666666666667,4,2,0,20,0,0
55539,-138.888888888889,4,2,0,20,0,0
55637,-119.047619047619,4,2,0,20,0,0
55735,-104.166666666667,4,2,0,20,0,0
55823,-10,4,2,0,20,0,0
55833,-25,4,2,0,20,0,0
55853,-125,4,2,0,20,0,0
56617,-25,4,2,0,20,0,0
56637,-125,4,2,0,20,0,0
56813,-14.2857142857143,4,2,0,20,0,0
56823,-37.037037037037,4,2,0,20,0,0
56833,-333.333333333333,4,2,0,20,0,0
57107,-212.765957446809,4,2,0,20,0,0
57205,-161.290322580645,4,2,0,20,0,0
57303,-80.6451612903226,4,2,0,20,0,0
57352,-54.9450549450549,4,2,0,20,0,0
57391,-14.2857142857143,4,2,0,20,0,0
57401,-62.5,4,2,0,20,0,0
57499,-142.857142857143,4,2,0,20,0,0
57597,-25,4,2,0,20,0,0
57617,-125,4,2,0,20,0,0
57793,-25,4,2,0,20,0,0
57813,-125,4,2,0,20,0,0
57989,-25,4,2,0,20,0,0
58009,-125,4,2,0,20,0,0
58185,-25,4,2,0,20,0,0
58205,-125,4,2,0,20,0,0
58382,-10,4,2,0,20,0,0
58392,-16.1290322580645,4,2,0,20,0,0
58393,-333.333333333333,4,2,0,20,0,0
58676,-100,4,2,0,20,0,0
58960,-10,4,2,0,20,0,0
58975,-10000,4,2,0,20,0,0
59126,-40,4,2,0,20,0,0
59166,-25,4,2,0,20,0,0
59186,-125,4,2,0,20,0,0
59362,-25,4,2,0,20,0,0
59382,-125,4,2,0,20,0,0
59558,-25,4,2,0,20,0,0
59578,-125,4,2,0,20,0,0
59754,-25,4,2,0,20,0,0
59774,-125,4,2,0,20,0,0
59950,-14.2857142857143,4,2,0,20,0,0
59965,-37.037037037037,4,2,0,20,0,0
59999,-181.818181818182,4,2,0,20,0,0
60146,-111.111111111111,4,2,0,20,0,0
60195,-90.9090909090909,4,2,0,20,0,0
60343,-10,4,2,0,20,0,0
60353,-55.5555555555556,4,2,0,20,0,0
60392,-125,4,2,0,20,0,0
60528,-14.2857142857143,4,2,0,20,0,0
60543,-1000,4,2,0,20,0,0
60714,-40,4,2,0,20,0,0
60734,-25,4,2,0,20,0,0
60754,-125,4,2,0,20,0,0
60931,-25,4,2,0,20,0,0
60951,-125,4,2,0,20,0,0
61127,-25,4,2,0,20,0,0
61147,-125,4,2,0,20,0,0
61323,-25,4,2,0,20,0,0
61343,-125,4,2,0,20,0,0
61519,-20,4,2,0,20,0,0
61539,-166.666666666667,4,2,0,20,0,0
61705,-27.7777777777778,4,2,0,20,0,0
61715,-10,4,2,0,20,0,0
61725,-166.666666666667,4,2,0,20,0,0
61813,-138.888888888889,4,2,0,20,0,0
61911,-119.047619047619,4,2,0,20,0,0
62009,-104.166666666667,4,2,0,20,0,0
62097,-10,4,2,0,20,0,0
62107,-25,4,2,0,20,0,0
62127,-125,4,2,0,20,0,0
62892,-25,4,2,0,20,0,0
62912,-125,4,2,0,20,0,0
63088,-14.2857142857143,4,2,0,20,0,0
63098,-37.037037037037,4,2,0,20,0,0
63108,-333.333333333333,4,2,0,20,0,0
63382,-212.765957446809,4,2,0,20,0,0
63480,-161.290322580645,4,2,0,20,0,0
63578,-80.6451612903226,4,2,0,20,0,0
63627,-54.9450549450549,4,2,0,20,0,0
63666,-14.2857142857143,4,2,0,20,0,0
63676,-62.5,4,2,0,20,0,0
63774,-142.857142857143,4,2,0,20,0,0
63872,-25,4,2,0,20,0,0
63892,-125,4,2,0,20,0,0
64068,-25,4,2,0,20,0,0
64088,-125,4,2,0,20,0,0
64264,-25,4,2,0,20,0,0
64284,-125,4,2,0,20,0,0
64460,-25,4,2,0,20,0,0
64480,-125,4,2,0,20,0,0
64657,-10,4,2,0,20,0,0
64667,-16.1290322580645,4,2,0,20,0,0
64668,-333.333333333333,4,2,0,20,0,0
64951,-100,4,2,0,20,0,0
65235,-10,4,2,0,20,0,0
65250,-10000,4,2,0,20,0,0
65401,-40,4,2,0,20,0,0
65441,-25,4,2,0,20,0,0
65461,-125,4,2,0,20,0,0
65637,-25,4,2,0,20,0,0
65657,-125,4,2,0,20,0,0
65833,-25,4,2,0,20,0,0
65853,-125,4,2,0,20,0,0
66029,-25,4,2,0,20,0,0
66049,-125,4,2,0,20,0,0
66225,-14.2857142857143,4,2,0,20,0,0
66239,-37.037037037037,4,2,0,20,0,0
66274,-142.857142857143,4,2,0,20,0,0
66421,-111.111111111111,4,2,0,20,0,0
66470,-90.9090909090909,4,2,0,20,0,0
66617,-10,4,2,0,20,0,0
66627,-55.5555555555556,4,2,0,20,0,0
66666,-125,4,2,0,20,0,0
66803,-14.2857142857143,4,2,0,20,0,0
66818,-1000,4,2,0,20,0,0
66989,-40,4,2,0,20,0,0
67009,-25,4,2,0,20,0,0
67029,-125,4,2,0,20,0,0
67206,-25,4,2,0,20,0,0
67226,-125,4,2,0,20,0,0
67402,-25,4,2,0,20,0,0
67422,-125,4,2,0,20,0,0
67598,-25,4,2,0,20,0,0
67618,-125,4,2,0,20,0,0
67794,-20,4,2,0,20,0,0
67814,-166.666666666667,4,2,0,20,0,0
67980,-27.7777777777778,4,2,0,20,0,0
67990,-10,4,2,0,20,0,0
68000,-166.666666666667,4,2,0,20,0,0
68088,-138.888888888889,4,2,0,20,0,0
68186,-119.047619047619,4,2,0,20,0,0
68284,-104.166666666667,4,2,0,20,0,0
68372,-10,4,2,0,20,0,0
68382,-25,4,2,0,20,0,0
68402,-125,4,2,0,20,0,0
69166,-25,4,2,0,20,0,0
69186,-125,4,2,0,20,0,0
69362,-14.2857142857143,4,2,0,20,0,0
69372,-37.037037037037,4,2,0,20,0,0
69382,-333.333333333333,4,2,0,20,0,0
69656,-212.765957446809,4,2,0,20,0,0
69754,-161.290322580645,4,2,0,20,0,0
69852,-80.6451612903226,4,2,0,20,0,0
69901,-54.9450549450549,4,2,0,20,0,0
69940,-14.2857142857143,4,2,0,20,0,0
69950,-62.5,4,2,0,20,0,0
70048,-142.857142857143,4,2,0,20,0,0
70146,-25,4,2,0,20,0,0
70166,-125,4,2,0,20,0,0
70342,-25,4,2,0,20,0,0
70362,-125,4,2,0,20,0,0
70538,-25,4,2,0,20,0,0
70558,-125,4,2,0,20,0,0
70734,-25,4,2,0,20,0,0
70754,-125,4,2,0,20,0,0
70931,-10,4,2,0,20,0,0
70941,-16.1290322580645,4,2,0,20,0,0
70942,-333.333333333333,4,2,0,20,0,0
71225,-100,4,2,0,20,0,0
71509,-10,4,2,0,20,0,0
71524,-10000,4,2,0,20,0,0
71675,-40,4,2,0,20,0,0
71715,-25,4,2,0,20,0,0
71735,-125,4,2,0,20,0,0
71911,-25,4,2,0,20,0,0
71931,-125,4,2,0,20,0,0
72107,-25,4,2,0,20,0,0
72127,-125,4,2,0,20,0,0
72303,-25,4,2,0,20,0,0
72323,-125,4,2,0,20,0,0
72499,-14.2857142857143,4,2,0,20,0,0
72513,-37.037037037037,4,2,0,20,0,0
72514,-142.857142857143,4,2,0,20,0,0
72695,-111.111111111111,4,2,0,20,0,0
72744,-90.9090909090909,4,2,0,20,0,0
72892,-10,4,2,0,20,0,0
72902,-55.5555555555556,4,2,0,20,0,0
72941,-125,4,2,0,20,0,0
73077,-14.2857142857143,4,2,0,20,0,0
73092,-1000,4,2,0,20,0,0
73263,-40,4,2,0,20,0,0
73283,-25,4,2,0,20,0,0
73303,-125,4,2,0,20,0,0
73480,-25,4,2,0,20,0,0
73500,-125,4,2,0,20,0,0
73676,-25,4,2,0,20,0,0
73696,-125,4,2,0,20,0,0
73872,-25,4,2,0,20,0,0
73892,-125,4,2,0,20,0,0
74068,-20,4,2,0,20,0,0
74088,-166.666666666667,4,2,0,20,0,0
74254,-27.7777777777778,4,2,0,20,0,0
74264,-10,4,2,0,20,0,0
74274,-166.666666666667,4,2,0,20,0,0
74362,-138.888888888889,4,2,0,20,0,0
74460,-119.047619047619,4,2,0,20,0,0
74558,-104.166666666667,4,2,0,20,0,0
74646,-10,4,2,0,20,0,0
74656,-25,4,2,0,20,0,0
74676,-125,4,2,0,20,0,0

[HitObjects]
448,192,148,128,0,1716:0:0:0:0:
64,192,1324,1,0,0:0:0:0:
192,192,1716,128,0,5638:0:0:0:0:
448,192,2108,1,0,0:0:0:0:
320,192,2500,1,0,0:0:0:0:
64,192,2893,1,0,0:0:0:0:
448,192,5638,128,0,6422:0:0:0:0:
320,192,6422,128,0,7598:0:0:0:0:
64,192,7598,128,0,12697:0:0:0:0:
192,192,7991,1,0,0:0:0:0:
448,192,8383,1,0,0:0:0:0:
320,192,8775,1,0,0:0:0:0:
192,192,9167,1,0,0:0:0:0:
448,192,11128,128,0,11912:0:0:0:0:
320,192,11912,128,0,12697:0:0:0:0:
448,192,12697,128,0,18971:0:0:0:0:
64,192,13481,1,0,0:0:0:0:
192,192,13481,1,0,0:0:0:0:
192,192,14069,1,0,0:0:0:0:
64,192,14265,1,0,0:0:0:0:
320,192,14657,1,0,0:0:0:0:
64,192,15049,1,0,0:0:0:0:
192,192,15049,1,0,0:0:0:0:
64,192,15442,1,0,0:0:0:0:
320,192,15638,1,0,0:0:0:0:
64,192,16618,1,0,0:0:0:0:
192,192,16618,1,0,0:0:0:0:
64,192,17206,1,0,0:0:0:0:
320,192,17402,1,0,0:0:0:0:
320,192,17795,1,0,0:0:0:0:
192,192,17991,1,0,0:0:0:0:
64,192,18187,1,0,0:0:0:0:
320,192,18187,1,0,0:0:0:0:
192,192,18383,1,0,0:0:0:0:
64,192,18579,1,0,0:0:0:0:
320,192,18775,1,0,0:0:0:0:
64,192,18971,1,0,0:0:0:0:
192,192,18971,128,0,23677:0:0:0:0:
320,192,19755,1,0,0:0:0:0:
448,192,19755,1,0,0:0:0:0:
448,192,20344,1,0,0:0:0:0:
320,192,20540,1,0,0:0:0:0:
64,192,20932,128,0,21324:0:0:0:0:
448,192,21324,128,0,21716:0:0:0:0:
320,192,21324,1,0,0:0:0:0:
320,192,21716,128,0,21912:0:0:0:0:
64,192,21912,128,0,23677:0:0:0:0:
320,192,22893,1,0,0:0:0:0:
448,192,22893,1,0,0:0:0:0:
320,192,23481,1,0,0:0:0:0:
448,192,23677,1,0,0:0:0:0:
320,192,24069,1,0,0:0:0:0:
192,192,24265,1,0,0:0:0:0:
64,192,24461,1,0,0:0:0:0:
448,192,24461,1,0,0:0:0:0:
192,192,24657,1,0,0:0:0:0:
64,192,24853,1,0,0:0:0:0:
320,192,24853,1,0,0:0:0:0:
448,192,24853,1,0,0:0:0:0:
320,192,25245,128,0,25343:0:0:0:0:
320,192,25441,128,0,25539:0:0:0:0:
64,192,25637,1,0,0:0:0:0:
448,192,25637,1,0,0:0:0:0:
448,192,26029,1,0,0:0:0:0:
64,192,26029,1,0,0:0:0:0:
192,192,26225,128,0,26323:0:0:0:0:
192,192,26421,128,0,26519:0:0:0:0:
320,192,26421,1,0,0:0:0:0:
448,192,26617,128,0,26715:0:0:0:0:
448,192,26813,128,0,26911:0:0:0:0:
64,192,26813,1,0,0:0:0:0:
448,192,27009,128,0,27107:0:0:0:0:
320,192,27205,1,0,0:0:0:0:
192,192,27205,1,0,0:0:0:0:
320,192,27597,1,0,0:0:0:0:
448,192,27597,1,0,0:0:0:0:
64,192,27794,128,0,27892:0:0:0:0:
64,192,27990,128,0,28088:0:0:0:0:
192,192,27990,1,0,0:0:0:0:
320,192,28186,128,0,28284:0:0:0:0:
320,192,28382,128,0,28480:0:0:0:0:
192,192,28382,1,0,0:0:0:0:
320,192,28578,128,0,28676:0:0:0:0:
64,192,28774,1,0,0:0:0:0:
192,192,28774,1,0,0:0:0:0:
64,192,29166,1,0,0:0:0:0:
192,192,29166,1,0,0:0:0:0:
192,192,29362,128,0,29460:0:0:0:0:
192,192,29558,128,0,29656:0:0:0:0:
448,192,29558,1,0,0:0:0:0:
320,192,29754,128,0,29852:0:0:0:0:
320,192,29950,128,0,30048:0:0:0:0:
64,192,29950,1,0,0:0:0:0:
320,192,30146,128,0,30245:0:0:0:0:
192,192,30343,1,0,0:0:0:0:
448,192,30343,1,0,0:0:0:0:
192,192,30735,128,0,30833:0:0:0:0:
64,192,30931,128,0,31029:0:0:0:0:
64,192,31127,128,0,31225:0:0:0:0:
64,192,31323,128,0,31421:0:0:0:0:
448,192,31519,128,0,31617:0:0:0:0:
192,192,31519,1,0,0:0:0:0:
64,192,31617,1,0,0:0:0:0:
192,192,31715,128,0,31813:0:0:0:0:
320,192,31813,1,0,0:0:0:0:
448,192,31911,1,0,0:0:0:0:
64,192,31911,1,0,0:0:0:0:
192,192,32009,1,0,0:0:0:0:
320,192,32107,1,0,0:0:0:0:
192,192,32205,1,0,0:0:0:0:
448,192,32303,1,0,0:0:0:0:
64,192,32303,1,0,0:0:0:0:
320,192,32401,128,0,32499:0:0:0:0:
192,192,32499,1,0,0:0:0:0:
320,192,32597,128,0,32695:0:0:0:0:
448,192,32695,1,0,0:0:0:0:
64,192,32695,1,0,0:0:0:0:
192,192,32794,128,0,32892:0:0:0:0:
320,192,32892,1,0,0:0:0:0:
192,192,32990,128,0,33088:0:0:0:0:
448,192,33088,1,0,0:0:0:0:
64,192,33088,1,0,0:0:0:0:
192,192,33186,128,0,33284:0:0:0:0:
320,192,33284,1,0,0:0:0:0:
448,192,33382,1,0,0:0:0:0:
64,192,33480,1,0,0:0:0:0:
320,192,33480,1,0,0:0:0:0:
192,192,33578,1,0,0:0:0:0:
320,192,33676,1,0,0:0:0:0:
448,192,33774,1,0,0:0:0:0:
64,192,33872,1,0,0:0:0:0:
192,192,33872,1,0,0:0:0:0:
320,192,33970,128,0,34068:0:0:0:0:
448,192,34068,1,0,0:0:0:0:
320,192,34166,128,0,34264:0:0:0:0:
64,192,34264,1,0,0:0:0:0:
192,192,34264,1,0,0:0:0:0:
448,192,34362,128,0,34460:0:0:0:0:
192,192,34460,1,0,0:0:0:0:
448,192,34558,128,0,34656:0:0:0:0:
64,192,34656,1,0,0:0:0:0:
192,192,34656,1,0,0:0:0:0:
320,192,34754,1,0,0:0:0:0:
192,192,34852,128,0,34950:0:0:0:0:
448,192,34950,1,0,0:0:0:0:
320,192,35048,1,0,0:0:0:0:
64,192,35048,1,0,0:0:0:0:
192,192,35146,1,0,0:0:0:0:
448,192,35245,1,0,0:0:0:0:
320,192,35343,1,0,0:0:0:0:
192,192,35441,1,0,0:0:0:0:
64,192,35441,1,0,0:0:0:0:
320,192,35539,1,0,0:0:0:0:
64,192,35637,128,0,35735:0:0:0:0:
448,192,35735,1,0,0:0:0:0:
64,192,35833,128,0,35931:0:0:0:0:
192,192,35931,1,0,0:0:0:0:
320,192,36029,128,0,36127:0:0:0:0:
448,192,36127,1,0,0:0:0:0:
320,192,36225,128,0,36323:0:0:0:0:
64,192,36323,1,0,0:0:0:0:
320,192,36421,128,0,36519:0:0:0:0:
192,192,36617,1,0,0:0:0:0:
64,192,36617,1,0,0:0:0:0:
320,192,36682,1,0,0:0:0:0:
448,192,36748,1,0,0:0:0:0:
320,192,36813,1,0,0:0:0:0:
192,192,36878,1,0,0:0:0:0:
64,192,36944,1,0,0:0:0:0:
320,192,37009,128,0,37107:0:0:0:0:
448,192,37009,128,0,37107:0:0:0:0:
192,192,37140,1,0,0:0:0:0:
64,192,37205,1,0,0:0:0:0:
320,192,37271,1,0,0:0:0:0:
448,192,37336,1,0,0:0:0:0:
64,192,37401,1,0,0:0:0:0:
192,192,37401,1,0,0:0:0:0:
320,192,37467,1,0,0:0:0:0:
448,192,37532,1,0,0:0:0:0:
192,192,37597,1,0,0:0:0:0:
320,192,37663,1,0,0:0:0:0:
64,192,37728,1,0,0:0:0:0:
448,192,37794,128,0,37892:0:0:0:0:
192,192,37794,1,0,0:0:0:0:
320,192,37990,128,0,38088:0:0:0:0:
64,192,38186,1,0,0:0:0:0:
192,192,38186,1,0,0:0:0:0:
320,192,38382,1,0,0:0:0:0:
448,192,38382,1,0,0:0:0:0:
64,192,38382,1,0,0:0:0:0:
192,192,38578,1,0,0:0:0:0:
448,192,38578,1,0,0:0:0:0:
320,192,38774,128,0,38872:0:0:0:0:
320,192,38970,128,0,39068:0:0:0:0:
64,192,38970,1,0,0:0:0:0:
192,192,39166,128,0,39264:0:0:0:0:
192,192,39362,128,0,39460:0:0:0:0:
320,192,39362,1,0,0:0:0:0:
192,192,39558,128,0,39656:0:0:0:0:
64,192,39558,1,0,0:0:0:0:
448,192,39558,1,0,0:0:0:0:
320,192,39754,1,0,0:0:0:0:
448,192,39754,1,0,0:0:0:0:
64,192,40146,1,0,0:0:0:0:
320,192,40146,1,0,0:0:0:0:
192,192,40343,128,0,40441:0:0:0:0:
192,192,40539,128,0,40637:0:0:0:0:
448,192,40539,1,0,0:0:0:0:
320,192,40735,128,0,40833:0:0:0:0:
320,192,40931,128,0,41029:0:0:0:0:
64,192,40931,1,0,0:0:0:0:
448,192,40931,1,0,0:0:0:0:
320,192,41127,128,0,41225:0:0:0:0:
64,192,41323,1,0,0:0:0:0:
192,192,41323,1,0,0:0:0:0:
192,192,41519,1,0,0:0:0:0:
448,192,41519,1,0,0:0:0:0:
320,192,41519,1,0,0:0:0:0:
64,192,41715,1,0,0:0:0:0:
448,192,41715,1,0,0:0:0:0:
448,192,41911,128,0,42009:0:0:0:0:
448,192,42107,128,0,42205:0:0:0:0:
320,192,42107,1,0,0:0:0:0:
64,192,42107,1,0,0:0:0:0:
192,192,42303,128,0,42401:0:0:0:0:
192,192,42499,128,0,42597:0:0:0:0:
64,192,42499,1,0,0:0:0:0:
192,192,42695,128,0,42794:0:0:0:0:
320,192,42695,1,0,0:0:0:0:
448,192,42794,1,0,0:0:0:0:
320,192,42892,1,0,0:0:0:0:
64,192,42892,1,0,0:0:0:0:
320,192,43284,128,0,43480:0:0:0:0:
192,192,43480,128,0,43578:0:0:0:0:
192,192,43676,128,0,43774:0:0:0:0:
192,192,43872,128,0,43970:0:0:0:0:
64,192,44068,1,0,0:0:0:0:
448,192,44068,1,0,0:0:0:0:
320,192,44264,128,0,44362:0:0:0:0:
448,192,44460,1,0,0:0:0:0:
64,192,44656,1,0,0:0:0:0:
192,192,44656,1,0,0:0:0:0:
448,192,44852,1,0,0:0:0:0:
320,192,44852,1,0,0:0:0:0:
64,192,44852,1,0,0:0:0:0:
192,192,45048,128,0,45146:0:0:0:0:
192,192,45245,128,0,45343:0:0:0:0:
320,192,45245,1,0,0:0:0:0:
64,192,45441,128,0,45539:0:0:0:0:
448,192,45637,128,0,45735:0:0:0:0:
192,192,45637,1,0,0:0:0:0:
448,192,45833,128,0,45931:0:0:0:0:
320,192,45833,1,0,0:0:0:0:
64,192,45833,1,0,0:0:0:0:
192,192,46029,1,0,0:0:0:0:
320,192,46029,1,0,0:0:0:0:
64,192,46225,1,0,0:0:0:0:
192,192,46421,1,0,0:0:0:0:
448,192,46421,1,0,0:0:0:0:
320,192,46617,1,0,0:0:0:0:
192,192,46813,1,0,0:0:0:0:
448,192,46813,1,0,0:0:0:0:
64,192,47009,1,0,0:0:0:0:
64,192,47205,1,0,0:0:0:0:
320,192,47205,1,0,0:0:0:0:
448,192,47205,1,0,0:0:0:0:
192,192,47303,1,0,0:0:0:0:
320,192,47401,1,0,0:0:0:0:
448,192,47499,1,0,0:0:0:0:
64,192,47597,1,0,0:0:0:0:
192,192,47597,1,0,0:0:0:0:
320,192,47695,1,0,0:0:0:0:
448,192,47794,1,0,0:0:0:0:
192,192,47794,1,0,0:0:0:0:
320,192,47892,1,0,0:0:0:0:
64,192,47990,1,0,0:0:0:0:
192,192,47990,1,0,0:0:0:0:
448,192,48088,1,0,0:0:0:0:
320,192,48186,1,0,0:0:0:0:
192,192,48284,1,0,0:0:0:0:
64,192,48382,1,0,0:0:0:0:
448,192,48382,1,0,0:0:0:0:
320,192,48480,1,0,0:0:0:0:
192,192,48578,1,0,0:0:0:0:
64,192,48774,128,0,48970:0:0:0:0:
448,192,48970,128,0,50343:0:0:0:0:
64,192,50343,128,0,50539:0:0:0:0:
192,192,50343,128,0,50539:0:0:0:0:
320,192,50539,128,0,51127:0:0:0:0:
64,192,51127,1,0,0:0:0:0:
448,192,51127,1,0,0:0:0:0:
192,192,51127,1,0,0:0:0:0:
192,192,51323,128,0,51519:0:0:0:0:
64,192,51519,128,0,51715:0:0:0:0:
320,192,51715,128,0,51911:0:0:0:0:
192,192,51911,128,0,52107:0:0:0:0:
64,192,52107,1,0,0:0:0:0:
320,192,52107,128,0,52695:0:0:0:0:
64,192,52695,1,0,0:0:0:0:
192,192,52695,1,0,0:0:0:0:
448,192,52695,1,0,0:0:0:0:
320,192,52892,128,0,53088:0:0:0:0:
64,192,53088,128,0,53284:0:0:0:0:
448,192,53284,128,0,53480:0:0:0:0:
192,192,53480,128,0,53676:0:0:0:0:
64,192,53480,1,0,0:0:0:0:
320,192,53676,128,0,54264:0:0:0:0:
64,192,54068,1,0,0:0:0:0:
64,192,54264,1,0,0:0:0:0:
192,192,54264,1,0,0:0:0:0:
192,192,54460,128,0,54656:0:0:0:0:
64,192,54656,128,0,54852:0:0:0:0:
448,192,54852,128,0,55048:0:0:0:0:
192,192,55048,128,0,55245:0:0:0:0:
320,192,55245,128,0,55833:0:0:0:0:
448,192,55245,1,0,0:0:0:0:
64,192,55441,1,0,0:0:0:0:
192,192,55441,1,0,0:0:0:0:
64,192,55833,1,0,0:0:0:0:
448,192,55833,128,0,56029:0:0:0:0:
192,192,56029,128,0,56225:0:0:0:0:
320,192,56225,128,0,56421:0:0:0:0:
192,192,56421,128,0,56617:0:0:0:0:
64,192,56617,128,0,56813:0:0:0:0:
448,192,56617,128,0,56813:0:0:0:0:
320,192,56813,128,0,57401:0:0:0:0:
64,192,57401,1,0,0:0:0:0:
448,192,57401,1,0,0:0:0:0:
192,192,57401,1,0,0:0:0:0:
320,192,57597,128,0,57794:0:0:0:0:
64,192,57794,128,0,57990:0:0:0:0:
448,192,57990,128,0,58186:0:0:0:0:
192,192,58186,128,0,58382:0:0:0:0:
320,192,58382,128,0,58970:0:0:0:0:
64,192,58382,1,0,0:0:0:0:
448,192,58382,1,0,0:0:0:0:
64,192,58970,1,0,0:0:0:0:
192,192,58970,1,0,0:0:0:0:
320,192,59166,128,0,59362:0:0:0:0:
192,192,59362,128,0,59558:0:0:0:0:
448,192,59558,128,0,59754:0:0:0:0:
320,192,59754,128,0,59950:0:0:0:0:
64,192,59754,1,0,0:0:0:0:
448,192,59950,128,0,60539:0:0:0:0:
192,192,60343,1,0,0:0:0:0:
64,192,60539,1,0,0:0:0:0:
192,192,60539,1,0,0:0:0:0:
320,192,60735,128,0,60931:0:0:0:0:
64,192,60931,128,0,61127:0:0:0:0:
320,192,61127,128,0,61323:0:0:0:0:
192,192,61323,128,0,61519:0:0:0:0:
320,192,61519,128,0,61715:0:0:0:0:
448,192,61519,1,0,0:0:0:0:
192,192,61715,128,0,62107:0:0:0:0:
64,192,61715,1,0,0:0:0:0:
448,192,62107,1,0,0:0:0:0:
320,192,62107,1,0,0:0:0:0:
448,192,62303,128,0,62499:0:0:0:0:
192,192,62499,128,0,62695:0:0:0:0:
64,192,62695,128,0,62892:0:0:0:0:
320,192,62892,128,0,63088:0:0:0:0:
192,192,62892,1,0,0:0:0:0:
448,192,63088,128,0,63676:0:0:0:0:
64,192,63676,1,0,0:0:0:0:
320,192,63676,128,0,63872:0:0:0:0:
192,192,63872,128,0,64068:0:0:0:0:
320,192,64068,128,0,64264:0:0:0:0:
64,192,64264,128,0,64460:0:0:0:0:
448,192,64460,128,0,64656:0:0:0:0:
64,192,64656,128,0,65245:0:0:0:0:
192,192,64656,1,0,0:0:0:0:
320,192,65245,1,0,0:0:0:0:
448,192,65245,1,0,0:0:0:0:
192,192,65441,128,0,65637:0:0:0:0:
320,192,65637,128,0,65833:0:0:0:0:
448,192,65833,128,0,66029:0:0:0:0:
64,192,66029,128,0,66225:0:0:0:0:
192,192,66029,1,0,0:0:0:0:
448,192,66225,128,0,66813:0:0:0:0:
192,192,66617,1,0,0:0:0:0:
64,192,66813,1,0,0:0:0:0:
320,192,66813,1,0,0:0:0:0:
192,192,67009,128,0,67205:0:0:0:0:
64,192,67205,128,0,67401:0:0:0:0:
448,192,67401,128,0,67597:0:0:0:0:
320,192,67597,128,0,67794:0:0:0:0:
192,192,67794,128,0,68382:0:0:0:0:
64,192,67794,1,0,0:0:0:0:
320,192,67990,1,0,0:0:0:0:
448,192,67990,1,0,0:0:0:0:
64,192,68382,1,0,0:0:0:0:
448,192,68382,1,0,0:0:0:0:
320,192,68578,128,0,68774:0:0:0:0:
192,192,68774,128,0,68970:0:0:0:0:
320,192,68970,128,0,69166:0:0:0:0:
64,192,69166,1,0,0:0:0:0:
448,192,69166,128,0,69362:0:0:0:0:
192,192,69362,128,0,69950:0:0:0:0:
64,192,69950,1,0,0:0:0:0:
448,192,69950,1,0,0:0:0:0:
320,192,70146,128,0,70343:0:0:0:0:
64,192,70343,128,0,70539:0:0:0:0:
448,192,70539,128,0,70735:0:0:0:0:
192,192,70735,128,0,70931:0:0:0:0:
320,192,70931,128,0,71519:0:0:0:0:
448,192,70931,1,0,0:0:0:0:
64,192,71519,1,0,0:0:0:0:
448,192,71519,1,0,0:0:0:0:
320,192,71715,128,0,71911:0:0:0:0:
192,192,71911,128,0,72107:0:0:0:0:
448,192,72107,128,0,72303:0:0:0:0:
64,192,72303,128,0,72499:0:0:0:0:
192,192,72303,1,0,0:0:0:0:
448,192,72499,128,0,73088:0:0:0:0:
320,192,72695,1,0,0:0:0:0:
192,192,72892,1,0,0:0:0:0:
64,192,73088,1,0,0:0:0:0:
320,192,73088,1,0,0:0:0:0:
192,192,73284,128,0,73480:0:0:0:0:
320,192,73480,128,0,73676:0:0:0:0:
448,192,73480,1,0,0:0:0:0:
64,192,73676,128,0,73872:0:0:0:0:
320,192,73872,128,0,74068:0:0:0:0:
192,192,74068,128,0,74264:0:0:0:0:
64,192,74068,1,0,0:0:0:0:
320,192,74264,128,0,74656:0:0:0:0:
448,192,74264,1,0,0:0:0:0:
64,192,74656,1,0,0:0:0:0:
448,192,74656,1,0,0:0:0:0:
320,192,74852,128,0,75048:0:0:0:0:
192,192,75048,128,0,75245:0:0:0:0:
64,192,75245,128,0,75441:0:0:0:0:
