osu file format v14

[General]
AudioFilename: audio.mp3
AudioLeadIn: 0
PreviewTime: 0
Countdown: 1
SampleSet: Soft
StackLeniency: 0.7
Mode: 0
LetterboxInBreaks: 0
WidescreenStoryboard: 1

[Editor]
DistanceSpacing: 0.8
BeatDivisor: 4
GridSize: 4
TimelineZoom: 1

[Metadata]
Title:Untitled 2
TitleUnicode:Untitled 2
Artist:SoGreatandPowerful
ArtistUnicode:SoGreatandPowerful
Creator:-Wolfie-
Version:Normal
Source:
Tags:
BeatmapID:1864503
BeatmapSetID:891872

[Difficulty]
HPDrainRate:5
CircleSize:3
OverallDifficulty:5
ApproachRate:6
SliderMultiplier:2
SliderTickRate:1

[Events]
//Background and Video events
0,0,"UNTITLED 2.jpg",0,0
//Break Periods
//Storyboard Layer 0 (Background)
//Storyboard Layer 1 (Fail)
//Storyboard Layer 2 (Pass)
//Storyboard Layer 3 (Foreground)
//Storyboard Sound Samples

[TimingPoints]
0,576.923076923077,4,1,0,75,1,0
35625,-100,4,2,0,5,0,0
35913,-100,4,1,0,75,0,0
73499,-100,4,2,0,5,0,0

[Colours]
Combo1 : 228,225,182
Combo2 : 159,207,243
Combo3 : 222,229,235
Combo4 : 226,239,247

[HitObjects]
82,266,0,6,0,P|126:177|206:118,1,200
302,64,865,1,0,0:0:0:0:
381,139,1153,1,0,0:0:0:0:
461,214,1442,1,0,0:0:0:0:
400,292,1730,2,0,L|164:292,1,200
109,159,2884,5,0,0:0:0:0:
231,76,3461,1,8,0:0:0:0:
337,195,4038,1,0,0:0:0:0:
175,308,4615,6,0,P|85:245|88:136,1,200
172,107,5480,1,0,0:0:0:0:
281,119,5769,1,0,0:0:0:0:
257,226,6057,1,0,0:0:0:0:
344,292,6346,1,0,0:0:0:0:
356,180,6634,1,0,0:0:0:0:
456,157,6923,6,0,P|390:62|271:54,1,200
229,117,7788,1,8,0:0:0:0:
318,180,8076,1,0,0:0:0:0:
228,244,8365,5,0,0:0:0:0:
120,222,8653,2,0,L|53:114,1,100
169,94,9230,6,0,P|214:62|293:40,1,100
331,126,9807,2,0,P|363:171|385:250,1,100
451,273,10384,2,0,P|417:313|365:313,1,100
256,312,10961,6,0,L|40:312,1,200
152,112,12115,1,0,0:0:0:0:
256,304,12692,1,8,0:0:0:0:
372,116,13269,1,0,0:0:0:0:
164,188,13846,5,0,0:0:0:0:
452,84,14423,1,0,0:0:0:0:
453,183,14711,2,0,P|420:220|378:247,1,100
268,252,15288,1,0,0:0:0:0:
158,250,15576,2,0,P|115:223|82:186,1,100
206,103,16153,1,4,0:0:0:0:
380,188,16730,5,8,0:0:0:0:
160,184,17307,1,4,0:0:0:0:
160,330,18461,6,0,L|272:332,1,100
370,335,19038,1,0,0:0:0:0:
392,227,19326,2,0,L|248:228,2,100
332,133,20192,1,0,0:0:0:0:
111,131,20769,5,0,0:0:0:0:
312,218,21346,1,0,0:0:0:0:
116,316,21923,2,0,L|242:316,2,100
116,96,23076,6,0,L|228:94,1,100
328,92,23653,1,0,0:0:0:0:
338,197,23942,2,0,L|219:198,2,100
339,308,24807,1,0,0:0:0:0:
453,120,25384,5,0,0:0:0:0:
235,84,25961,1,0,0:0:0:0:
54,210,26538,2,0,L|126:314,2,100
261,284,27692,5,0,0:0:0:0:
443,161,28269,1,0,0:0:0:0:
342,117,28557,2,0,L|241:193,1,100
172,203,29134,1,0,0:0:0:0:
122,302,29423,6,0,P|77:191|121:84,1,200
206,116,30288,1,0,0:0:0:0:
264,208,30576,1,0,0:0:0:0:
324,116,30865,1,0,0:0:0:0:
388,204,31153,1,0,0:0:0:0:
256,192,32307,12,4,35769,0:0:0:0:
144,82,36923,5,0,0:0:0:0:
306,235,37500,5,0,0:0:0:0:
455,100,38076,1,8,0:0:0:0:
423,317,38653,1,0,0:0:0:0:
319,122,39230,2,0,P|219:138|115:120,1,200
60,334,40384,5,0,0:0:0:0:
243,212,40961,1,0,0:0:0:0:
424,336,41538,5,0,0:0:0:0:
424,116,42114,1,0,0:0:0:0:
204,116,42691,1,8,0:0:0:0:
200,336,43269,2,0,L|416:336,1,200
306,140,44423,5,0,0:0:0:0:
90,94,45000,1,0,0:0:0:0:
167,299,45576,1,0,0:0:0:0:
49,181,46153,6,0,L|462:182,1,400
57,324,48461,1,0,0:0:0:0:
417,72,49615,1,0,0:0:0:0:
49,203,50769,6,0,L|462:202,1,400
57,60,53077,1,0,0:0:0:0:
417,312,54231,1,0,0:0:0:0:
55,61,55384,6,0,P|115:134|203:167,2,150
276,60,57115,1,0,0:0:0:0:
414,231,57692,5,0,0:0:0:0:
323,292,57980,1,0,0:0:0:0:
252,208,58269,1,0,0:0:0:0:
189,298,58557,1,0,0:0:0:0:
78,291,58846,2,0,L|77:165,1,100
161,120,59423,2,0,L|255:47,1,100
282,160,60000,5,0,0:0:0:0:
145,315,60576,1,0,0:0:0:0:
364,307,61153,2,0,L|363:83,1,200
199,179,62307,5,0,0:0:0:0:
364,307,62883,1,0,0:0:0:0:
298,77,63461,2,0,L|75:77,1,200
108,294,64615,2,0,P|281:223|380:111,2,300
327,316,66923,5,0,0:0:0:0:
145,139,67500,1,0,0:0:0:0:
49,337,68076,1,0,0:0:0:0:
242,232,68653,1,4,0:0:0:0:
256,192,69230,12,0,73846,0:0:0:0:
