osu file format v14

[General]
AudioFilename: audio.mp3
AudioLeadIn: 0
PreviewTime: 0
Countdown: 1
SampleSet: Normal
StackLeniency: 0.7
Mode: 0
LetterboxInBreaks: 0
WidescreenStoryboard: 0

[Editor]
DistanceSpacing: 1.8
BeatDivisor: 4
GridSize: 4
TimelineZoom: 1

[Metadata]
Title:Untitled 2
TitleUnicode:Untitled 2
Artist:SoGreatandPowerful
ArtistUnicode:SoGreatandPowerful
Creator:-Wolfie-
Version:Hard
Source:
Tags:
BeatmapID:1864501
BeatmapSetID:891872

[Difficulty]
HPDrainRate:7
CircleSize:3
OverallDifficulty:6
ApproachRate:8
SliderMultiplier:2
SliderTickRate:1

[Events]
//Background and Video events
0,0,"UNTITLED 2.jpg",0,0
//Break Periods
//Storyboard Layer 0 (Background)
//Storyboard Layer 1 (Fail)
//Storyboard Layer 2 (Pass)
//Storyboard Layer 3 (Foreground)
//Storyboard Sound Samples

[TimingPoints]
0,576.923076923077,4,1,0,75,1,0

[Colours]
Combo1 : 228,225,182
Combo2 : 159,207,243
Combo3 : 222,229,235
Combo4 : 226,239,247

[HitObjects]
84,246,0,6,0,P|87:136|179:86,1,200
171,186,865,2,0,P|281:189|331:281,1,200
335,345,1730,2,0,P|409:283|405:187,1,200
258,194,2596,5,0,0:0:0:0:
194,97,2740,1,0,0:0:0:0:
48,205,2884,2,0,P|90:220|187:203,1,100
341,339,3461,2,0,P|415:277|415:271,1,100
294,222,4038,2,0,P|311:239|335:247,3,50
426,217,4615,5,0,0:0:0:0:
407,87,4903,2,0,P|382:88|360:100,1,50
244,157,5192,1,0,0:0:0:0:
388,307,5480,1,0,0:0:0:0:
233,269,5769,2,0,P|233:293|245:315,1,50
107,221,6201,6,0,P|129:209|154:209,1,50
234,113,6634,1,0,0:0:0:0:
58,57,6923,5,0,0:0:0:0:
107,221,7211,2,0,P|129:209|154:209,1,50
237,264,7500,1,0,0:0:0:0:
378,147,7788,5,0,0:0:0:0:
420,224,8076,1,0,0:0:0:0:
331,280,8365,2,0,P|319:258|318:233,1,50
238,151,8653,1,0,0:0:0:0:
128,81,8942,1,0,0:0:0:0:
43,128,9230,5,0,0:0:0:0:
60,265,9519,2,0,P|48:243|47:218,1,50
152,180,9807,1,0,0:0:0:0:
234,263,10096,1,0,0:0:0:0:
370,205,10384,5,0,0:0:0:0:
353,68,10673,2,0,P|365:90|366:115,1,50
261,153,10961,1,0,0:0:0:0:
179,70,11250,1,0,0:0:0:0:
260,280,11538,5,0,0:0:0:0:
346,236,11826,2,0,P|358:258|335:333,1,100
242,133,12403,1,0,0:0:0:0:
169,198,12692,5,0,0:0:0:0:
213,284,12980,2,0,P|191:296|116:273,1,100
316,180,13557,1,0,0:0:0:0:
88,88,13846,5,0,0:0:0:0:
158,205,14134,1,0,0:0:0:0:
260,80,14423,1,0,0:0:0:0:
264,224,14711,1,0,0:0:0:0:
273,319,15000,2,0,P|230:313|176:269,1,100
136,188,15576,1,0,0:0:0:0:
240,112,15865,1,0,0:0:0:0:
296,288,16153,5,0,0:0:0:0:
391,135,16442,1,0,0:0:0:0:
311,53,16586,1,0,0:0:0:0:
221,61,16730,2,0,P|155:87|170:152,1,100
243,264,17307,1,4,0:0:0:0:
58,193,18461,6,0,B|106:216|212:154|270:209,1,200
336,295,19326,1,0,0:0:0:0:
381,233,19759,1,0,0:0:0:0:
381,233,19903,1,0,0:0:0:0:
460,285,20192,2,0,P|367:325|284:248,1,200
136,264,21201,5,0,0:0:0:0:
57,220,21346,1,0,0:0:0:0:
118,87,21634,1,0,0:0:0:0:
201,87,21778,1,0,0:0:0:0:
388,120,22067,1,0,0:0:0:0:
388,120,22211,1,0,0:0:0:0:
350,36,22500,2,0,P|297:116|339:202,1,200
389,300,23365,5,0,0:0:0:0:
389,300,23437,1,0,0:0:0:0:
389,300,23509,1,0,0:0:0:0:
310,239,23653,2,0,P|261:209|184:203,1,100
40,141,24375,5,0,0:0:0:0:
40,141,24519,1,0,0:0:0:0:
69,318,24807,2,0,P|143:212|234:204,1,200
296,308,25817,5,0,0:0:0:0:
348,228,25961,1,0,0:0:0:0:
268,120,26250,1,0,0:0:0:0:
169,103,26394,1,0,0:0:0:0:
62,119,26682,1,0,0:0:0:0:
48,182,26826,2,0,P|96:205|186:188,1,100
256,128,27403,1,0,0:0:0:0:
256,292,27692,5,0,0:0:0:0:
103,70,28125,2,0,B|135:59|135:59|189:75,1,50
256,192,28557,1,0,0:0:0:0:
408,143,28990,1,0,0:0:0:0:
419,256,29134,2,0,B|387:267|387:267|371:262,1,50
333,341,29423,2,0,P|292:307|283:222,1,100
350,202,30000,5,0,0:0:0:0:
100,329,30433,2,0,B|89:297|89:297|105:243,1,50
250,202,30865,1,0,0:0:0:0:
154,192,31009,1,0,0:0:0:0:
314,39,31298,2,0,B|325:71|325:71|320:86,1,50
399,125,31731,2,0,P|365:166|280:175,1,100
140,192,32307,1,4,0:0:0:0:
256,192,34615,12,0,36634,0:0:0:0:
256,192,36923,6,0,P|309:204|378:185,1,100
411,108,37500,1,8,0:0:0:0:
469,226,37788,2,0,B|404:295|404:295|290:325,1,200
200,248,38653,5,8,0:0:0:0:
102,211,38942,2,0,P|136:168|190:149,1,100
332,144,39519,1,8,0:0:0:0:
256,280,39807,1,8,0:0:0:0:
180,144,40096,1,8,0:0:0:0:
83,109,40384,2,0,P|74:159|100:211,3,100
54,308,41538,6,0,P|108:310|175:264,1,100
266,158,42115,1,8,0:0:0:0:
370,323,42403,6,0,B|264:255|449:150|304:59,1,300
189,64,43557,2,0,P|143:92|112:153,1,100
212,216,44134,1,8,0:0:0:0:
247,332,44423,2,0,P|293:304|324:243,1,100
408,168,45000,5,8,0:0:0:0:
312,72,45288,1,8,0:0:0:0:
203,101,45576,2,0,P|231:147|292:178,1,100
218,258,46153,6,0,P|274:277|331:251,2,100
66,200,47019,2,0,B|128:239|220:117|292:181,1,200
362,87,47884,1,0,0:0:0:0:
468,192,48173,1,0,0:0:0:0:
308,332,48461,1,0,0:0:0:0:
334,219,48750,6,0,B|266:180|177:366|61:306,1,300
115,233,49903,1,0,0:0:0:0:
60,72,50192,1,0,0:0:0:0:
360,44,50480,1,0,0:0:0:0:
290,116,50769,6,0,P|343:148|400:122,2,100
244,264,51634,1,0,0:0:0:0:
136,336,51923,1,0,0:0:0:0:
85,217,52211,1,0,0:0:0:0:
173,102,52500,1,0,0:0:0:0:
323,135,52788,1,0,0:0:0:0:
248,312,53076,1,0,0:0:0:0:
47,248,53365,6,0,P|81:208|151:201,1,100
230,188,53942,2,0,P|217:141|179:110,1,100
233,307,54519,2,0,P|280:293|311:255,1,100,0|4,0:0|0:0,0:0:0:0:
75,194,55384,6,0,B|124:219|204:156|293:186,1,200
369,62,56250,2,0,B|296:93|422:173|314:273,1,200
252,188,57115,1,0,0:0:0:0:
164,280,57403,5,0,0:0:0:0:
104,164,57692,1,0,0:0:0:0:
208,68,57980,1,0,0:0:0:0:
384,132,58269,1,0,0:0:0:0:
264,312,58557,1,0,0:0:0:0:
460,324,58846,1,0,0:0:0:0:
280,149,59134,1,0,0:0:0:0:
164,280,59423,1,0,0:0:0:0:
370,220,59711,1,0,0:0:0:0:
464,277,60000,6,0,B|372:311|372:311|273:288,1,200
203,208,60865,2,0,B|249:181|249:181|310:194,1,100
401,218,61442,2,0,B|410:172|410:172|383:126,1,100
264,64,62019,5,0,0:0:0:0:
140,188,62307,1,0,0:0:0:0:
256,300,62596,1,0,0:0:0:0:
440,300,62884,1,0,0:0:0:0:
312,120,63173,1,0,0:0:0:0:
464,44,63461,1,0,0:0:0:0:
186,76,63750,1,0,0:0:0:0:
40,161,64038,6,0,B|102:120|102:120|164:184|247:151,1,200
285,114,64903,2,0,B|324:178|324:178|260:240|185:260,1,200
64,332,65769,2,0,B|126:291|126:291|188:355|279:327,1,200
359,341,66634,2,0,P|411:293|368:83,1,300
256,192,68076,1,0,0:0:0:0:
144,64,68653,1,4,0:0:0:0:
256,192,69230,12,0,73846,0:0:0:0:
