osu file format v14

[General]
AudioFilename: audio.mp3
AudioLeadIn: 0
PreviewTime: 279683
Countdown: 0
SampleSet: None
StackLeniency: 0.7
Mode: 0
LetterboxInBreaks: 1
EpilepsyWarning: 1
WidescreenStoryboard: 1

[Editor]
Bookmarks: 19440,38081,56722,66042,94003,112644,131285,140605,168566,187207,205848,224489,243130,261770,280411,299052,317693
DistanceSpacing: 1.6
BeatDivisor: 4
GridSize: 4
TimelineZoom: 1.6

[Metadata]
Title:i BELIEVE~Hoshi ni Negai o
TitleUnicode:i BELIEVE~星に願いを
Artist:So'Fly
ArtistUnicode:So'Fly
Creator:GalenTori
Version:A Wish To The Stars
Source:
Tags:GIORGIO Cancemi 13 TOKO hiphop CDTV First Kiss サイン やりすぎコージー j-pop rnb r&b Inversal
BeatmapID:1435364
BeatmapSetID:570182

[Difficulty]
HPDrainRate:6.5
CircleSize:4
OverallDifficulty:8
ApproachRate:9.3
SliderMultiplier:1.8
SliderTickRate:1

[Events]
//Background and Video events
0,0,"bg0.png",0,0
//Break Periods
2,131485,140051
//Storyboard Layer 0 (Background)
//Storyboard Layer 1 (Fail)
//Storyboard Layer 2 (Pass)
//Storyboard Layer 3 (Foreground)
//Storyboard Sound Samples

[TimingPoints]
800,582.52427184466,4,2,1,75,1,0
14780,-83.3333333333333,4,2,1,75,0,0
18275,-100,4,2,1,75,0,0
36916,-83.3333333333333,4,2,1,75,0,0
38081,-66.6666666666667,4,3,1,85,0,1
44052,-66.6666666666667,4,2,2,85,0,1
44198,-66.6666666666667,4,3,1,85,0,1
56139,-133.333333333333,4,2,1,85,0,1
56431,-100,4,2,1,85,0,1
56722,-100,4,2,1,75,0,0
66042,-83.3333333333333,4,2,1,75,0,0
73615,-83.3333333333333,4,2,2,75,0,0
73761,-83.3333333333333,4,2,1,75,0,0
74343,-83.3333333333333,4,2,2,75,0,0
74489,-83.3333333333333,4,2,1,75,0,0
74780,-83.3333333333333,4,2,2,75,0,0
74926,-83.3333333333333,4,2,1,75,0,0
86431,-83.3333333333333,4,2,2,75,0,0
86576,-83.3333333333333,4,2,1,75,0,0
88324,-83.3333333333333,4,2,2,75,0,0
88469,-83.3333333333333,4,2,1,75,0,0
88761,-83.3333333333333,4,2,2,75,0,0
88906,-83.3333333333333,4,2,1,75,0,0
92838,-83.3333333333333,4,2,1,75,0,0
93421,-133.333333333333,4,2,1,75,0,0
94003,-66.6666666666667,4,3,1,85,0,1
111479,-66.6666666666667,4,3,1,85,0,0
112644,-71.4285714285714,4,3,1,75,0,1
112790,-71.4285714285714,4,3,1,75,0,0
116285,-71.4285714285714,4,2,2,75,0,0
116431,-71.4285714285714,4,3,1,75,0,0
125605,-71.4285714285714,4,2,2,75,0,0
125751,-71.4285714285714,4,3,1,75,0,0
140605,-71.4285714285714,4,2,1,75,0,0
153566,-71.4285714285714,4,2,2,75,0,0
153712,-71.4285714285714,4,2,1,75,0,0
165217,-71.4285714285714,4,2,2,75,0,0
165363,-71.4285714285714,4,2,1,75,0,0
167401,-83.3333333333333,4,2,1,75,0,0
168566,-66.6666666666667,4,3,1,85,0,1
174537,-66.6666666666667,4,2,2,85,0,1
174683,-66.6666666666667,4,3,1,85,0,1
186042,-66.6666666666667,4,3,1,85,0,0
187207,-71.4285714285714,4,3,1,75,0,1
187353,-71.4285714285714,4,3,1,75,0,0
190848,-71.4285714285714,4,2,2,75,0,0
190994,-71.4285714285714,4,3,1,75,0,0
205848,-100,4,3,1,75,0,0
211091,-100,4,2,2,75,0,0
211236,-100,4,3,1,75,0,0
211819,-100,4,2,2,75,0,0
211965,-100,4,3,1,75,0,0
212256,-100,4,2,2,75,0,0
212401,-100,4,3,1,75,0,0
213421,-100,4,2,2,75,0,0
213566,-100,4,3,1,75,0,0
214149,-100,4,2,2,75,0,0
214295,-100,4,3,1,75,0,0
224489,-76.9230769230769,4,3,1,75,0,0
241965,-100,4,2,1,75,0,0
243130,-100,4,3,1,75,0,0
260023,-100,4,2,1,5,0,0
260605,-100,4,2,1,75,0,0
261770,-100,4,2,1,75,0,0
278664,-100,4,2,1,5,0,0
279246,-100,4,2,1,75,0,0
279829,-83.3333333333333,4,2,1,75,0,0
280411,-66.6666666666667,4,3,1,85,0,1
297887,-66.6666666666667,4,3,1,85,0,0
299052,-71.4285714285714,4,3,1,75,0,1
299198,-71.4285714285714,4,3,1,75,0,0
317693,-71.4285714285714,4,2,1,75,0,0

[Colours]
Combo1 : 128,255,128
Combo2 : 255,128,128
Combo3 : 255,255,115
Combo4 : 106,255,255

[HitObjects]
116,272,800,6,0,L|224:280,1,90,0|0,1:0|0:0,0:0:0:0:
280,320,1236,2,0,P|292:276|272:224,1,90
204,192,1673,2,0,L|140:188,1,45
284,148,1965,2,0,L|388:156,1,90,0|0,1:0|0:0,0:0:0:0:
432,92,2401,1,0,0:0:0:0:
432,92,2547,2,0,P|392:68|336:72,1,90
164,36,3130,6,0,P|204:60|260:56,1,90,0|0,1:0|0:0,0:0:0:0:
284,148,3566,1,0,0:0:0:0:
204,192,3712,2,0,P|184:180|156:182,1,45
44,212,4003,2,0,P|64:224|92:222,1,45
160,272,4295,2,0,P|136:308|92:332,2,90
240,320,5168,1,0,0:0:0:0:
320,368,5460,6,0,L|432:352,1,90,0|0,1:0|0:0,0:0:0:0:
476,288,5897,2,0,P|448:240|456:192,1,90
504,96,6333,2,0,P|508:124|500:152,1,45
420,124,6625,2,0,P|376:112|324:120,1,90,0|0,1:0|0:0,0:0:0:0:
276,180,7062,2,0,P|231:184|188:173,1,90
124,116,7499,2,0,L|132:60,1,45
48,152,7790,6,0,P|64:200|52:252,1,90,0|0,1:0|0:0,0:0:0:0:
128,284,8227,2,0,L|236:272,1,90
296,304,8664,2,0,P|304:332|300:364,1,45
348,236,8955,2,0,P|336:188|344:140,1,90,0|0,1:0|0:0,0:0:0:0:
412,100,9392,1,0,0:0:0:0:
352,40,9537,2,0,L|300:36,1,45,0|0,1:0|0:0,0:0:0:0:
228,72,9829,2,0,L|172:68,1,45
108,28,10120,5,0,1:0:0:0:
32,228,10411,1,0,0:0:0:0:
108,184,10557,2,0,P|160:180|208:196,1,90
244,260,10994,2,0,L|304:252,1,45
364,212,11285,2,0,P|344:168|356:116,1,90,0|0,1:0|0:0,0:0:0:0:
404,60,11722,2,0,L|300:48,1,90
200,100,12159,2,0,P|240:100|264:88,1,45
116,138,12450,6,0,P|108:94|120:52,2,90,0|0|0,1:0|0:0|0:0,0:0:0:0:
192,192,13178,2,0,L|296:196,1,90
364,168,13615,2,0,P|368:212|360:232,1,45,0|0,1:0|0:0,0:0:0:0:
308,276,13906,2,0,L|304:332,1,45
228,360,14198,1,0,0:0:0:0:
456,284,14489,1,0,0:0:0:0:
456,284,14634,1,0,0:0:0:0:
456,284,14780,6,0,P|472:228|460:164,1,107.999996704102,0|0,1:0|0:0,0:0:0:0:
416,108,15217,1,0,0:0:0:0:
332,80,15363,2,0,L|264:88,1,53.9999983520508
204,128,15654,2,0,L|132:120,1,53.9999983520508
72,80,15945,2,0,P|64:48|68:16,1,53.9999983520508,0|0,1:0|0:0,0:0:0:0:
150,122,16236,2,0,P|164:184|144:240,1,107.999996704102
300,312,16819,1,0,0:0:0:0:
300,312,16965,1,0,0:0:0:0:
300,312,17110,6,0,L|384:304,1,53.9999983520508,0|0,1:0|0:0,0:0:0:0:
424,256,17401,2,0,P|412:224|416:192,1,53.9999983520508
468,136,17693,2,0,P|467:109|456:84,1,53.9999983520508
388,32,17984,1,0,0:0:0:0:
388,32,18275,6,0,L|284:40,1,90
252,128,18858,2,0,P|200:132|152:108,1,90
344,92,19440,6,0,P|380:92|412:100,1,45,0|0,1:0|0:0,0:0:0:0:
472,120,19732,1,0,0:0:0:0:
456,248,19877,2,0,L|444:356,1,90,2|0,0:1|0:0,0:0:0:0:
304,256,20314,1,0,0:0:0:0:
304,256,20605,2,0,P|260:248|208:264,1,90,0|0,1:0|0:0,0:0:0:0:
164,324,21042,1,0,0:0:0:0:
88,264,21188,2,0,P|36:264|-4:284,1,90
136,92,21770,6,0,P|176:96|212:92,1,45,0|0,1:0|0:0,0:0:0:0:
264,52,22062,1,0,0:0:0:0:
336,112,22207,2,0,L|464:108,1,90,2|0,0:1|0:0,0:0:0:0:
488,172,22644,1,0,0:0:0:0:
424,288,22935,2,0,L|435:391,1,90
340,232,23518,1,0,1:0:0:0:
244,240,23664,2,0,L|188:244,2,45,2|2|2,0:1|0:1|0:1,0:0:0:0:
24,104,24100,6,0,P|72:92|120:104,1,90,0|0,1:0|0:0,0:0:0:0:
72,188,24537,2,0,L|80:284,1,90,2|0,0:1|0:0,0:0:0:0:
88,360,24974,1,0,0:0:0:0:
264,312,25266,2,0,P|312:304|352:312,1,90,0|0,1:0|0:0,0:0:0:0:
264,204,25702,2,0,P|212:208|160:244,1,90,2|0,0:1|0:0,0:0:0:0:
112,296,26139,1,0,0:0:0:0:
328,116,26431,6,0,L|432:112,1,90,0|0,1:0|0:0,0:0:0:0:
372,24,26867,2,0,L|264:28,1,90,2|0,0:1|0:0,0:0:0:0:
200,64,27304,1,0,0:0:0:0:
272,204,27596,2,0,L|264:304,1,90,0|0,1:0|0:0,0:0:0:0:
360,164,28178,1,2,1:1:0:0:
456,176,28324,2,0,L|500:180,2,45,2|2|2,0:1|0:1|0:1,0:0:0:0:
392,320,28761,6,0,L|272:308,1,90,0|0,1:0|0:0,0:0:0:0:
176,340,29198,2,0,P|124:348|72:336,1,90,2|0,0:1|0:0,0:0:0:0:
132,252,29634,1,0,0:0:0:0:
172,164,29926,2,0,P|128:156|80:168,1,90,0|0,1:0|0:0,0:0:0:0:
132,252,30363,2,0,P|184:260|236:244,1,90
296,200,30799,1,0,0:0:0:0:
400,272,31091,6,0,L|388:364,1,90,0|0,1:0|0:0,0:0:0:0:
484,300,31528,2,0,L|492:200,1,90
504,112,31965,1,0,0:0:0:0:
384,36,32256,2,0,L|296:40,1,45,0|0,1:0|0:0,0:0:0:0:
264,128,32547,2,0,L|340:124,1,45
372,188,32838,1,2,0:1:0:0:
332,324,32984,2,0,L|336:384,2,45,2|2|2,0:1|0:1|0:1,0:0:0:0:
152,216,33421,6,0,P|92:208|56:220,1,90,0|0,1:0|0:0,0:0:0:0:
240,264,33858,2,0,P|252:224|232:156,1,90
216,80,34295,2,0,P|192:88|156:88,1,45
304,24,34586,2,0,L|408:20,1,90,0|0,1:0|0:0,0:0:0:0:
404,140,35023,2,0,L|288:144,1,90
244,196,35460,1,0,0:0:0:0:
332,272,35751,6,0,L|336:372,1,90,0|0,1:0|0:0,0:0:0:0:
284,184,36188,2,0,P|336:172|388:188,1,90
448,236,36625,2,0,P|480:232|504:220,1,45
208,176,36916,5,8,0:0:0:0:
296,352,37062,1,8,0:0:0:0:
312,232,37353,5,8,0:0:0:0:
180,316,37499,1,8,0:0:0:0:
100,200,37790,1,8,0:0:0:0:
280,136,38081,6,0,L|392:132,1,67.5000025749208,6|0,0:2|0:0,0:0:0:0:
440,172,38372,1,2,0:3:0:0:
236,216,38518,2,0,P|200:188|188:148,1,67.5000025749208,8|8,0:3|0:2,0:0:0:0:
349,68,38809,2,0,P|354:113|334:150,1,67.5000025749208,2|2,0:3|0:3,0:0:0:0:
236,216,39100,1,2,0:3:0:0:
236,216,39246,2,0,L|92:208,1,135.000005149842,2|8,0:3|0:3,0:0:0:0:
16,152,39683,1,0,0:0:0:0:
136,304,39829,2,0,P|108:332|72:340,1,67.5000025749208,8|2,0:2|0:3,0:0:0:0:
235,215,40120,2,0,P|255:242|266:274,1,67.5000025749208,2|2,0:3|0:3,0:0:0:0:
168,104,40411,6,0,B|312:116,1,135.000005149842,8|2,0:3|0:3,0:0:0:0:
392,168,40848,1,8,0:3:0:0:
468,100,40994,2,0,P|476:64|464:24,1,67.5000025749208,8|2,0:2|0:3,0:0:0:0:
392,168,41285,2,0,P|384:204|396:244,1,67.5000025749208,2|2,0:3|0:3,0:0:0:0:
464,304,41576,1,2,0:3:0:0:
308,356,41722,1,8,0:2:0:0:
390,233,41867,1,8,0:2:0:0:
192,156,42013,1,0,0:0:0:0:
308,356,42159,2,0,P|352:352|384:328,1,67.5000025749208,8|2,0:2|0:3,0:0:0:0:
192,156,42450,2,0,P|173:196|178:235,1,67.5000025749208,2|2,0:3|0:3,0:0:0:0:
272,80,42741,6,0,L|112:64,1,135.000005149842,8|2,0:3|0:3,0:0:0:0:
56,128,43178,1,8,0:3:0:0:
244,276,43324,2,0,P|263:236|258:197,1,67.5000025749208,8|2,0:2|0:3,0:0:0:0:
384,100,43615,2,0,P|365:140|370:179,1,67.5000025749208,2|2,0:3|0:3,0:0:0:0:
452,280,43906,2,0,P|388:268|332:328,1,135.000005149842,8|2,0:3|0:3,0:0:0:0:
256,372,44343,1,2,0:3:0:0:
452,280,44489,2,0,P|460:244|448:204,1,67.5000025749208,8|2,0:2|0:3,0:0:0:0:
309,128,44780,2,0,P|336:152|376:162,1,67.5000025749208,2|2,0:3|0:3,0:0:0:0:
224,64,45071,6,0,L|76:76,1,135.000005149842,8|2,0:3|0:3,0:0:0:0:
12,128,45508,1,8,0:3:0:0:
176,192,45654,2,0,L|260:200,1,67.5000025749208,8|2,0:2|0:3,0:0:0:0:
84,252,45945,2,0,L|0:260,1,67.5000025749208,2|2,0:3|0:3,0:0:0:0:
296,340,46236,2,0,P|308:300|304:268,1,67.5000025749208,2|2,0:3|0:3,0:0:0:0:
243,198,46528,1,8,0:3:0:0:
420,272,46673,1,2,0:3:0:0:
243,198,46819,5,8,0:2:0:0:
376,144,46965,1,2,0:3:0:0:
236,200,47110,5,2,0:3:0:0:
288,64,47256,1,2,0:3:0:0:
236,200,47401,6,0,P|168:204|104:176,1,135.000005149842,6|2,0:2|0:3,0:0:0:0:
40,112,47838,1,8,0:3:0:0:
236,200,47984,2,0,L|224:276,1,67.5000025749208,8|2,0:2|0:3,0:0:0:0:
84,340,48275,2,0,L|72:264,1,67.5000025749208,2|2,0:3|0:3,0:0:0:0:
276,336,48566,2,0,P|340:344|416:312,1,135.000005149842,2|8,0:3|0:3,0:0:0:0:
460,244,49003,1,2,0:3:0:0:
276,336,49149,2,0,P|240:320|216:292,1,67.5000025749208,8|2,0:2|0:3,0:0:0:0:
368,168,49440,2,0,P|372:207|359:241,1,67.5000025749208,2|2,0:3|0:3,0:0:0:0:
144,212,49732,6,0,P|224:188|280:204,1,135.000005149842,8|2,0:3|0:3,0:0:0:0:
364,233,50168,1,8,0:3:0:0:
296,104,50314,2,0,P|287:71|292:38,1,67.5000025749208,8|2,0:2|0:3,0:0:0:0:
460,120,50605,2,0,P|464:153|456:185,1,67.5000025749208,2|2,0:3|0:3,0:0:0:0:
364,233,50897,1,2,0:3:0:0:
460,120,51042,1,8,0:2:0:0:
420,308,51188,1,8,0:2:0:0:
316,152,51333,1,0,0:3:0:0:
500,264,51479,2,0,P|512:304|508:336,1,67.5000025749208,8|2,0:2|0:3,0:0:0:0:
330,289,51770,2,0,P|345:250|369:228,1,67.5000025749208,2|2,0:3|0:3,0:0:0:0:
260,348,52062,6,0,L|104:336,1,135.000005149842,8|2,0:3|0:3,0:0:0:0:
60,268,52499,1,8,0:3:0:0:
232,196,52644,2,0,P|244:240|232:276,1,67.5000025749208,8|2,0:2|0:3,0:0:0:0:
152,144,52935,2,0,P|140:100|152:64,1,67.5000025749208,2|2,0:3|0:3,0:0:0:0:
312,156,53227,2,0,P|332:228|324:296,1,135.000005149842,8|2,0:3|0:3,0:0:0:0:
260,348,53664,1,2,0:3:0:0:
420,288,53809,2,0,L|496:300,1,67.5000025749208,8|2,0:2|0:3,0:0:0:0:
512,184,54100,2,0,L|436:196,1,67.5000025749208,2|0,0:3|0:3,0:0:0:0:
264,72,54392,6,0,P|336:64|400:112,1,135.000005149842,8|8,0:3|0:3,0:0:0:0:
288,252,54829,1,8,0:3:0:0:
208,204,54974,2,0,P|196:168|204:124,1,67.5000025749208,8|2,0:2|0:3,0:0:0:0:
288,252,55266,1,8,0:3:0:0:
204,296,55411,1,0,2:0:0:0:
124,248,55557,1,8,0:3:0:0:
368,204,55848,1,0,2:0:0:0:
368,204,56139,6,0,P|384:244|376:284,1,67.5000025749208,0|0,2:0|2:0,0:0:0:0:
272,108,56722,6,0,P|301:106|332:112,1,45,0|0,1:0|0:0,0:0:0:0:
380,172,57013,1,0,0:0:0:0:
256,276,57159,2,0,L|152:284,1,90,0|0,1:0|0:0,0:0:0:0:
160,168,57596,2,0,L|228:164,1,45,2|0,0:1|0:0,0:0:0:0:
176,356,57887,2,0,L|120:360,1,45,2|0,0:1|0:0,0:0:0:0:
256,276,58178,1,0,0:0:0:0:
256,276,58324,2,0,L|360:272,1,90,0|0,1:0|0:0,0:0:0:0:
456,268,58761,1,0,1:0:0:0:
412,168,59052,6,0,P|480:160|516:172,1,90,2|0,0:1|0:0,0:0:0:0:
332,224,59489,2,0,P|316:156|332:116,1,90,0|0,1:0|0:0,0:0:0:0:
368,60,59926,2,0,P|392:56|416:44,1,45,2|0,0:1|0:0,0:0:0:0:
232,28,60217,2,0,B|128:32,1,90,2|0,0:1|0:0,0:0:0:0:
128,152,60654,2,0,L|184:148,1,45,0|2,1:0|0:1,0:0:0:0:
196,272,60945,2,0,L|144:276,2,45,2|2|0,0:1|1:1|0:1,0:0:0:0:
352,120,61382,6,0,P|364:176|352:220,1,90,0|0,1:0|0:0,0:0:0:0:
268,308,61819,2,0,P|240:312|208:308,1,45,0|2,1:0|0:1,0:0:0:0:
128,292,62110,2,0,P|104:288|76:292,1,45,0|2,0:0|0:1,0:0:0:0:
24,196,62401,1,0,0:0:0:0:
176,132,62547,2,0,P|228:120|276:132,1,90,2|0,0:1|0:0,0:0:0:0:
228,244,62984,2,0,L|240:344,1,90,0|0,1:0|0:0,0:0:0:0:
376,268,63421,2,0,P|412:264|440:268,1,45,2|0,0:1|0:0,0:0:0:0:
317,105,63712,6,0,P|305:149|321:201,1,90,0|2,1:0|0:1,0:0:0:0:
368,308,64149,1,0,1:0:0:0:
280,344,64295,2,0,L|216:348,1,45
208,256,64586,2,0,L|268:252,1,45,2|0,0:1|0:0,0:0:0:0:
276,148,64877,2,0,L|156:152,1,90,2|0,0:1|0:0,0:0:0:0:
128,56,65314,2,0,P|164:48|196:52,1,45,0|0,1:0|0:0,0:0:0:0:
108,232,65605,1,0,1:0:0:0:
72,128,65751,1,0,0:0:0:0:
232,240,65897,1,0,0:0:0:0:
276,148,66042,6,0,P|316:132|344:132,1,53.9999983520508,8|0,0:3|0:0,0:0:0:0:
448,172,66333,1,0,0:0:0:0:
384,256,66479,1,0,0:0:0:0:
276,148,66625,2,0,P|228:128|160:132,1,107.999996704102,8|2,0:2|0:3,0:0:0:0:
104,184,67062,1,0,0:0:0:0:
288,280,67207,2,0,P|300:248|296:212,1,53.9999983520508,2|0,0:3|0:0,0:0:0:0:
216,341,67499,2,0,P|190:349|164:348,2,53.9999983520508,2|0|8,0:3|0:0|0:2,0:0:0:0:
376,304,67935,1,0,0:0:0:0:
460,328,68081,1,8,0:3:0:0:
416,224,68227,1,0,0:0:0:0:
500,200,68372,6,0,P|508:168|496:128,1,53.9999983520508,8|0,0:3|0:0,0:0:0:0:
445,35,68664,2,0,P|437:61|440:88,1,53.9999983520508
348,56,68955,2,0,L|232:48,1,107.999996704102,8|2,0:2|0:3,0:0:0:0:
164,92,69392,1,0,0:0:0:0:
88,136,69537,2,0,P|56:132|36:120,1,53.9999983520508,2|8,0:3|0:2,0:0:0:0:
220,160,69829,2,0,P|216:192|204:212,1,53.9999983520508,8|8,0:3|0:2,0:0:0:0:
120,280,70120,1,8,0:2:0:0:
120,280,70266,2,0,L|244:292,1,107.999996704102,2|2,0:3|0:3,0:0:0:0:
304,328,70702,5,8,0:3:0:0:
456,188,70994,2,0,P|444:224|452:256,1,53.9999983520508
396,120,71285,2,0,L|284:112,1,107.999996704102,8|2,0:2|0:3,0:0:0:0:
216,160,71722,1,0,0:0:0:0:
216,160,71867,2,0,P|156:168|104:136,1,107.999996704102,2|8,0:3|0:3,0:0:0:0:
60,84,72304,1,8,0:2:0:0:
115,147,72450,1,8,0:2:0:0:
128,232,72596,1,0,0:0:0:0:
92,308,72741,1,8,0:3:0:0:
16,352,72887,1,2,0:3:0:0:
176,328,73033,6,0,L|244:336,2,53.9999983520508,2|0|0,1:3|0:0|0:0,0:0:0:0:
300,284,73469,2,0,L|416:276,1,107.999996704102,2|0,0:3|0:0,0:0:0:0:
484,320,73906,1,2,0:3:0:0:
424,192,74052,1,0,0:0:0:0:
300,284,74198,2,0,L|416:276,1,107.999996704102,2|2,0:3|0:3,0:0:0:0:
494,142,74634,2,0,P|452:109|385:114,1,107.999996704102,2|2,0:3|0:3,0:0:0:0:
339,171,75071,1,8,0:2:0:0:
280,39,75217,1,8,0:2:0:0:
204,222,75363,6,0,L|198:159,1,53.9999983520508,8|0,0:3|0:0,0:0:0:0:
95,61,75654,2,0,L|80:173,1,107.999996704102,2|8,0:3|0:2,0:0:0:0:
189,329,76091,2,0,L|204:217,1,107.999996704102,2|0,0:3|0:0,0:0:0:0:
8,227,76528,2,0,P|56:260|105:259,1,107.999996704102,2|2,0:3|0:3,0:0:0:0:
283,169,76965,1,0,0:0:0:0:
373,122,77110,2,0,P|426:122|469:154,1,107.999996704102,8|8,0:2|0:3,0:0:0:0:
495,259,77547,1,2,0:3:0:0:
283,169,77693,6,0,P|266:115|270:50,2,107.999996704102,8|0|8,0:3|0:0|0:2,0:0:0:0:
359,272,78566,1,2,0:3:0:0:
275,296,78712,1,0,0:0:0:0:
190,315,78858,2,0,L|123:302,1,53.9999983520508,8|8,0:3|0:2,0:0:0:0:
16,259,79149,2,0,L|83:246,1,53.9999983520508,2|8,0:3|0:2,0:0:0:0:
195,198,79440,2,0,L|263:208,1,53.9999983520508,8|0,0:2|0:0,0:0:0:0:
119,46,79732,1,8,0:3:0:0:
97,145,79877,1,2,0:3:0:0:
315,261,80023,6,0,P|331:232|333:207,1,53.9999983520508,8|0,0:3|0:0,0:0:0:0:
248,84,80314,1,0,0:0:0:0:
398,138,80460,1,0,0:0:0:0:
479,107,80605,1,8,0:2:0:0:
510,187,80751,1,0,0:0:0:0:
429,218,80897,1,2,0:3:0:0:
371,333,81042,2,0,B|452:343|452:343|426:319,1,107.999996704102,0|8,0:0|0:2,0:0:0:0:
315,261,81479,1,2,0:3:0:0:
230,282,81625,1,0,0:0:0:0:
93,186,81770,1,8,0:2:0:0:
178,198,81916,1,0,0:0:0:0:
320,94,82062,1,8,0:3:0:0:
235,115,82208,1,2,0:3:0:0:
385,166,82353,6,0,P|419:173|457:166,1,53.9999983520508,8|0,0:3|0:0,0:0:0:0:
365,260,82644,2,0,P|331:253|293:260,1,53.9999983520508
250,316,82935,1,8,0:2:0:0:
178,198,83081,1,0,0:0:0:0:
97,229,83227,1,2,0:3:0:0:
65,148,83372,1,0,0:0:0:0:
145,116,83518,2,0,P|154:84|146:49,1,53.9999983520508,2|8,0:3|0:2,0:0:0:0:
275,176,83809,2,0,P|266:208|274:243,1,53.9999983520508,8|8,0:3|0:2,0:0:0:0:
308,324,84100,1,8,0:2:0:0:
455,268,84246,1,2,0:3:0:0:
308,324,84392,1,8,0:3:0:0:
475,259,84537,1,0,0:0:0:0:
308,324,84683,6,0,L|245:311,1,53.9999983520508,8|0,0:3|0:0,0:0:0:0:
129,269,84974,2,0,L|192:256,1,53.9999983520508
46,225,85266,2,0,P|31:174|47:120,1,107.999996704102,8|2,0:2|0:3,0:0:0:0:
121,81,85702,1,0,0:0:0:0:
248,163,85848,2,0,L|362:151,1,107.999996704102,2|2,0:3|0:3,0:0:0:0:
413,87,86285,2,0,P|401:143|424:192,1,107.999996704102,0|2,0:0|0:3,0:0:0:0:
490,238,86722,1,8,0:3:0:0:
389,345,86867,1,0,0:0:0:0:
258,248,87013,6,0,P|211:231|136:251,1,107.999996704102,8|0,0:3|0:0,0:0:0:0:
90,297,87450,1,0,0:0:0:0:
0,152,87596,2,0,P|47:169|122:149,1,107.999996704102,8|2,0:2|0:3,0:0:0:0:
159,93,88033,1,0,0:0:0:0:
258,248,88178,2,0,L|377:235,1,107.999996704102,8|2,0:3|0:3,0:0:0:0:
412,164,88615,2,0,P|400:220|432:268,1,107.999996704102,0|2,0:0|0:3,0:0:0:0:
368,328,89052,2,0,L|304:324,1,53.9999983520508,8|2,0:2|0:3,0:0:0:0:
174,260,89343,5,8,0:3:0:0:
258,248,89489,2,0,L|322:240,1,53.9999983520508
124,192,89780,1,0,0:0:0:0:
224,328,89926,1,8,0:2:0:0:
52,248,90071,2,0,P|32:196|48:140,1,107.999996704102
176,76,90508,2,0,L|184:140,1,53.9999983520508,2|8,0:3|0:2,0:0:0:0:
124,192,90799,1,2,0:3:0:0:
258,248,90945,1,2,0:3:0:0:
176,76,91091,2,0,P|144:64|112:64,2,53.9999983520508,8|2|2,0:2|0:3|0:3,0:0:0:0:
232,140,91528,1,2,0:3:0:0:
328,44,91673,6,0,L|452:56,1,107.999996704102,8|2,0:3|0:3,0:0:0:0:
339,150,92110,2,0,L|231:139,1,107.999996704102,2|0,0:3|0:0,0:0:0:0:
172,76,92547,1,8,0:3:0:0:
332,152,92693,1,2,0:3:0:0:
220,220,92838,5,8,0:0:0:0:
368,140,92984,1,8,0:0:0:0:
248,228,93275,1,8,0:0:0:0:
96,180,93421,2,0,P|84:144|88:108,1,67.5000025749208,8|8,0:0|0:0,0:0:0:0:
324,76,94003,6,0,P|332:112|324:148,1,67.5000025749208,6|0,1:2|0:0,0:0:0:0:
172,232,94295,2,0,P|164:188|172:156,1,67.5000025749208,2|8,0:3|0:3,0:0:0:0:
292,200,94586,1,8,0:2:0:0:
144,308,94732,2,0,L|40:304,1,67.5000025749208,2|2,0:3|0:3,0:0:0:0:
16,240,95023,1,2,0:3:0:0:
76,160,95168,2,0,P|142:141|206:157,1,135.000005149842,2|8,0:3|0:3,0:0:0:0:
292,200,95605,1,0,0:0:0:0:
360,132,95751,2,0,P|376:84|364:32,1,67.5000025749208,8|2,0:2|0:3,0:0:0:0:
190,92,96042,2,0,P|194:128|214:168,1,67.5000025749208,2|2,0:3|0:3,0:0:0:0:
332,304,96333,6,0,L|476:292,1,135.000005149842,8|2,0:3|0:3,0:0:0:0:
512,212,96770,1,8,0:3:0:0:
432,156,96916,2,0,L|360:160,1,67.5000025749208,8|2,0:2|0:3,0:0:0:0:
344,28,97207,2,0,L|440:32,1,67.5000025749208,2|2,0:3|0:3,0:0:0:0:
296,212,97499,1,2,0:3:0:0:
188,28,97644,1,8,0:2:0:0:
180,220,97790,5,8,0:2:0:0:
344,88,97935,1,0,0:0:0:0:
188,28,98081,2,0,P|180:64|196:112,1,67.5000025749208,8|2,0:2|0:3,0:0:0:0:
296,212,98372,2,0,P|304:176|288:128,1,67.5000025749208,2|2,0:3|0:3,0:0:0:0:
232,292,98664,6,0,P|296:312|364:288,1,135.000005149842,8|2,0:3|0:3,0:0:0:0:
436,232,99100,1,8,0:3:0:0:
504,288,99246,2,0,P|512:324|504:360,1,67.5000025749208,8|2,0:2|0:3,0:0:0:0:
436,232,99537,2,0,P|428:200|436:156,1,67.5000025749208,2|2,0:3|0:3,0:0:0:0:
500,32,99829,2,0,L|504:112,1,67.5000025749208,8|8,0:3|0:2,0:0:0:0:
372,40,100120,2,0,P|328:36|288:44,1,67.5000025749208,2|0,0:3|0:0,0:0:0:0:
208,136,100411,2,0,P|256:140|292:132,1,67.5000025749208,8|2,0:2|0:3,0:0:0:0:
116,100,100702,2,0,P|109:142|120:184,1,67.5000025749208,2|2,0:3|0:3,0:0:0:0:
192,356,100994,6,0,P|208:288|180:212,1,135.000005149842,8|2,0:3|0:3,0:0:0:0:
113,166,101431,1,8,0:3:0:0:
32,248,101576,2,0,P|24:284|32:320,1,67.5000025749208,8|2,0:2|0:3,0:0:0:0:
68,140,101867,2,0,P|32:132|0:140,1,67.5000025749208,2|2,0:3|0:3,0:0:0:0:
168,88,102159,2,0,L|172:0,1,67.5000025749208,2|2,0:3|0:3,0:0:0:0:
232,304,102450,5,8,0:3:0:0:
308,84,102596,1,2,0:3:0:0:
132,200,102741,5,8,0:2:0:0:
396,168,102887,1,2,0:3:0:0:
168,88,103033,5,2,0:3:0:0:
380,288,103178,1,2,0:3:0:0:
438,86,103324,6,0,P|370:70|294:90,1,135.000005149842,6|2,1:2|0:3,0:0:0:0:
228,148,103761,1,8,0:3:0:0:
348,256,103906,2,0,P|360:204|356:164,1,67.5000025749208,8|2,0:2|0:3,0:0:0:0:
200,292,104198,2,0,P|204:328|220:364,1,67.5000025749208,2|2,0:3|0:3,0:0:0:0:
264,124,104489,2,0,L|104:132,1,135.000005149842,2|8,0:3|0:3,0:0:0:0:
56,80,104926,1,0,0:0:0:0:
264,124,105071,2,0,L|252:212,1,67.5000025749208,8|2,0:2|0:3,0:0:0:0:
63,147,105363,2,0,L|55:71,1,67.5000025749208,2|2,0:3|0:3,0:0:0:0:
208,276,105654,6,0,P|156:332|88:348,1,135.000005149842,8|2,0:3|0:3,0:0:0:0:
20,332,106091,1,8,0:3:0:0:
208,276,106236,2,0,P|248:296|272:332,1,67.5000025749208,8|2,0:2|0:3,0:0:0:0:
60,240,106528,2,0,P|36:208|28:160,1,67.5000025749208,2|2,0:3|0:3,0:0:0:0:
232,40,106819,1,2,0:3:0:0:
112,172,106965,1,8,0:2:0:0:
132,47,107110,5,8,0:2:0:0:
248,224,107256,1,0,0:0:0:0:
324,92,107401,2,0,P|332:60|324:16,1,67.5000025749208,8|2,0:2|0:3,0:0:0:0:
248,224,107693,2,0,P|240:256|248:296,1,67.5000025749208,2|2,0:3|0:3,0:0:0:0:
156,108,107984,6,0,P|80:108|28:148,1,135.000005149842,8|2,0:3|0:3,0:0:0:0:
8,224,108421,1,8,0:3:0:0:
156,108,108566,2,0,P|147:65|124:40,1,67.5000025749208,8|2,0:2|0:3,0:0:0:0:
8,224,108858,2,0,P|52:264|80:272,1,67.5000025749208,2|2,0:3|0:3,0:0:0:0:
308,184,109149,2,0,L|472:200,1,135.000005149842,8|2,0:3|0:3,0:0:0:0:
496,328,109586,1,2,0:3:0:0:
508,72,109732,2,0,L|432:76,1,67.5000025749208,8|2,0:2|0:3,0:0:0:0:
442,197,110023,2,0,L|522:193,1,67.5000025749208,2|2,0:3|0:3,0:0:0:0:
312,32,110314,6,0,P|220:76|204:136,1,135.000005149842,8|2,0:3|0:3,0:0:0:0:
312,140,110751,1,8,0:3:0:0:
208,101,110897,2,0,L|132:104,1,67.5000025749208,8|2,0:2|0:3,0:0:0:0:
328,256,111188,2,0,L|420:252,1,67.5000025749208,2|2,0:3|0:3,0:0:0:0:
208,100,111479,5,6,0:2:0:0:
124,296,111625,1,2,0:3:0:0:
92,68,111770,5,2,0:3:0:0:
216,240,111916,1,2,0:3:0:0:
188,40,112062,5,8,0:2:0:0:
16,204,112207,1,2,0:3:0:0:
16,92,112353,5,2,0:3:0:0:
144,240,112499,1,2,0:3:0:0:
328,144,112644,6,0,L|416:140,1,62.9999980773926,6|0,1:2|0:0,0:0:0:0:
456,80,112935,1,2,0:3:0:0:
248,56,113081,1,8,0:3:0:0:
390,141,113227,1,8,0:2:0:0:
240,192,113372,2,0,L|164:184,1,62.9999980773926,2|2,0:3|0:3,0:0:0:0:
88,176,113664,1,0,0:0:0:0:
316,260,113809,2,0,P|342:202|325:139,1,125.999996154785,2|8,0:3|0:3,0:0:0:0:
248,56,114246,1,0,0:0:0:0:
88,176,114392,2,0,P|48:168|16:136,1,62.9999980773926,8|0,0:2|0:0,0:0:0:0:
240,192,114683,2,0,P|232:232|200:263,1,62.9999980773926,2|2,0:3|0:3,0:0:0:0:
116,320,114974,6,0,L|252:336,1,125.999996154785,8|2,0:3|0:3,0:0:0:0:
324,368,115411,1,8,0:3:0:0:
396,232,115557,2,0,P|384:268|392:304,1,62.9999980773926,8|2,0:2|0:3,0:0:0:0:
472,196,115848,2,0,P|483:166|480:135,1,62.9999980773926,2|0,0:3|0:0,0:0:0:0:
286,201,116139,2,0,P|333:238|405:226,1,125.999996154785,2|2,0:3|0:3,0:0:0:0:
357,154,116576,1,0,0:0:0:0:
228,92,116722,2,0,P|192:96|164:108,1,62.9999980773926,8|2,0:2|0:3,0:0:0:0:
225,215,117013,2,0,P|256:212|285:200,1,62.9999980773926,2|0,0:3|0:0,0:0:0:0:
188,304,117304,6,0,P|136:272|68:272,1,125.999996154785,8|2,0:3|0:3,0:0:0:0:
4,328,117741,1,8,0:3:0:0:
144,188,117887,2,0,P|148:128|120:64,1,125.999996154785,8|2,0:2|0:3,0:0:0:0:
40,20,118324,1,0,0:0:0:0:
236,88,118469,2,0,L|320:80,1,62.9999980773926,2|0,0:3|0:0,0:0:0:0:
384,120,118761,1,2,0:3:0:0:
272,176,118906,1,0,0:0:0:0:
436,248,119052,2,0,P|448:208|440:168,1,62.9999980773926,8|2,0:2|0:3,0:0:0:0:
316,268,119343,2,0,P|344:298|383:311,1,62.9999980773926,2|2,0:3|0:3,0:0:0:0:
244,344,119634,6,0,L|116:332,1,125.999996154785,8|2,0:3|0:3,0:0:0:0:
40,280,120071,1,8,0:3:0:0:
184,232,120217,2,0,P|192:200|180:160,1,62.9999980773926,8|2,0:2|0:3,0:0:0:0:
44,107,120508,2,0,P|66:129|96:140,1,62.9999980773926,2|0,0:3|0:0,0:0:0:0:
224,52,120799,2,0,P|193:60|170:80,1,62.9999980773926,2|0,0:3|0:0,0:0:0:0:
280,180,121091,2,0,L|364:188,1,62.9999980773926,2|0,0:3|0:0,0:0:0:0:
428,144,121382,1,8,0:2:0:0:
352,288,121528,1,2,0:3:0:0:
340,84,121673,1,2,0:3:0:0:
456,248,121819,1,0,0:0:0:0:
280,180,121965,6,0,P|216:188|164:224,1,125.999996154785,6|2,1:2|0:3,0:0:0:0:
120,304,122401,1,8,0:3:0:0:
78,161,122547,2,0,L|72:224,1,62.9999980773926,8|2,0:2|0:3,0:0:0:0:
144,40,122838,2,0,L|152:124,1,62.9999980773926,2|0,0:3|0:0,0:0:0:0:
356,236,123130,2,0,P|372:168|348:116,1,125.999996154785,2|8,0:3|0:3,0:0:0:0:
280,180,123566,1,2,0:3:0:0:
428,288,123712,2,0,L|496:276,1,62.9999980773926,8|2,0:2|0:3,0:0:0:0:
336,328,124003,2,0,L|256:316,1,62.9999980773926,2|2,0:3|0:3,0:0:0:0:
108,288,124295,6,0,B|200:272|200:272|168:252,1,125.999996154785,8|2,0:3|0:3,0:0:0:0:
40,200,124732,1,8,0:3:0:0:
212,112,124877,2,0,P|224:156|212:196,1,62.9999980773926,8|2,0:2|0:3,0:0:0:0:
136,64,125168,2,0,P|168:31|208:22,1,62.9999980773926,2|0,0:3|0:0,0:0:0:0:
325,133,125460,2,0,P|281:145|209:109,1,125.999996154785,2|2,0:3|0:3,0:0:0:0:
372,60,125897,1,0,0:0:0:0:
476,152,126042,1,8,0:2:0:0:
292,224,126188,1,2,0:3:0:0:
372,60,126333,2,0,L|456:68,1,62.9999980773926,2|0,0:3|0:0,0:0:0:0:
292,224,126625,6,0,P|232:216|172:276,1,125.999996154785,8|2,0:3|0:3,0:0:0:0:
148,340,127062,1,8,0:3:0:0:
368,280,127207,2,0,P|384:252|384:204,1,62.9999980773926,8|2,0:2|0:3,0:0:0:0:
280,68,127499,2,0,P|264:96|264:144,1,62.9999980773926,2|0,0:3|0:0,0:0:0:0:
104,144,127790,2,0,L|184:156,1,62.9999980773926,8|0,0:3|0:0,0:0:0:0:
260,126,128081,1,2,0:3:0:0:
184,64,128227,1,2,0:3:0:0:
148,244,128372,2,0,P|192:244|220:228,1,62.9999980773926,8|2,0:2|0:3,0:0:0:0:
392,176,128664,2,0,P|348:176|320:192,1,62.9999980773926,2|0,0:3|0:0,0:0:0:0:
472,236,128955,6,0,P|492:176|468:112,1,125.999996154785,8|2,0:3|0:3,0:0:0:0:
384,72,129392,1,8,0:3:0:0:
268,196,129537,2,0,P|312:196|340:180,1,62.9999980773926,8|0,0:2|0:0,0:0:0:0:
164,128,129829,1,2,0:3:0:0:
312,288,129974,1,0,0:0:0:0:
164,128,130120,2,0,L|96:124,1,62.9999980773926,2|8,0:3|0:2,0:0:0:0:
24,188,130411,1,8,0:3:0:0:
184,256,130557,1,0,0:0:0:0:
101,124,130702,1,8,0:2:0:0:
48,284,130848,1,8,0:3:0:0:
248,184,130994,1,0,0:0:0:0:
20,36,131139,1,2,0:3:0:0:
104,224,131285,5,6,0:3:0:0:
188,144,140605,5,8,0:3:0:0:
112,109,140750,1,0,0:0:0:0:
77,189,140896,1,0,0:0:0:0:
159,226,141041,1,8,0:3:0:0:
188,144,141188,6,0,P|225:143|265:127,1,62.9999980773926,8|0,0:2|0:0,0:0:0:0:
77,189,141479,2,0,P|33:213|17:237,1,62.9999980773926,2|0,0:3|0:0,0:0:0:0:
8,304,141770,1,2,0:3:0:0:
188,144,141916,2,0,P|200:104|192:72,1,62.9999980773926,0|2,0:0|0:3,0:0:0:0:
140,252,142207,2,0,P|132:280|144:328,1,62.9999980773926,0|8,0:0|0:2,0:0:0:0:
216,356,142499,1,8,0:3:0:0:
88,180,142644,2,0,L|8:188,1,62.9999980773926,0|2,0:0|0:3,0:0:0:0:
208,80,142935,5,8,0:3:0:0:
288,168,143081,1,0,0:0:0:0:
344,52,143227,1,0,0:0:0:0:
288,168,143372,1,8,0:3:0:0:
208,80,143518,6,0,P|148:68|120:76,1,62.9999980773926,8|0,0:2|0:0,0:0:0:0:
288,168,143809,2,0,P|324:200|364:216,1,62.9999980773926,2|0,0:3|0:0,0:0:0:0:
436,192,144100,1,2,0:3:0:0:
200,312,144246,2,0,P|151:316|120:312,1,62.9999980773926,8|2,0:2|0:3,0:0:0:0:
368,232,144537,2,0,P|392:260|404:296,1,62.9999980773926,8|8,0:2|0:2,0:0:0:0:
432,360,144829,1,8,0:3:0:0:
236,232,144974,2,0,L|168:236,1,62.9999980773926,8|2,0:2|0:3,0:0:0:0:
376,36,145266,6,0,P|384:72|376:108,1,62.9999980773926,8|0,0:3|0:0,0:0:0:0:
268,200,145557,2,0,P|260:156|272:116,1,62.9999980773926,0|8,0:0|0:3,0:0:0:0:
420,232,145848,1,8,0:2:0:0:
448,136,145994,1,0,0:0:0:0:
316,256,146139,2,0,L|252:260,1,62.9999980773926,2|0,0:3|0:0,0:0:0:0:
316,348,146431,2,0,L|388:344,1,62.9999980773926,2|8,0:3|0:2,0:0:0:0:
416,188,146722,5,8,0:3:0:0:
496,284,146867,1,0,0:0:0:0:
512,204,147013,5,8,0:2:0:0:
384,272,147159,1,2,0:3:0:0:
482,345,147304,2,0,L|498:273,1,62.9999980773926,0|2,0:0|0:3,0:0:0:0:
168,168,147596,6,0,P|236:148|288:172,1,125.999996154785,8|0,0:3|0:0,0:0:0:0:
352,216,148033,1,8,0:3:0:0:
404,136,148178,1,8,0:2:0:0:
224,64,148469,1,2,0:3:0:0:
404,136,148761,2,0,L|412:64,1,62.9999980773926,2|8,0:3|0:2,0:0:0:0:
352,216,149052,2,0,L|364:308,1,62.9999980773926,2|8,0:3|0:2,0:0:0:0:
412,136,149343,2,0,L|420:52,1,62.9999980773926,8|0,0:2|0:3,0:0:0:0:
344,220,149634,2,0,L|352:300,1,62.9999980773926,8|0,0:2|0:0,0:0:0:0:
224,64,149926,6,0,P|152:68|104:124,1,125.999996154785,8|0,0:3|0:0,0:0:0:0:
92,184,150363,1,8,0:3:0:0:
196,140,150508,2,0,P|232:148|260:144,1,62.9999980773926,8|0,0:2|0:0,0:0:0:0:
112,96,150799,2,0,P|80:92|48:96,1,62.9999980773926,2|0,0:3|0:0,0:0:0:0:
91,306,151091,2,0,B|72:244|120:244|87:170,1,125.999996154785,2|2,0:3|0:3,0:0:0:0:
49,95,151528,1,2,0:3:0:0:
92,308,151673,2,0,L|168:300,1,62.9999980773926,8|2,0:2|0:3,0:0:0:0:
292,260,151965,2,0,L|228:252,1,62.9999980773926,0|2,0:0|0:3,0:0:0:0:
384,352,152256,6,0,P|468:328|500:284,1,125.999996154785,8|0,0:3|0:0,0:0:0:0:
512,220,152693,1,8,0:3:0:0:
452,160,152838,2,0,L|456:92,1,62.9999980773926,8|0,0:2|0:0,0:0:0:0:
491,300,153130,2,0,L|488:368,1,62.9999980773926,2|0,0:3|0:0,0:0:0:0:
368,224,153421,2,0,B|316:216|316:216|220:232,1,125.999996154785,2|2,0:3|0:3,0:0:0:0:
172,268,153858,1,8,0:2:0:0:
248,320,154003,2,0,L|320:312,1,62.9999980773926,8|8,0:2|0:3,0:0:0:0:
296,140,154295,2,0,L|208:148,1,62.9999980773926,0|2,0:0|0:3,0:0:0:0:
384,24,154586,6,0,P|440:83|444:148,1,125.999996154785,8|0,0:3|0:0,0:0:0:0:
420,216,155023,1,8,0:3:0:0:
384,24,155168,2,0,P|420:20|456:28,1,62.9999980773926,8|0,0:2|0:0,0:0:0:0:
352,112,155460,2,0,P|320:120|280:112,1,62.9999980773926,2|0,0:3|0:0,0:0:0:0:
196,32,155751,2,0,P|232:24|264:32,1,62.9999980773926,2|8,0:3|0:2,0:0:0:0:
152,172,156042,1,2,0:3:0:0:
112,100,156188,1,8,0:2:0:0:
297,178,156333,2,0,L|290:115,1,62.9999980773926,8|8,0:2|0:3,0:0:0:0:
152,172,156625,2,0,L|142:234,1,62.9999980773926,0|2,0:0|0:3,0:0:0:0:
21,20,156916,6,0,P|57:73|143:102,1,125.999996154785,8|0,0:3|0:0,0:0:0:0:
208,76,157353,1,8,0:3:0:0:
76,164,157499,2,0,P|44:156|8:128,1,62.9999980773926,8|0,0:2|0:0,0:0:0:0:
208,172,157790,2,0,P|216:206|212:240,1,62.9999980773926,2|0,0:3|0:0,0:0:0:0:
144,280,158081,1,2,0:3:0:0:
292,144,158227,2,0,L|364:140,1,62.9999980773926,8|8,0:2|0:3,0:0:0:0:
400,244,158518,2,0,L|336:248,1,62.9999980773926,8|8,0:2|0:2,0:0:0:0:
260,300,158809,1,2,0:3:0:0:
312,368,158955,2,0,L|392:364,1,62.9999980773926,0|2,0:0|0:3,0:0:0:0:
244,200,159246,6,0,P|152:188|104:220,1,125.999996154785,8|0,0:3|0:0,0:0:0:0:
188,272,159683,1,8,0:3:0:0:
244,200,159829,2,0,P|252:160|244:128,1,62.9999980773926,8|0,0:2|0:0,0:0:0:0:
124,196,160120,2,0,P|119:234|132:276,1,62.9999980773926,2|0,0:3|0:0,0:0:0:0:
332,320,160411,2,0,L|476:312,1,125.999996154785,2|2,0:3|0:3,0:0:0:0:
508,244,160848,1,2,0:3:0:0:
332,320,160994,2,0,P|376:348|408:352,1,62.9999980773926,8|2,0:2|0:3,0:0:0:0:
380,248,161285,2,0,P|340:232|300:236,1,62.9999980773926,0|2,0:0|0:3,0:0:0:0:
160,360,161576,6,0,P|176:288|144:220,1,125.999996154785,8|0,0:3|0:0,0:0:0:0:
100,168,162013,1,8,0:3:0:0:
32,232,162159,2,0,P|28:272|40:312,1,62.9999980773926,8|0,0:2|0:0,0:0:0:0:
100,168,162450,2,0,P|104:132|96:88,1,62.9999980773926,2|0,0:3|0:0,0:0:0:0:
36,36,162741,1,2,0:3:0:0:
4,116,162887,1,8,0:2:0:0:
152,32,163033,2,0,P|192:28|240:44,1,62.9999980773926,2|0,0:3|0:0,0:0:0:0:
184,132,163324,2,0,P|176:164|188:204,1,62.9999980773926,8|2,0:2|0:3,0:0:0:0:
272,160,163615,2,0,P|312:164|344:156,1,62.9999980773926,0|2,0:0|0:3,0:0:0:0:
228,308,163906,6,0,L|96:316,1,125.999996154785,8|0,0:3|0:0,0:0:0:0:
40,248,164343,1,8,0:3:0:0:
128,204,164489,2,0,L|196:196,1,62.9999980773926,8|0,0:2|0:0,0:0:0:0:
308,272,164780,2,0,L|224:264,1,62.9999980773926,8|0,0:3|0:0,0:0:0:0:
432,228,165071,2,0,P|452:292|432:360,1,125.999996154785,2|2,0:3|0:3,0:0:0:0:
364,292,165508,1,8,0:2:0:0:
432,228,165654,2,0,L|508:224,1,62.9999980773926,8|8,0:2|0:3,0:0:0:0:
456,124,165945,2,0,L|384:128,1,62.9999980773926,0|2,0:0|0:3,0:0:0:0:
236,28,166236,6,0,P|280:68|264:148,1,125.999996154785,8|0,0:3|0:0,0:0:0:0:
208,100,166673,2,0,B|188:152|220:184|220:184|212:208|216:232,1,125.999996154785
292,216,167110,2,0,L|364:208,1,62.9999980773926
200,348,167401,5,8,0:2:0:0:
144,228,167547,1,8,0:2:0:0:
88,324,167838,5,8,0:2:0:0:
288,228,167984,1,8,0:2:0:0:
192,164,168275,1,8,0:2:0:0:
400,96,168566,6,0,P|436:96|480:120,1,67.5000025749208,6|0,1:2|0:0,0:0:0:0:
512,188,168858,1,2,0:3:0:0:
320,144,169003,1,8,0:3:0:0:
500,252,169149,2,0,P|512:220|511:187,1,67.5000025749208,8|2,0:2|0:3,0:0:0:0:
356,284,169440,2,0,P|387:296|420:295,1,67.5000025749208,2|2,0:3|0:3,0:0:0:0:
264,236,169732,2,0,L|184:244,1,67.5000025749208,2|0,0:3|0:0,0:0:0:0:
116,296,170023,1,8,0:3:0:0:
36,168,170168,1,0,0:0:0:0:
196,242,170314,2,0,P|208:272|204:324,1,67.5000025749208,8|2,0:2|0:3,0:0:0:0:
148,160,170605,2,8,P|178:148|230:152,1,67.5000025749208,2|2,0:3|0:3,0:0:0:0:
416,220,170897,6,0,P|352:228|280:204,1,135.000005149842,8|2,0:3|0:3,0:0:0:0:
212,147,171333,1,8,0:3:0:0:
392,72,171479,2,0,P|392:112|380:148,1,67.5000025749208,8|2,0:2|0:3,0:0:0:0:
285,207,171770,1,2,0:3:0:0:
480,152,171916,1,2,0:3:0:0:
300,48,172062,2,0,L|216:56,1,67.5000025749208,2|8,0:3|0:2,0:0:0:0:
44,124,172353,2,0,L|111:117,1,67.5000025749208,8|0,0:2|0:0,0:0:0:0:
200,152,172644,2,0,P|208:196|192:236,1,67.5000025749208,8|2,0:2|0:3,0:0:0:0:
124,272,172935,1,2,0:3:0:0:
44,124,173081,1,2,0:3:0:0:
202,217,173227,6,0,L|344:228,1,135.000005149842,8|2,0:3|0:3,0:0:0:0:
416,176,173664,1,8,0:3:0:0:
336,227,173809,2,0,P|324:264|328:296,1,67.5000025749208,8|2,0:2|0:3,0:0:0:0:
400,352,174100,1,2,0:3:0:0:
484,308,174246,1,2,0:3:0:0:
308,136,174392,2,0,L|173:125,1,135.000005149842,8|2,0:3|0:3,0:0:0:0:
88,164,174829,1,0,0:0:0:0:
308,40,174974,2,0,P|340:44|384:80,1,67.5000025749208,8|2,0:2|0:3,0:0:0:0:
356,220,175266,2,0,P|320:232|280:224,1,67.5000025749208,2|2,0:3|0:3,0:0:0:0:
308,136,175557,6,0,L|468:148,1,135.000005149842,8|2,0:3|0:3,0:0:0:0:
442,146,175994,1,8,0:3:0:0:
173,125,176139,2,0,P|160:168|168:200,1,67.5000025749208,8|2,0:2|0:3,0:0:0:0:
346,284,176431,2,0,P|359:241|351:209,1,67.5000025749208,2|2,0:3|0:3,0:0:0:0:
132,272,176722,2,0,L|199:278,1,67.5000025749208,2|8,0:3|0:2,0:0:0:0:
72,200,177013,1,8,0:3:0:0:
250,170,177159,1,0,0:0:0:0:
280,349,177305,1,8,0:2:0:0:
169,99,177450,5,2,0:3:0:0:
199,278,177596,1,2,0:3:0:0:
377,248,177742,1,2,0:3:0:0:
72,200,177887,6,0,P|40:264|56:328,1,135.000005149842,6|2,1:2|0:3,0:0:0:0:
160,188,178324,1,8,0:3:0:0:
60,112,178469,2,0,P|28:120|-8:152,1,67.5000025749208,8|2,0:2|0:3,0:0:0:0:
244,228,178761,2,0,P|253:196|243:149,1,67.5000025749208,2|2,0:3|0:3,0:0:0:0:
152,60,179052,2,0,L|292:72,1,135.000005149842,2|8,0:3|0:3,0:0:0:0:
364,124,179489,1,0,0:0:0:0:
452,88,179634,2,0,P|464:52|456:16,1,67.5000025749208,8|2,0:2|0:3,0:0:0:0:
364,124,179926,2,0,P|352:160|360:196,1,67.5000025749208,2|2,0:3|0:3,0:0:0:0:
392,276,180217,6,0,P|316:272|272:324,1,135.000005149842,8|2,0:3|0:3,0:0:0:0:
196,360,180654,1,8,0:3:0:0:
116,248,180799,2,0,P|108:204|112:164,1,67.5000025749208,8|2,0:2|0:3,0:0:0:0:
240,120,181091,2,0,P|248:164|244:204,1,67.5000025749208,2|2,0:3|0:3,0:0:0:0:
100,56,181382,2,0,L|184:60,1,67.5000025749208,2|8,0:3|0:2,0:0:0:0:
240,120,181673,1,8,0:2:0:0:
132,176,181819,1,0,0:0:0:0:
300,272,181965,1,8,0:2:0:0:
240,120,182110,1,2,0:3:0:0:
192,316,182256,1,2,0:3:0:0:
404,224,182401,1,2,0:3:0:0:
132,176,182547,6,0,B|32:156|32:156|68:196,1,135.000005149842,8|2,0:3|0:3,0:0:0:0:
192,316,182984,1,8,0:3:0:0:
300,272,183130,2,0,P|308:240|296:192,1,67.5000025749208,8|2,0:2|0:3,0:0:0:0:
173,107,183421,2,0,L|252:122,1,67.5000025749208,2|2,0:3|0:3,0:0:0:0:
408,68,183712,2,0,P|388:132|408:200,1,135.000005149842,8|2,0:3|0:3,0:0:0:0:
480,252,184149,1,2,0:3:0:0:
328,352,184295,2,0,L|244:344,1,67.5000025749208,8|2,0:2|0:3,0:0:0:0:
84,272,184586,2,0,L|160:264,1,67.5000025749208,2|2,0:3|0:3,0:0:0:0:
252,92,184877,6,0,P|272:152|248:216,1,135.000005149842,8|2,0:3|0:3,0:0:0:0:
164,148,185314,1,8,0:3:0:0:
336,36,185460,2,0,L|416:48,1,67.5000025749208,8|2,0:2|0:3,0:0:0:0:
164,148,185751,2,0,P|144:112|148:72,1,67.5000025749208,2|2,0:3|0:3,0:0:0:0:
216,24,186042,1,6,1:2:0:0:
68,152,186188,1,2,0:3:0:0:
144,88,186333,1,2,0:3:0:0:
180,244,186479,1,2,0:3:0:0:
256,184,186625,1,8,0:2:0:0:
108,300,186770,1,2,0:3:0:0:
256,184,186916,2,0,P|320:176|340:184,1,67.5000025749208,2|2,0:3|0:3,0:0:0:0:
167,318,187207,6,0,P|111:302|91:286,1,62.9999980773926,6|0,1:2|0:0,0:0:0:0:
32,244,187499,1,2,0:3:0:0:
172,148,187644,1,8,0:3:0:0:
48,132,187790,5,8,0:2:0:0:
164,244,187935,1,2,0:3:0:0:
256,100,188081,2,0,P|260:60|252:24,1,62.9999980773926,2|0,0:3|0:0,0:0:0:0:
304,212,188372,2,0,L|452:208,1,125.999996154785,2|8,0:3|0:3,0:0:0:0:
488,144,188809,1,0,0:0:0:0:
212,256,188955,2,0,P|240:280|272:288,1,62.9999980773926,8|0,0:2|0:0,0:0:0:0:
236,160,189246,2,0,P|196:156|164:168,1,62.9999980773926,2|2,0:3|0:3,0:0:0:0:
376,28,189537,6,0,P|444:75|464:136,1,125.999996154785,8|2,0:3|0:3,0:0:0:0:
420,204,189974,1,8,0:3:0:0:
376,28,190120,2,0,L|288:32,1,62.9999980773926,8|2,0:2|0:3,0:0:0:0:
252,136,190411,2,0,L|328:132,1,62.9999980773926,2|0,0:3|0:0,0:0:0:0:
148,324,190702,2,0,P|164:256|144:200,1,125.999996154785,2|2,0:3|0:3,0:0:0:0:
80,104,191139,1,0,0:0:0:0:
28,264,191285,2,0,P|24:300|32:332,1,62.9999980773926,8|2,0:2|0:3,0:0:0:0:
79,166,191576,2,0,P|83:130|74:85,1,62.9999980773926,2|0,0:3|0:0,0:0:0:0:
328,140,191867,6,0,P|248:156|216:196,1,125.999996154785,8|2,0:3|0:3,0:0:0:0:
176,272,192304,1,8,0:3:0:0:
240,76,192450,2,0,P|280:60|320:64,1,62.9999980773926,8|0,0:2|0:0,0:0:0:0:
220,187,192741,2,0,P|176:176|152:152,1,62.9999980773926,2|0,0:3|0:0,0:0:0:0:
324,296,193033,1,2,0:3:0:0:
224,332,193178,1,0,0:0:0:0:
344,156,193324,1,2,0:3:0:0:
416,216,193469,1,0,0:0:0:0:
440,88,193615,2,0,L|444:16,1,62.9999980773926,8|2,0:2|0:3,0:0:0:0:
416,216,193906,2,0,L|420:304,1,62.9999980773926,2|2,0:3|0:3,0:0:0:0:
224,128,194198,6,0,L|68:144,1,125.999996154785,8|2,0:3|0:3,0:0:0:0:
16,120,194634,1,8,0:3:0:0:
232,32,194780,2,0,P|276:40|312:68,1,62.9999980773926,8|0,0:2|0:0,0:0:0:0:
228,189,195071,2,0,P|220:153|232:109,1,62.9999980773926,2|0,0:3|0:0,0:0:0:0:
260,288,195363,2,0,P|220:292|176:280,1,62.9999980773926,2|0,0:3|0:0,0:0:0:0:
388,152,195654,1,2,0:3:0:0:
468,204,195799,1,0,0:0:0:0:
176,160,195945,5,8,0:2:0:0:
304,88,196091,1,2,0:3:0:0:
196,72,196236,5,2,0:3:0:0:
300,216,196382,1,0,0:0:0:0:
144,296,196528,6,0,L|80:292,1,62.9999980773926,6|0,1:2|0:0,0:0:0:0:
176,160,196819,1,2,0:3:0:0:
88,120,196965,1,8,0:3:0:0:
232,244,197110,1,8,0:2:0:0:
376,144,197256,1,2,0:3:0:0:
452,200,197401,2,0,P|493:188|524:164,1,62.9999980773926,2|0,0:3|0:0,0:0:0:0:
312,240,197693,2,0,P|296:304|320:376,1,125.999996154785,2|8,0:3|0:3,0:0:0:0:
392,300,198130,1,0,0:0:0:0:
240,208,198275,2,0,P|224:244|220:276,1,62.9999980773926,8|2,0:2|0:3,0:0:0:0:
324,128,198566,2,0,P|292:104|256:96,1,62.9999980773926,2|0,0:3|0:0,0:0:0:0:
94,273,198858,6,0,L|262:265,1,125.999996154785,8|2,0:3|0:3,0:0:0:0:
312,232,199295,1,8,0:3:0:0:
132,172,199440,2,0,L|52:176,1,62.9999980773926,8|2,0:2|0:3,0:0:0:0:
220,124,199732,2,0,L|296:120,1,62.9999980773926,2|0,0:3|0:0,0:0:0:0:
100,80,200023,2,0,L|28:84,1,62.9999980773926,2|8,0:3|0:2,0:0:0:0:
244,28,200314,1,2,0:3:0:0:
160,8,200460,1,0,0:0:0:0:
332,152,200605,1,8,0:2:0:0:
248,108,200751,1,2,0:3:0:0:
332,76,200897,2,0,P|364:84|404:112,1,62.9999980773926,2|0,0:3|0:0,0:0:0:0:
308,260,201188,6,0,L|164:268,1,125.999996154785,8|2,0:3|0:3,0:0:0:0:
108,224,201625,1,8,0:3:0:0:
308,260,201770,2,0,L|300:336,1,62.9999980773926,8|2,0:2|0:3,0:0:0:0:
176,268,202062,2,0,L|184:192,1,62.9999980773926,2|0,0:3|0:0,0:0:0:0:
420,112,202353,2,0,P|356:100|300:124,1,125.999996154785,8|2,0:3|0:3,0:0:0:0:
236,180,202790,1,0,0:0:0:0:
420,188,202935,2,0,P|468:176|492:156,1,62.9999980773926,8|2,0:2|0:3,0:0:0:0:
344,100,203227,2,0,P|308:88|260:88,1,62.9999980773926,2|0,0:3|0:0,0:0:0:0:
192,324,203518,6,0,P|256:336|328:320,1,125.999996154785,8|2,0:3|0:3,0:0:0:0:
392,292,203955,1,8,0:3:0:0:
188,320,204100,2,0,P|148:340|124:368,1,62.9999980773926,8|0,0:2|0:0,0:0:0:0:
308,252,204392,2,0,P|352:224|372:184,1,62.9999980773926,2|0,0:3|0:0,0:0:0:0:
416,136,204683,1,2,0:3:0:0:
336,100,204829,1,8,0:2:0:0:
452,300,204974,1,8,0:3:0:0:
480,200,205120,1,0,0:0:0:0:
196,152,205266,5,8,0:2:0:0:
352,292,205411,1,2,0:3:0:0:
312,164,205557,5,2,0:3:0:0:
188,344,205702,1,2,0:3:0:0:
448,268,205848,6,0,P|464:224|456:176,1,90,2|0,0:1|0:0,0:0:0:0:
416,112,206285,1,0,0:0:0:0:
312,164,206431,2,0,P|260:160|216:136,1,90,8|0,0:2|0:0,0:0:0:0:
152,92,206867,2,0,P|96:96|56:116,1,90
180,224,207450,1,0,0:0:0:0:
180,224,207596,2,0,P|184:272|160:312,1,90,8|0,0:2|0:0,0:0:0:0:
104,252,208033,1,0,0:0:0:0:
264,224,208178,6,0,P|288:232|308:244,1,45
304,324,208469,2,0,P|284:340|264:351,1,45
376,280,208761,2,0,P|401:283|428:296,1,45,8|0,0:2|0:0,0:0:0:0:
496,320,209052,2,0,P|492:292|496:268,1,45
452,208,209343,2,0,P|460:160|456:104,1,90
404,56,209780,1,0,0:0:0:0:
324,76,209926,2,0,L|268:72,1,45,8|2,0:2|0:1,0:0:0:0:
200,92,210217,2,0,L|204:36,1,45,2|2,0:1|0:1,0:0:0:0:
248,160,210508,6,0,P|204:176|152:160,1,90,2|0,0:1|0:0,0:0:0:0:
2,206,210945,2,0,P|44:191|88:200,1,90,2|0,0:1|0:0,0:0:0:0:
152,248,211382,1,0,0:0:0:0:
96,308,211528,1,0,0:0:0:0:
192,352,211673,2,0,L|296:356,1,90
360,332,212110,2,0,P|380:288|376:240,1,90
320,188,212547,1,0,0:0:0:0:
456,244,212693,1,0,0:0:0:0:
336,164,212838,6,0,L|272:160,2,45
368,88,213275,2,0,L|264:80,1,90,0|2,0:0|0:1,0:0:0:0:
200,108,213712,1,2,0:1:0:0:
284,232,213858,1,2,0:1:0:0:
116,280,214003,2,0,P|108:232|116:184,1,90
224,312,214440,1,8,0:2:0:0:
100,272,214586,2,0,L|36:280,1,45,8|2,0:2|0:1,0:0:0:0:
188,180,214877,2,0,L|232:174,1,45,2|2,0:1|0:1,0:0:0:0:
368,253,215168,6,0,P|316:249|272:221,1,90,2|0,0:1|0:0,0:0:0:0:
432,192,215751,1,8,0:2:0:0:
380,344,215897,2,0,L|316:336,1,45
260,360,216188,1,0,0:0:0:0:
120,308,216333,2,0,L|16:320,2,90,0|0|8,0:0|0:0|0:2,0:0:0:0:
184,268,217062,1,0,0:0:0:0:
72,204,217207,2,0,P|64:180|64:152,1,45
152,84,217499,6,0,L|252:88,1,90
388,136,218081,1,8,0:2:0:0:
388,136,218227,2,0,P|396:108|396:76,1,45,2|0,0:1|0:0,0:0:0:0:
304,172,218518,1,0,0:0:0:0:
420,240,218664,2,0,L|488:232,1,45
304,172,218955,2,0,P|292:208|292:236,1,45
384,320,219246,2,0,L|328:324,1,45,8|2,0:2|0:1,0:0:0:0:
200,268,219537,1,2,0:1:0:0:
160,332,219683,1,2,0:1:0:0:
88,304,219829,6,0,P|76:256|80:208,1,90,2|0,0:1|0:0,0:0:0:0:
140,172,220266,1,2,0:1:0:0:
20,140,220411,2,0,P|12:92|24:44,1,90,8|2,0:2|0:1,0:0:0:0:
88,16,220848,1,2,0:1:0:0:
184,76,220994,2,0,L|244:68,1,45
300,96,221285,1,0,0:0:0:0:
229,178,221576,2,0,L|121:170,1,90,8|0,0:2|0:0,0:0:0:0:
72,208,222013,1,0,0:0:0:0:
164,284,222159,6,0,L|228:280,1,45
276,320,222450,2,0,L|340:316,1,45,0|2,0:0|0:1,0:0:0:0:
348,244,222741,2,0,L|412:240,1,45,8|0,0:2|0:0,0:0:0:0:
464,268,223033,1,0,0:0:0:0:
504,140,223324,1,8,0:2:0:0:
504,140,223469,2,0,L|432:144,1,45,8|0,0:2|0:0,0:0:0:0:
288,112,223761,1,8,0:2:0:0:
348,240,223906,2,0,P|344:292|320:328,1,90,8|8,0:2|0:2,0:0:0:0:
256,360,224343,1,0,0:0:0:0:
100,232,224489,6,0,P|160:228|208:256,1,116.999994644165,8|0,0:3|0:0,0:0:0:0:
133,317,224926,1,0,0:0:0:0:
100,232,225071,2,0,P|96:163|123:123,1,116.999994644165
190,191,225508,1,0,0:0:0:0:
100,232,225654,2,0,P|66:242|19:232,1,58.4999973220826
121,124,225945,2,0,P|162:119|202:128,1,58.4999973220826
388,34,226236,2,0,P|329:37|279:83,1,116.999994644165
237,154,226673,1,0,0:0:0:0:
334,232,226819,6,0,P|364:175|350:110,1,116.999994644165
297,49,227256,1,0,0:0:0:0:
334,232,227401,2,0,P|365:231|403:220,1,58.4999973220826
463,107,227693,2,0,P|418:109|386:123,1,58.4999973220826
334,232,227984,2,0,P|329:273|338:308,1,58.4999973220826
470,351,228275,2,0,P|477:312|471:280,1,58.4999973220826
252,358,228566,2,0,P|312:334|332:284,1,116.999994644165
312,173,229003,1,0,0:0:0:0:
331,288,229149,6,0,P|395:309|444:293,1,116.999994644165
493,209,229586,1,0,0:0:0:0:
403,132,229732,2,0,P|395:169|405:204,1,58.4999973220826
434,33,230023,2,0,P|405:28|370:37,1,58.4999973220826
254,200,230314,2,0,P|279:130|259:77,1,116.999994644165
180,134,230751,1,0,0:0:0:0:
245,257,230897,2,0,L|257:178,1,58.4999973220826
103,214,231188,2,0,L|116:302,1,58.4999973220826
212,25,231479,6,0,P|229:89|288:113,1,116.999994644165
365,90,231916,1,0,0:0:0:0:
454,67,232062,2,0,P|481:66|526:49,1,58.4999973220826
270,112,232353,2,0,P|219:120|192:130,1,58.4999973220826
313,282,232644,1,0,0:0:0:0:
317,184,232790,1,0,0:0:0:0:
210,340,232935,1,0,0:0:0:0:
372,259,233081,1,0,0:0:0:0:
239,189,233227,2,0,L|164:197,1,58.4999973220826
245,371,233518,2,0,L|328:365,1,58.4999973220826
149,171,233809,6,0,P|117:178|63:249,1,116.999994644165
153,265,234246,1,0,0:0:0:0:
216,75,234392,2,0,P|222:112|242:143,1,58.4999973220826
370,31,234683,2,0,P|336:42|312:60,1,58.4999973220826
432,214,234974,2,0,P|465:152|458:94,1,116.999994644165
432,214,235411,2,0,P|450:259|474:282,1,58.4999973220826
512,340,235702,1,0,0:0:0:0:
341,282,235848,2,0,P|302:284|259:301,1,58.4999973220826
279,67,236139,6,0,P|325:97|345:155,1,116.999994644165
248,158,236576,1,0,0:0:0:0:
367,15,236722,2,0,L|446:16,1,58.4999973220826
344,153,237013,2,0,L|263:154,1,58.4999973220826
93,121,237304,1,0,0:0:0:0:
169,174,237450,1,0,0:0:0:0:
126,30,237596,1,0,0:0:0:0:
1,72,237741,1,0,0:0:0:0:
52,268,237887,2,0,L|49:188,1,58.4999973220826
16,357,238178,2,0,P|45:363|74:359,1,58.4999973220826
239,251,238469,6,0,P|284:298|347:315,1,116.999994644165
387,243,238906,1,0,0:0:0:0:
182,192,239052,2,0,P|158:275|181:316,1,116.999994644165
237,353,239489,1,0,0:0:0:0:
109,168,239634,2,0,P|91:200|85:237,1,58.4999973220826
239,128,239926,2,0,P|234:81|221:53,1,58.4999973220826
319,230,240217,2,0,P|355:248|396:254,1,58.4999973220826
230,70,240508,2,0,P|233:106|245:135,1,58.4999973220826
319,230,240799,5,0,0:0:0:0:
