osu file format v14

[General]
AudioFilename: audio.mp3
AudioLeadIn: 0
PreviewTime: 82028
Countdown: 0
SampleSet: Normal
StackLeniency: 0.7
Mode: 3
LetterboxInBreaks: 0
SpecialStyle: 0
WidescreenStoryboard: 1

[Editor]
DistanceSpacing: 0.8
BeatDivisor: 16
GridSize: 8
TimelineZoom: 2.1

[Metadata]
Title:Acorn
TitleUnicode:Acorn
Artist:So Sus + Konka
ArtistUnicode:So Sus + Konka
Creator:TheToaphster
Version:Normal
Source:
Tags:SV
BeatmapID:1572577
BeatmapSetID:639057

[Difficulty]
HPDrainRate:6
CircleSize:4
OverallDifficulty:6
ApproachRate:5
SliderMultiplier:1.4
SliderTickRate:1

[Events]
//Background and Video events
0,0,"Acornnn.jpg",0,0
//Break Periods
//Storyboard Layer 0 (Background)
//Storyboard Layer 1 (Fail)
//Storyboard Layer 2 (Pass)
//Storyboard Layer 3 (Foreground)
//Storyboard Sound Samples

[TimingPoints]
102,444.444444444444,4,1,1,100,1,0

[HitObjects]
64,192,102,5,4,0:0:0:0:
192,192,102,1,0,0:0:0:0:
448,192,990,1,8,0:0:0:0:
64,192,1435,1,4,0:0:0:0:
192,192,1435,1,0,0:0:0:0:
320,192,2101,1,4,0:0:0:0:
448,192,2101,1,0,0:0:0:0:
64,192,2324,1,4,0:0:0:0:
192,192,2324,1,0,0:0:0:0:
448,192,2768,1,8,0:0:0:0:
64,192,3435,1,4,0:0:0:0:
192,192,3435,1,0,0:0:0:0:
320,192,3657,1,4,0:0:0:0:
448,192,3657,1,0,0:0:0:0:
448,192,4546,1,8,0:0:0:0:
320,192,5435,1,4,0:0:0:0:
448,192,5435,1,0,0:0:0:0:
192,192,5879,1,4,0:0:0:0:
64,192,5879,1,0,0:0:0:0:
448,192,6324,1,8,0:0:0:0:
64,192,7213,1,4,0:0:0:0:
192,192,7213,1,0,0:0:0:0:
448,192,8101,1,8,0:0:0:0:
64,192,8546,1,4,0:0:0:0:
192,192,8546,1,0,0:0:0:0:
320,192,9213,1,4,0:0:0:0:
448,192,9213,1,0,0:0:0:0:
192,192,9435,1,4,0:0:0:0:
64,192,9435,1,0,0:0:0:0:
448,192,9879,1,8,0:0:0:0:
320,192,10546,1,4,0:0:0:0:
448,192,10546,1,0,0:0:0:0:
192,192,10768,1,4,0:0:0:0:
64,192,10768,1,0,0:0:0:0:
448,192,11657,1,8,0:0:0:0:
448,192,12546,128,0,12990:0:0:0:0:
320,192,12990,128,0,13435:0:0:0:0:
192,192,13435,128,0,13879:0:0:0:0:
64,192,13879,128,0,14324:0:0:0:0:
448,192,14324,128,0,15213:0:0:0:0:
320,192,15213,1,8,0:0:0:0:
64,192,15213,128,0,15657:0:0:0:0:
448,192,15657,1,4,0:0:0:0:
320,192,15657,1,0,0:0:0:0:
64,192,15879,1,0,0:0:0:0:
448,192,16101,1,0,0:0:0:0:
192,192,16324,1,4,0:0:0:0:
320,192,16324,1,0,0:0:0:0:
64,192,16546,1,4,0:0:0:0:
448,192,16546,1,0,0:0:0:0:
320,192,16990,1,4,0:0:0:0:
448,192,16990,128,0,17435:0:0:0:0:
320,192,17657,1,4,0:0:0:0:
448,192,17657,1,0,0:0:0:0:
64,192,17879,1,4,0:0:0:0:
192,192,17879,1,0,0:0:0:0:
320,192,18101,1,0,0:0:0:0:
448,192,18324,128,0,18768:0:0:0:0:
64,192,18768,1,8,0:0:0:0:
320,192,18768,1,0,0:0:0:0:
320,192,19435,128,0,19657:0:0:0:0:
64,192,19657,1,4,0:0:0:0:
192,192,19657,1,0,0:0:0:0:
448,192,19879,1,0,0:0:0:0:
64,192,20101,1,4,0:0:0:0:
192,192,20101,1,0,0:0:0:0:
448,192,20324,1,0,0:0:0:0:
320,192,20546,1,8,0:0:0:0:
64,192,20546,1,4,0:0:0:0:
192,192,20768,1,0,0:0:0:0:
320,192,20990,128,0,21435:0:0:0:0:
448,192,21657,1,4,0:0:0:0:
192,192,21879,1,4,0:0:0:0:
64,192,22101,1,4,0:0:0:0:
320,192,22324,1,4,0:0:0:0:
448,192,22324,128,8,22768:0:0:0:0:
64,192,22768,1,8,0:0:0:0:
448,192,22990,1,4,0:0:0:0:
320,192,22990,1,0,0:0:0:0:
64,192,23213,1,8,0:0:0:0:
448,192,23435,1,0,0:0:0:0:
64,192,23657,1,4,0:0:0:0:
192,192,23657,1,8,0:0:0:0:
64,192,24101,1,8,0:0:0:0:
448,192,24324,1,4,0:0:0:0:
192,192,24324,1,0,0:0:0:0:
64,192,24546,1,4,0:0:0:0:
320,192,24546,1,8,0:0:0:0:
64,192,24990,1,8,0:0:0:0:
448,192,25213,1,4,0:0:0:0:
320,192,25213,1,0,0:0:0:0:
64,192,25435,1,4,0:0:0:0:
192,192,25435,1,8,0:0:0:0:
320,192,25657,1,4,0:0:0:0:
448,192,25657,1,0,0:0:0:0:
192,192,25879,1,4,0:0:0:0:
64,192,25879,128,8,26324:0:0:0:0:
448,192,26324,1,8,0:0:0:0:
320,192,26546,1,4,0:0:0:0:
192,192,26546,1,0,0:0:0:0:
64,192,26768,1,8,0:0:0:0:
448,192,26990,1,0,0:0:0:0:
64,192,27213,1,8,0:0:0:0:
320,192,27213,1,4,0:0:0:0:
448,192,27657,1,0,0:0:0:0:
320,192,27879,1,0,0:0:0:0:
64,192,28101,1,0,0:0:0:0:
192,192,28250,1,0,0:0:0:0:
320,192,28398,1,0,0:0:0:0:
448,192,28546,128,0,29435:0:0:0:0:
64,192,28546,1,4,0:0:0:0:
320,192,29435,1,8,0:0:0:0:
64,192,29435,128,0,29879:0:0:0:0:
448,192,29879,1,4,0:0:0:0:
320,192,29879,1,0,0:0:0:0:
192,192,30101,1,0,0:0:0:0:
320,192,30324,1,0,0:0:0:0:
192,192,30546,1,4,0:0:0:0:
448,192,30546,1,0,0:0:0:0:
320,192,30768,1,4,0:0:0:0:
64,192,30768,1,0,0:0:0:0:
64,192,31213,1,8,0:0:0:0:
448,192,31213,128,4,31657:0:0:0:0:
320,192,31879,1,4,0:0:0:0:
192,192,31879,1,0,0:0:0:0:
64,192,32101,1,4,0:0:0:0:
448,192,32101,1,0,0:0:0:0:
192,192,32324,1,0,0:0:0:0:
448,192,32546,128,0,32990:0:0:0:0:
64,192,32990,1,8,0:0:0:0:
192,192,32990,1,4,0:0:0:0:
192,192,33657,128,0,33879:0:0:0:0:
448,192,33879,1,4,0:0:0:0:
320,192,33879,1,0,0:0:0:0:
64,192,34101,1,0,0:0:0:0:
320,192,34324,1,4,0:0:0:0:
448,192,34324,1,0,0:0:0:0:
64,192,34546,1,0,0:0:0:0:
192,192,34768,1,8,0:0:0:0:
448,192,34768,1,4,0:0:0:0:
320,192,34990,1,0,0:0:0:0:
192,192,35213,128,0,35657:0:0:0:0:
448,192,35879,1,0,0:0:0:0:
64,192,36101,1,0,0:0:0:0:
320,192,36324,1,8,0:0:0:0:
192,192,36546,1,8,0:0:0:0:
64,192,36546,128,4,36990:0:0:0:0:
448,192,36990,1,8,0:0:0:0:
64,192,37213,1,4,0:0:0:0:
192,192,37213,1,0,0:0:0:0:
448,192,37435,1,8,0:0:0:0:
192,192,37657,1,0,0:0:0:0:
448,192,37879,1,8,0:0:0:0:
320,192,37879,1,0,0:0:0:0:
448,192,38324,1,8,0:0:0:0:
320,192,38546,1,4,0:0:0:0:
192,192,38546,1,0,0:0:0:0:
64,192,38768,1,4,0:0:0:0:
448,192,38768,1,8,0:0:0:0:
448,192,39213,1,8,0:0:0:0:
64,192,39435,1,4,0:0:0:0:
192,192,39435,1,0,0:0:0:0:
320,192,39657,1,8,0:0:0:0:
448,192,39657,1,4,0:0:0:0:
64,192,39879,1,4,0:0:0:0:
192,192,39879,1,0,0:0:0:0:
320,192,40101,1,8,0:0:0:0:
448,192,40101,128,4,40546:0:0:0:0:
64,192,40546,1,8,0:0:0:0:
192,192,40768,1,4,0:0:0:0:
320,192,40768,1,0,0:0:0:0:
448,192,40990,1,8,0:0:0:0:
64,192,41213,1,0,0:0:0:0:
448,192,41435,1,8,0:0:0:0:
320,192,41435,1,4,0:0:0:0:
192,192,41657,1,0,0:0:0:0:
448,192,41879,1,8,0:0:0:0:
320,192,42101,1,0,0:0:0:0:
192,192,42324,128,0,42768:0:0:0:0:
448,192,42768,1,4,0:0:0:0:
448,192,43101,1,4,0:0:0:0:
192,192,43213,1,0,0:0:0:0:
192,192,43657,1,0,0:0:0:0:
192,192,44101,1,0,0:0:0:0:
64,192,44546,1,4,0:0:0:0:
64,192,44879,1,4,0:0:0:0:
320,192,44990,1,0,0:0:0:0:
320,192,45435,1,0,0:0:0:0:
64,192,45657,1,0,0:0:0:0:
320,192,45879,1,0,0:0:0:0:
192,192,46324,1,4,0:0:0:0:
192,192,46657,1,4,0:0:0:0:
448,192,46768,1,0,0:0:0:0:
448,192,47213,1,0,0:0:0:0:
448,192,47657,1,0,0:0:0:0:
64,192,47990,1,4,0:0:0:0:
320,192,48101,1,4,0:0:0:0:
64,192,48324,1,4,0:0:0:0:
320,192,48435,1,4,0:0:0:0:
64,192,48990,1,0,0:0:0:0:
320,192,49213,1,0,0:0:0:0:
64,192,49435,1,0,0:0:0:0:
320,192,49879,1,4,0:0:0:0:
320,192,50213,1,4,0:0:0:0:
192,192,50324,1,0,0:0:0:0:
192,192,50768,1,0,0:0:0:0:
192,192,51213,1,0,0:0:0:0:
64,192,51657,1,4,0:0:0:0:
64,192,51990,1,4,0:0:0:0:
448,192,52101,1,0,0:0:0:0:
448,192,52546,1,0,0:0:0:0:
64,192,52768,1,0,0:0:0:0:
448,192,52990,1,0,0:0:0:0:
192,192,53435,1,4,0:0:0:0:
192,192,53768,1,4,0:0:0:0:
64,192,53879,1,0,0:0:0:0:
64,192,54324,1,0,0:0:0:0:
64,192,54768,1,0,0:0:0:0:
320,192,55101,1,4,0:0:0:0:
448,192,55213,1,4,0:0:0:0:
64,192,55435,1,4,0:0:0:0:
192,192,55546,1,4,0:0:0:0:
320,192,56101,5,0,0:0:0:0:
320,192,56546,1,0,0:0:0:0:
64,192,56990,5,4,0:0:0:0:
448,192,56990,1,0,0:0:0:0:
448,192,57324,1,4,0:0:0:0:
448,192,57657,1,4,0:0:0:0:
64,192,57879,1,4,0:0:0:0:
64,192,58213,1,4,0:0:0:0:
64,192,58546,1,4,0:0:0:0:
320,192,58768,1,4,0:0:0:0:
320,192,59101,1,4,0:0:0:0:
320,192,59435,1,4,0:0:0:0:
192,192,59657,1,4,0:0:0:0:
192,192,59990,1,4,0:0:0:0:
320,192,60101,1,0,0:0:0:0:
192,192,60324,1,4,0:0:0:0:
64,192,60546,1,4,0:0:0:0:
64,192,60879,1,4,0:0:0:0:
64,192,61213,1,4,0:0:0:0:
448,192,61435,1,4,0:0:0:0:
448,192,61768,1,4,0:0:0:0:
64,192,62101,1,4,0:0:0:0:
320,192,62213,1,4,0:0:0:0:
192,192,62324,1,0,0:0:0:0:
320,192,62546,1,4,0:0:0:0:
192,192,62657,1,0,0:0:0:0:
192,192,62990,1,4,0:0:0:0:
320,192,63213,1,4,0:0:0:0:
320,192,63546,1,4,0:0:0:0:
448,192,63657,1,0,0:0:0:0:
320,192,63879,1,4,0:0:0:0:
192,192,64101,1,4,0:0:0:0:
192,192,64435,1,4,0:0:0:0:
192,192,64768,1,4,0:0:0:0:
64,192,64990,1,4,0:0:0:0:
64,192,65324,1,4,0:0:0:0:
64,192,65657,1,4,0:0:0:0:
448,192,65879,1,4,0:0:0:0:
448,192,66213,1,4,0:0:0:0:
448,192,66546,1,4,0:0:0:0:
320,192,66768,1,4,0:0:0:0:
320,192,67101,1,4,0:0:0:0:
192,192,67213,1,0,0:0:0:0:
320,192,67435,1,4,0:0:0:0:
192,192,67657,1,4,0:0:0:0:
192,192,67990,1,4,0:0:0:0:
192,192,68324,1,4,0:0:0:0:
448,192,68546,1,4,0:0:0:0:
448,192,68879,1,4,0:0:0:0:
64,192,69213,1,4,0:0:0:0:
192,192,69324,1,4,0:0:0:0:
320,192,69435,1,0,0:0:0:0:
448,192,69657,1,4,0:0:0:0:
320,192,69768,1,0,0:0:0:0:
320,192,70101,1,4,0:0:0:0:
64,192,70324,1,4,0:0:0:0:
320,192,70657,1,4,0:0:0:0:
192,192,70768,1,0,0:0:0:0:
64,192,70990,1,4,0:0:0:0:
448,192,71213,1,4,0:0:0:0:
64,192,71213,1,8,0:0:0:0:
448,192,71546,1,4,0:0:0:0:
448,192,71879,1,4,0:0:0:0:
64,192,72101,1,4,0:0:0:0:
320,192,72213,1,0,0:0:0:0:
448,192,72324,1,0,0:0:0:0:
64,192,72435,1,4,0:0:0:0:
64,192,72768,1,4,0:0:0:0:
320,192,72990,1,4,0:0:0:0:
320,192,73324,1,4,0:0:0:0:
448,192,73657,1,4,0:0:0:0:
192,192,73879,1,4,0:0:0:0:
320,192,73990,1,0,0:0:0:0:
448,192,74101,1,0,0:0:0:0:
192,192,74213,1,4,0:0:0:0:
192,192,74546,1,4,0:0:0:0:
448,192,74768,1,4,0:0:0:0:
448,192,75101,1,4,0:0:0:0:
448,192,75435,1,4,0:0:0:0:
192,192,75657,1,4,0:0:0:0:
192,192,75990,1,4,0:0:0:0:
192,192,76324,1,4,0:0:0:0:
64,192,76546,1,4,0:0:0:0:
64,192,76879,1,4,0:0:0:0:
192,192,77213,1,4,0:0:0:0:
320,192,77435,1,4,0:0:0:0:
320,192,77768,1,4,0:0:0:0:
192,192,78101,1,4,0:0:0:0:
64,192,78324,1,4,0:0:0:0:
448,192,78324,1,0,0:0:0:0:
64,192,78657,1,4,0:0:0:0:
64,192,78990,1,4,0:0:0:0:
192,192,79213,1,4,0:0:0:0:
192,192,79546,1,4,0:0:0:0:
192,192,79879,1,4,0:0:0:0:
320,192,80101,1,4,0:0:0:0:
448,192,80101,1,0,0:0:0:0:
320,192,80435,1,4,0:0:0:0:
320,192,80768,1,4,0:0:0:0:
448,192,80990,1,4,0:0:0:0:
448,192,81324,1,4,0:0:0:0:
448,192,81657,1,4,0:0:0:0:
192,192,81879,1,4,0:0:0:0:
64,192,81879,1,0,0:0:0:0:
192,192,82213,1,4,0:0:0:0:
192,192,82546,1,4,0:0:0:0:
320,192,82768,1,4,0:0:0:0:
64,192,82768,1,0,0:0:0:0:
320,192,83101,1,4,0:0:0:0:
320,192,83435,1,4,0:0:0:0:
448,192,84990,128,12,85435:0:0:0:0:
64,192,85435,1,4,0:0:0:0:
64,192,85768,1,4,0:0:0:0:
448,192,85879,1,12,0:0:0:0:
64,192,86101,1,4,0:0:0:0:
64,192,86324,1,4,0:0:0:0:
320,192,86546,1,0,0:0:0:0:
448,192,86768,1,12,0:0:0:0:
192,192,86990,1,4,0:0:0:0:
448,192,87213,1,4,0:0:0:0:
448,192,87546,1,4,0:0:0:0:
64,192,87657,1,12,0:0:0:0:
448,192,87879,1,4,0:0:0:0:
448,192,88101,1,4,0:0:0:0:
320,192,88101,1,0,0:0:0:0:
192,192,88324,1,0,0:0:0:0:
64,192,88546,1,4,0:0:0:0:
320,192,88546,1,8,0:0:0:0:
448,192,88768,1,4,0:0:0:0:
192,192,88990,1,4,0:0:0:0:
192,192,89324,1,4,0:0:0:0:
448,192,89435,1,12,0:0:0:0:
192,192,89657,1,4,0:0:0:0:
192,192,89879,1,4,0:0:0:0:
320,192,90101,1,0,0:0:0:0:
448,192,90324,1,12,0:0:0:0:
192,192,90546,1,4,0:0:0:0:
320,192,90768,1,4,0:0:0:0:
320,192,91101,1,4,0:0:0:0:
64,192,91213,1,12,0:0:0:0:
320,192,91435,1,4,0:0:0:0:
320,192,91657,1,4,0:0:0:0:
448,192,91657,1,0,0:0:0:0:
192,192,91879,1,0,0:0:0:0:
64,192,92101,1,4,0:0:0:0:
448,192,92101,1,8,0:0:0:0:
192,192,92324,1,4,0:0:0:0:
448,192,92546,1,4,0:0:0:0:
448,192,92879,1,4,0:0:0:0:
64,192,92990,1,12,0:0:0:0:
448,192,93213,1,4,0:0:0:0:
448,192,93435,1,4,0:0:0:0:
192,192,93657,1,0,0:0:0:0:
64,192,93879,1,12,0:0:0:0:
320,192,94101,1,4,0:0:0:0:
64,192,94324,1,4,0:0:0:0:
64,192,94657,1,4,0:0:0:0:
448,192,94768,1,12,0:0:0:0:
64,192,94990,1,4,0:0:0:0:
64,192,95213,1,4,0:0:0:0:
192,192,95213,1,0,0:0:0:0:
320,192,95435,1,0,0:0:0:0:
448,192,95657,1,4,0:0:0:0:
192,192,95657,1,8,0:0:0:0:
64,192,95879,1,4,0:0:0:0:
320,192,96101,1,4,0:0:0:0:
320,192,96435,1,4,0:0:0:0:
64,192,96546,1,12,0:0:0:0:
320,192,96768,1,4,0:0:0:0:
320,192,96990,1,4,0:0:0:0:
192,192,97213,1,0,0:0:0:0:
64,192,97435,1,12,0:0:0:0:
320,192,97657,1,4,0:0:0:0:
192,192,97879,1,4,0:0:0:0:
192,192,98213,1,4,0:0:0:0:
448,192,98324,1,12,0:0:0:0:
192,192,98546,1,4,0:0:0:0:
64,192,98768,1,4,0:0:0:0:
192,192,98768,1,0,0:0:0:0:
320,192,99101,1,8,0:0:0:0:
448,192,99213,1,12,0:0:0:0:
64,192,99435,1,4,0:0:0:0:
192,192,99435,1,0,0:0:0:0:
448,192,99657,1,4,0:0:0:0:
320,192,99657,1,0,0:0:0:0:
448,192,99990,1,4,0:0:0:0:
64,192,100101,1,12,0:0:0:0:
448,192,100324,1,4,0:0:0:0:
448,192,100546,1,12,0:0:0:0:
320,192,100546,1,12,0:0:0:0:
448,192,100879,1,12,0:0:0:0:
320,192,100879,1,12,0:0:0:0:
64,192,100990,1,12,0:0:0:0:
448,192,101213,1,4,0:0:0:0:
64,192,101435,1,4,0:0:0:0:
64,192,101768,1,4,0:0:0:0:
448,192,101879,1,12,0:0:0:0:
64,192,102101,1,0,0:0:0:0:
192,192,102324,1,4,0:0:0:0:
64,192,102324,1,0,0:0:0:0:
320,192,102546,1,0,0:0:0:0:
448,192,102768,1,4,0:0:0:0:
192,192,102768,1,8,0:0:0:0:
64,192,102990,128,4,103213:0:0:0:0:
320,192,103213,1,4,0:0:0:0:
448,192,103213,1,0,0:0:0:0:
320,192,103546,1,4,0:0:0:0:
64,192,103657,1,12,0:0:0:0:
320,192,103879,1,4,0:0:0:0:
320,192,104101,1,12,0:0:0:0:
448,192,104101,1,12,0:0:0:0:
320,192,104435,1,12,0:0:0:0:
448,192,104435,1,12,0:0:0:0:
64,192,104546,1,12,0:0:0:0:
320,192,104768,1,4,0:0:0:0:
192,192,104990,1,4,0:0:0:0:
192,192,105324,1,4,0:0:0:0:
448,192,105435,1,12,0:0:0:0:
192,192,105657,1,4,0:0:0:0:
192,192,105879,1,4,0:0:0:0:
64,192,105879,1,0,0:0:0:0:
320,192,106101,1,0,0:0:0:0:
448,192,106324,1,4,0:0:0:0:
64,192,106324,1,8,0:0:0:0:
320,192,106546,128,4,106768:0:0:0:0:
64,192,106768,1,4,0:0:0:0:
192,192,106768,1,0,0:0:0:0:
64,192,107101,1,4,0:0:0:0:
448,192,107213,1,12,0:0:0:0:
64,192,107435,1,4,0:0:0:0:
64,192,107657,1,12,0:0:0:0:
192,192,107657,1,12,0:0:0:0:
64,192,107990,1,12,0:0:0:0:
192,192,107990,1,12,0:0:0:0:
448,192,108101,1,12,0:0:0:0:
64,192,108324,1,4,0:0:0:0:
448,192,108546,1,4,0:0:0:0:
448,192,108879,1,4,0:0:0:0:
64,192,108990,1,12,0:0:0:0:
448,192,109213,1,4,0:0:0:0:
320,192,109435,1,4,0:0:0:0:
448,192,109435,1,0,0:0:0:0:
192,192,109657,1,0,0:0:0:0:
64,192,109879,1,4,0:0:0:0:
320,192,109879,1,8,0:0:0:0:
448,192,110101,128,4,110324:0:0:0:0:
192,192,110324,1,4,0:0:0:0:
64,192,110324,1,0,0:0:0:0:
192,192,110657,1,4,0:0:0:0:
448,192,110768,1,12,0:0:0:0:
192,192,110990,1,4,0:0:0:0:
192,192,111213,1,12,0:0:0:0:
64,192,111213,1,12,0:0:0:0:
192,192,111546,1,12,0:0:0:0:
64,192,111546,1,12,0:0:0:0:
448,192,111657,1,12,0:0:0:0:
192,192,111879,1,4,0:0:0:0:
320,192,112101,1,4,0:0:0:0:
320,192,112435,1,4,0:0:0:0:
64,192,112546,1,12,0:0:0:0:
320,192,112768,1,4,0:0:0:0:
448,192,112990,1,4,0:0:0:0:
448,192,113324,1,4,0:0:0:0:
448,192,113657,1,4,0:0:0:0:
64,192,113879,1,12,0:0:0:0:
192,192,113879,1,12,0:0:0:0:
448,192,114546,1,4,0:0:0:0:
448,192,114768,1,8,0:0:0:0:
320,192,114768,1,4,0:0:0:0:
192,192,114990,1,0,0:0:0:0:
448,192,115213,1,0,0:0:0:0:
64,192,115435,1,4,0:0:0:0:
64,192,115657,1,4,0:0:0:0:
64,192,116324,128,0,116546:0:0:0:0:
448,192,116546,1,8,0:0:0:0:
320,192,116546,1,0,0:0:0:0:
192,192,116768,1,0,0:0:0:0:
448,192,116990,1,0,0:0:0:0:
192,192,117213,1,4,0:0:0:0:
192,192,117435,1,4,0:0:0:0:
448,192,118324,1,8,0:0:0:0:
64,192,118324,1,0,0:0:0:0:
320,192,118768,1,0,0:0:0:0:
192,192,119213,1,4,0:0:0:0:
192,192,119546,1,4,0:0:0:0:
448,192,119879,128,4,120101:0:0:0:0:
64,192,120101,1,8,0:0:0:0:
192,192,120101,1,4,0:0:0:0:
320,192,120324,1,4,0:0:0:0:
64,192,120546,1,4,0:0:0:0:
320,192,120768,1,4,0:0:0:0:
64,192,120990,1,4,0:0:0:0:
192,192,120990,1,8,0:0:0:0:
448,192,121435,1,0,0:0:0:0:
320,192,121879,1,8,0:0:0:0:
192,192,121879,1,0,0:0:0:0:
448,192,122324,1,0,0:0:0:0:
64,192,122768,1,4,0:0:0:0:
192,192,122768,1,8,0:0:0:0:
448,192,123213,1,0,0:0:0:0:
320,192,123657,1,8,0:0:0:0:
192,192,123657,1,0,0:0:0:0:
448,192,124101,1,0,0:0:0:0:
448,192,124546,1,8,0:0:0:0:
320,192,124546,1,4,0:0:0:0:
64,192,124990,1,0,0:0:0:0:
448,192,125435,1,4,0:0:0:0:
320,192,125435,1,8,0:0:0:0:
64,192,125879,1,0,0:0:0:0:
448,192,126324,128,0,126768:0:0:0:0:
192,192,126768,128,0,127213:0:0:0:0:
64,192,127213,128,0,127657:0:0:0:0:
320,192,127657,128,0,128101:0:0:0:0:
192,192,128101,128,4,128990:0:0:0:0:
448,192,128990,128,8,129435:0:0:0:0:
64,192,128990,1,0,0:0:0:0:
64,192,129435,1,4,0:0:0:0:
192,192,129435,1,0,0:0:0:0:
448,192,129657,1,0,0:0:0:0:
64,192,129879,1,0,0:0:0:0:
320,192,130101,1,4,0:0:0:0:
192,192,130101,1,0,0:0:0:0:
448,192,130324,1,4,0:0:0:0:
64,192,130324,1,0,0:0:0:0:
64,192,130768,1,8,0:0:0:0:
192,192,130768,128,0,131213:0:0:0:0:
192,192,131435,1,4,0:0:0:0:
64,192,131435,1,0,0:0:0:0:
448,192,131657,1,4,0:0:0:0:
320,192,131657,1,0,0:0:0:0:
192,192,131879,1,0,0:0:0:0:
64,192,132101,128,0,132546:0:0:0:0:
448,192,132546,1,8,0:0:0:0:
192,192,132546,1,4,0:0:0:0:
192,192,133213,128,0,133435:0:0:0:0:
448,192,133435,1,4,0:0:0:0:
320,192,133435,1,0,0:0:0:0:
64,192,133657,1,0,0:0:0:0:
448,192,133879,1,4,0:0:0:0:
320,192,133879,1,0,0:0:0:0:
64,192,134101,1,0,0:0:0:0:
192,192,134324,1,8,0:0:0:0:
448,192,134324,1,4,0:0:0:0:
320,192,134546,1,0,0:0:0:0:
192,192,134768,128,0,135213:0:0:0:0:
64,192,135435,1,4,0:0:0:0:
320,192,135657,1,4,0:0:0:0:
448,192,135879,1,4,0:0:0:0:
192,192,136101,1,8,0:0:0:0:
64,192,136101,128,4,136546:0:0:0:0:
448,192,136546,1,8,0:0:0:0:
64,192,136768,1,4,0:0:0:0:
192,192,136768,1,0,0:0:0:0:
448,192,136990,1,8,0:0:0:0:
64,192,137213,1,0,0:0:0:0:
448,192,137435,1,8,0:0:0:0:
320,192,137435,1,4,0:0:0:0:
448,192,137879,1,8,0:0:0:0:
64,192,138101,1,4,0:0:0:0:
320,192,138101,1,0,0:0:0:0:
448,192,138324,1,4,0:0:0:0:
192,192,138324,1,8,0:0:0:0:
448,192,138768,1,8,0:0:0:0:
64,192,138990,1,4,0:0:0:0:
192,192,138990,1,0,0:0:0:0:
448,192,139213,1,8,0:0:0:0:
320,192,139213,1,4,0:0:0:0:
192,192,139435,1,4,0:0:0:0:
64,192,139435,1,0,0:0:0:0:
320,192,139657,1,8,0:0:0:0:
448,192,139657,128,4,140101:0:0:0:0:
64,192,140101,1,8,0:0:0:0:
192,192,140324,1,4,0:0:0:0:
320,192,140324,1,0,0:0:0:0:
448,192,140546,1,8,0:0:0:0:
64,192,140768,1,0,0:0:0:0:
448,192,140990,1,4,0:0:0:0:
192,192,140990,1,8,0:0:0:0:
64,192,141435,1,0,0:0:0:0:
192,192,141657,1,0,0:0:0:0:
448,192,141879,1,0,0:0:0:0:
320,192,142027,1,0,0:0:0:0:
192,192,142176,1,0,0:0:0:0:
64,192,142324,128,0,143213:0:0:0:0:
192,192,143213,1,8,0:0:0:0:
448,192,143213,128,0,143657:0:0:0:0:
64,192,143657,1,4,0:0:0:0:
192,192,143657,1,0,0:0:0:0:
320,192,143879,1,0,0:0:0:0:
192,192,144101,1,0,0:0:0:0:
320,192,144324,1,4,0:0:0:0:
64,192,144324,1,0,0:0:0:0:
192,192,144546,1,4,0:0:0:0:
448,192,144546,1,0,0:0:0:0:
448,192,144990,1,8,0:0:0:0:
64,192,144990,128,4,145435:0:0:0:0:
192,192,145657,1,4,0:0:0:0:
320,192,145657,1,0,0:0:0:0:
448,192,145879,1,4,0:0:0:0:
64,192,145879,1,0,0:0:0:0:
320,192,146101,1,0,0:0:0:0:
64,192,146324,128,0,146768:0:0:0:0:
448,192,146768,1,8,0:0:0:0:
320,192,146768,1,4,0:0:0:0:
320,192,147435,128,0,147657:0:0:0:0:
64,192,147657,1,4,0:0:0:0:
192,192,147657,1,0,0:0:0:0:
448,192,147879,1,0,0:0:0:0:
192,192,148101,1,4,0:0:0:0:
64,192,148101,1,0,0:0:0:0:
448,192,148324,1,0,0:0:0:0:
320,192,148546,1,8,0:0:0:0:
64,192,148546,1,4,0:0:0:0:
192,192,148768,1,0,0:0:0:0:
64,192,148990,1,0,0:0:0:0:
320,192,149213,1,0,0:0:0:0:
64,192,149657,1,0,0:0:0:0:
448,192,149879,1,0,0:0:0:0:
192,192,150101,1,8,0:0:0:0:
320,192,150324,1,8,0:0:0:0:
448,192,150324,128,4,150768:0:0:0:0:
64,192,150768,1,8,0:0:0:0:
448,192,150990,1,4,0:0:0:0:
320,192,150990,1,0,0:0:0:0:
64,192,151213,1,8,0:0:0:0:
320,192,151435,1,0,0:0:0:0:
64,192,151657,1,8,0:0:0:0:
192,192,151657,1,4,0:0:0:0:
64,192,152101,1,8,0:0:0:0:
192,192,152324,1,4,0:0:0:0:
320,192,152324,1,0,0:0:0:0:
448,192,152546,1,4,0:0:0:0:
64,192,152546,1,0,0:0:0:0:
64,192,152990,1,8,0:0:0:0:
448,192,153213,1,4,0:0:0:0:
320,192,153213,1,0,0:0:0:0:
192,192,153435,1,8,0:0:0:0:
64,192,153435,1,4,0:0:0:0:
448,192,153657,1,4,0:0:0:0:
320,192,153657,1,0,0:0:0:0:
192,192,153879,1,8,0:0:0:0:
64,192,153879,128,4,154324:0:0:0:0:
448,192,154324,1,8,0:0:0:0:
320,192,154546,1,4,0:0:0:0:
192,192,154546,1,0,0:0:0:0:
64,192,154768,1,8,0:0:0:0:
448,192,154990,1,0,0:0:0:0:
64,192,155213,1,8,0:0:0:0:
192,192,155213,1,4,0:0:0:0:
320,192,155435,1,0,0:0:0:0:
64,192,155657,1,8,0:0:0:0:
192,192,155879,1,0,0:0:0:0:
320,192,156101,128,0,156546:0:0:0:0:
64,192,156546,1,4,0:0:0:0:
64,192,156879,1,4,0:0:0:0:
64,192,157213,1,4,0:0:0:0:
448,192,157435,1,12,0:0:0:0:
64,192,158324,1,4,0:0:0:0:
64,192,158657,1,4,0:0:0:0:
64,192,158990,1,4,0:0:0:0:
448,192,159213,1,12,0:0:0:0:
64,192,159546,1,4,0:0:0:0:
64,192,159879,1,4,0:0:0:0:
192,192,160101,1,4,0:0:0:0:
192,192,160435,1,4,0:0:0:0:
192,192,160768,1,4,0:0:0:0:
448,192,160990,1,12,0:0:0:0:
320,192,161768,1,4,0:0:0:0:
192,192,161879,1,4,0:0:0:0:
320,192,162101,1,4,0:0:0:0:
192,192,162213,1,4,0:0:0:0:
320,192,162435,1,4,0:0:0:0:
192,192,162546,1,4,0:0:0:0:
448,192,162768,1,12,0:0:0:0:
192,192,163101,1,4,0:0:0:0:
192,192,163435,1,4,0:0:0:0:
448,192,163657,1,4,0:0:0:0:
448,192,163990,1,4,0:0:0:0:
448,192,164324,1,4,0:0:0:0:
64,192,164546,1,12,0:0:0:0:
448,192,165435,1,4,0:0:0:0:
448,192,165768,1,4,0:0:0:0:
448,192,166101,1,4,0:0:0:0:
64,192,166324,1,12,0:0:0:0:
448,192,166657,1,4,0:0:0:0:
448,192,166990,1,4,0:0:0:0:
320,192,167213,1,4,0:0:0:0:
320,192,167546,1,4,0:0:0:0:
320,192,167879,1,4,0:0:0:0:
64,192,168101,1,12,0:0:0:0:
192,192,168879,1,4,0:0:0:0:
320,192,168990,1,4,0:0:0:0:
192,192,169213,1,4,0:0:0:0:
320,192,169324,1,4,0:0:0:0:
192,192,169546,1,4,0:0:0:0:
320,192,169657,1,4,0:0:0:0:
64,192,169879,1,12,0:0:0:0:
320,192,170213,1,4,0:0:0:0:
320,192,170546,1,4,0:0:0:0:
64,192,170768,1,4,0:0:0:0:
64,192,171101,1,4,0:0:0:0:
64,192,171435,1,4,0:0:0:0:
64,192,172546,1,4,0:0:0:0:
64,192,172879,1,4,0:0:0:0:
64,192,173213,1,4,0:0:0:0:
64,192,173768,1,4,0:0:0:0:
64,192,174101,1,4,0:0:0:0:
192,192,174324,1,4,0:0:0:0:
192,192,174657,1,4,0:0:0:0:
192,192,174990,1,4,0:0:0:0:
192,192,176101,1,4,0:0:0:0:
192,192,176435,1,4,0:0:0:0:
192,192,176768,1,4,0:0:0:0:
192,192,177324,1,4,0:0:0:0:
192,192,177657,1,4,0:0:0:0:
448,192,177879,1,4,0:0:0:0:
448,192,178213,1,4,0:0:0:0:
448,192,178546,1,4,0:0:0:0:
448,192,179657,1,4,0:0:0:0:
448,192,179990,1,4,0:0:0:0:
448,192,180324,1,4,0:0:0:0:
448,192,180879,1,4,0:0:0:0:
448,192,181213,1,4,0:0:0:0:
320,192,181435,1,4,0:0:0:0:
320,192,181768,1,4,0:0:0:0:
320,192,182101,1,4,0:0:0:0:
320,192,183213,1,4,0:0:0:0:
320,192,183546,1,4,0:0:0:0:
320,192,183879,1,4,0:0:0:0:
