osu file format v14

[General]
AudioFilename: audio.mp3
AudioLeadIn: 0
PreviewTime: 82028
Countdown: 0
SampleSet: Normal
StackLeniency: 0.7
Mode: 3
LetterboxInBreaks: 0
SpecialStyle: 0
WidescreenStoryboard: 1

[Editor]
DistanceSpacing: 0.8
BeatDivisor: 8
GridSize: 8
TimelineZoom: 2.1

[Metadata]
Title:Acorn
TitleUnicode:Acorn
Artist:So Sus + Konka
ArtistUnicode:So Sus + Konka
Creator:TheToaphster
Version:Advanced
Source:
Tags:SV
BeatmapID:1570858
BeatmapSetID:639057

[Difficulty]
HPDrainRate:7
CircleSize:4
OverallDifficulty:7
ApproachRate:5
SliderMultiplier:1.4
SliderTickRate:1

[Events]
//Background and Video events
0,0,"Acornnn.jpg",0,0
//Break Periods
//Storyboard Layer 0 (Background)
//Storyboard Layer 1 (Fail)
//Storyboard Layer 2 (Pass)
//Storyboard Layer 3 (Foreground)
//Storyboard Sound Samples

[TimingPoints]
102,444.444444444444,4,1,1,100,1,0
103,-71.4285714285714,4,1,1,100,0,0
213,-166.666666666667,4,1,1,100,0,0
324,-100,4,1,1,100,0,0
1435,-71.4285714285714,4,1,1,100,0,0
1546,-166.666666666667,4,1,1,100,0,0
1657,-100,4,1,1,100,0,0
2101,-71.4285714285714,4,1,1,100,0,0
2212,-166.666666666667,4,1,1,100,0,0
2324,-71.4285714285714,4,1,1,100,0,0
2435,-166.666666666667,4,1,1,100,0,0
2546,-100,4,1,1,100,0,0
3435,-71.4285714285714,4,1,1,100,0,0
3546,-166.666666666667,4,1,1,100,0,0
3657,-71.4285714285714,4,1,1,100,0,0
3768,-166.666666666667,4,1,1,100,0,0
3879,-100,4,1,1,100,0,0
5435,-71.4285714285714,4,1,1,100,0,0
5546,-166.666666666667,4,1,1,100,0,0
5657,-100,4,1,1,100,0,0
5879,-71.4285714285714,4,1,1,100,0,0
5990,-166.666666666667,4,1,1,100,0,0
6101,-100,4,1,1,100,0,0
7213,-71.4285714285714,4,1,1,100,0,0
7324,-166.666666666667,4,1,1,100,0,0
7435,-100,4,1,1,100,0,0
8546,-71.4285714285714,4,1,1,100,0,0
8657,-166.666666666667,4,1,1,100,0,0
8768,-100,4,1,1,100,0,0
9213,-71.4285714285714,4,1,1,100,0,0
9324,-166.666666666667,4,1,1,100,0,0
9435,-71.4285714285714,4,1,1,100,0,0
9546,-166.666666666667,4,1,1,100,0,0
9657,-100,4,1,1,100,0,0
10546,-71.4285714285714,4,1,1,100,0,0
10657,-166.666666666667,4,1,1,100,0,0
10768,-71.4285714285714,4,1,1,100,0,0
10879,-166.666666666667,4,1,1,100,0,0
10990,-100,4,1,1,100,0,0
12546,-83.3333333333333,4,1,1,100,0,0
12583,-125,4,1,1,100,0,0
12620,-83.3333333333333,4,1,1,100,0,0
12657,-125,4,1,1,100,0,0
12694,-83.3333333333333,4,1,1,100,0,0
12768,-125,4,1,1,100,0,0
12842,-83.3333333333333,4,1,1,100,0,0
12916,-125,4,1,1,100,0,0
12990,-83.3333333333333,4,1,1,100,0,0
13064,-125,4,1,1,100,0,0
13139,-83.3333333333333,4,1,1,100,0,0
13213,-125,4,1,1,100,0,0
13287,-83.3333333333333,4,1,1,100,0,0
13361,-125,4,1,1,100,0,0
13435,-83.3333333333333,4,1,1,100,0,0
13509,-125,4,1,1,100,0,0
13583,-83.3333333333333,4,1,1,100,0,0
13657,-125,4,1,1,100,0,0
13731,-83.3333333333333,4,1,1,100,0,0
13805,-125,4,1,1,100,0,0
13879,-100,4,1,1,100,0,0
14324,-33.3333333333333,4,1,1,100,0,0
14351,-125,4,1,1,100,0,0
14990,-111.111111111111,4,1,1,100,0,0
15213,-50,4,1,1,100,0,0
15324,-100,4,1,1,100,0,0
15657,-83.3333333333333,4,1,1,100,0,0
15713,-125,4,1,1,100,0,0
15768,-83.3333333333333,4,1,1,100,0,0
15824,-125,4,1,1,100,0,0
15879,-83.3333333333333,4,1,1,100,0,0
15935,-125,4,1,1,100,0,0
15990,-83.3333333333333,4,1,1,100,0,0
16046,-125,4,1,1,100,0,0
16101,-83.3333333333333,4,1,1,100,0,0
16157,-125,4,1,1,100,0,0
16213,-83.3333333333333,4,1,1,100,0,0
16269,-125,4,1,1,100,0,0
16324,-83.3333333333333,4,1,1,100,0,0
16380,-125,4,1,1,100,0,0
16435,-83.3333333333333,4,1,1,100,0,0
16491,-125,4,1,1,100,0,0
16546,-71.4285714285714,4,1,1,100,0,0
16657,-166.666666666667,4,1,1,100,0,0
16768,-100,4,1,1,100,0,0
16990,-50,4,1,1,100,0,0
17101,-100,4,1,1,100,0,0
17657,-71.4285714285714,4,1,1,100,0,0
17768,-166.666666666667,4,1,1,100,0,0
17879,-83.3333333333333,4,1,1,100,0,0
17935,-125,4,1,1,100,0,0
17990,-83.3333333333333,4,1,1,100,0,0
18046,-125,4,1,1,100,0,0
18101,-83.3333333333333,4,1,1,100,0,0
18157,-125,4,1,1,100,0,0
18212,-83.3333333333333,4,1,1,100,0,0
18268,-125,4,1,1,100,0,0
18324,-95.2380952380952,4,1,1,100,0,0
18768,-50,4,1,1,100,0,0
18879,-100,4,1,1,100,0,0
19435,-95.2380952380952,4,1,1,100,0,0
19657,-71.4285714285714,4,1,1,100,0,0
19768,-166.666666666667,4,1,1,100,0,0
19879,-83.3333333333333,4,1,1,100,0,0
19935,-125,4,1,1,100,0,0
19990,-83.3333333333333,4,1,1,100,0,0
20046,-125,4,1,1,100,0,0
20101,-83.3333333333333,4,1,1,100,0,0
20157,-125,4,1,1,100,0,0
20212,-83.3333333333333,4,1,1,100,0,0
20268,-125,4,1,1,100,0,0
20324,-83.3333333333333,4,1,1,100,0,0
20380,-125,4,1,1,100,0,0
20435,-83.3333333333333,4,1,1,100,0,0
20491,-125,4,1,1,100,0,0
20546,-66.6666666666667,4,1,1,100,0,0
20657,-100,4,1,1,100,0,0
20990,-95.2380952380952,4,1,1,100,0,0
21435,-111.111111111111,4,1,1,100,0,0
22324,-76.9230769230769,4,1,1,100,0,0
22380,-125,4,1,1,100,0,0
22435,-83.3333333333333,4,1,1,100,0,0
22491,-125,4,1,1,100,0,0
22546,-83.3333333333333,4,1,1,100,0,0
22602,-125,4,1,1,100,0,0
22657,-83.3333333333333,4,1,1,100,0,0
22713,-125,4,1,1,100,0,0
22768,-83.3333333333333,4,1,1,100,0,0
22824,-100,4,1,1,100,0,0
22990,-71.4285714285714,4,1,1,100,0,0
23046,-166.666666666667,4,1,1,100,0,0
23101,-100,4,1,1,100,0,0
23213,-83.3333333333333,4,1,1,100,0,0
23269,-125,4,1,1,100,0,0
23324,-83.3333333333333,4,1,1,100,0,0
23380,-125,4,1,1,100,0,0
23435,-83.3333333333333,4,1,1,100,0,0
23491,-125,4,1,1,100,0,0
23546,-83.3333333333333,4,1,1,100,0,0
23602,-125,4,1,1,100,0,0
23657,-50,4,1,1,100,0,0
23713,-100,4,1,1,100,0,0
24101,-66.6666666666667,4,1,1,100,0,0
24157,-100,4,1,1,100,0,0
24546,-66.6666666666667,4,1,1,100,0,0
24601,-100,4,1,1,100,0,0
24990,-66.6666666666667,4,1,1,100,0,0
25046,-100,4,1,1,100,0,0
25213,-71.4285714285714,4,1,1,100,0,0
25268,-166.666666666667,4,1,1,100,0,0
25324,-100,4,1,1,100,0,0
25435,-83.3333333333333,4,1,1,100,0,0
25491,-125,4,1,1,100,0,0
25546,-83.3333333333333,4,1,1,100,0,0
25602,-125,4,1,1,100,0,0
25657,-83.3333333333333,4,1,1,100,0,0
25713,-125,4,1,1,100,0,0
25768,-83.3333333333333,4,1,1,100,0,0
25824,-125,4,1,1,100,0,0
25879,-83.3333333333333,4,1,1,100,0,0
25935,-125,4,1,1,100,0,0
25990,-83.3333333333333,4,1,1,100,0,0
26046,-125,4,1,1,100,0,0
26101,-83.3333333333333,4,1,1,100,0,0
26157,-125,4,1,1,100,0,0
26212,-83.3333333333333,4,1,1,100,0,0
26268,-125,4,1,1,100,0,0
26324,-66.6666666666667,4,1,1,100,0,0
26379,-100,4,1,1,100,0,0
26546,-71.4285714285714,4,1,1,100,0,0
26601,-166.666666666667,4,1,1,100,0,0
26657,-100,4,1,1,100,0,0
26768,-83.3333333333333,4,1,1,100,0,0
26824,-125,4,1,1,100,0,0
26879,-83.3333333333333,4,1,1,100,0,0
26935,-125,4,1,1,100,0,0
26990,-83.3333333333333,4,1,1,100,0,0
27046,-125,4,1,1,100,0,0
27101,-83.3333333333333,4,1,1,100,0,0
27157,-125,4,1,1,100,0,0
27213,-50,4,1,1,100,0,0
27324,-100,4,1,1,100,0,0
28546,-33.3333333333333,4,1,1,100,0,0
28573,-125,4,1,1,100,0,0
29212,-111.111111111111,4,1,1,100,0,0
29435,-50,4,1,1,100,0,0
29546,-100,4,1,1,100,0,0
29879,-83.3333333333333,4,1,1,100,0,0
29935,-125,4,1,1,100,0,0
29990,-83.3333333333333,4,1,1,100,0,0
30046,-125,4,1,1,100,0,0
30101,-83.3333333333333,4,1,1,100,0,0
30157,-125,4,1,1,100,0,0
30212,-83.3333333333333,4,1,1,100,0,0
30268,-125,4,1,1,100,0,0
30323,-83.3333333333333,4,1,1,100,0,0
30379,-125,4,1,1,100,0,0
30435,-83.3333333333333,4,1,1,100,0,0
30491,-125,4,1,1,100,0,0
30546,-83.3333333333333,4,1,1,100,0,0
30602,-125,4,1,1,100,0,0
30657,-83.3333333333333,4,1,1,100,0,0
30713,-125,4,1,1,100,0,0
30768,-71.4285714285714,4,1,1,100,0,0
30879,-166.666666666667,4,1,1,100,0,0
30990,-100,4,1,1,100,0,0
31212,-50,4,1,1,100,0,0
31323,-100,4,1,1,100,0,0
31879,-71.4285714285714,4,1,1,100,0,0
31990,-166.666666666667,4,1,1,100,0,0
32101,-83.3333333333333,4,1,1,100,0,0
32157,-125,4,1,1,100,0,0
32212,-83.3333333333333,4,1,1,100,0,0
32268,-125,4,1,1,100,0,0
32323,-83.3333333333333,4,1,1,100,0,0
32379,-125,4,1,1,100,0,0
32434,-83.3333333333333,4,1,1,100,0,0
32490,-125,4,1,1,100,0,0
32546,-95.2380952380952,4,1,1,100,0,0
32990,-50,4,1,1,100,0,0
33101,-100,4,1,1,100,0,0
33657,-95.2380952380952,4,1,1,100,0,0
33879,-71.4285714285714,4,1,1,100,0,0
33990,-166.666666666667,4,1,1,100,0,0
34101,-83.3333333333333,4,1,1,100,0,0
34157,-125,4,1,1,100,0,0
34212,-83.3333333333333,4,1,1,100,0,0
34268,-125,4,1,1,100,0,0
34323,-83.3333333333333,4,1,1,100,0,0
34379,-125,4,1,1,100,0,0
34434,-83.3333333333333,4,1,1,100,0,0
34490,-125,4,1,1,100,0,0
34546,-83.3333333333333,4,1,1,100,0,0
34602,-125,4,1,1,100,0,0
34657,-83.3333333333333,4,1,1,100,0,0
34713,-125,4,1,1,100,0,0
34768,-66.6666666666667,4,1,1,100,0,0
34879,-100,4,1,1,100,0,0
35212,-95.2380952380952,4,1,1,100,0,0
35657,-111.111111111111,4,1,1,100,0,0
36324,-62.5,4,1,1,100,0,0
36379,-250,4,1,1,100,0,0
36435,-100,4,1,1,100,0,0
36546,-76.9230769230769,4,1,1,100,0,0
36602,-125,4,1,1,100,0,0
36657,-83.3333333333333,4,1,1,100,0,0
36713,-125,4,1,1,100,0,0
36768,-83.3333333333333,4,1,1,100,0,0
36824,-125,4,1,1,100,0,0
36879,-83.3333333333333,4,1,1,100,0,0
36935,-125,4,1,1,100,0,0
36990,-83.3333333333333,4,1,1,100,0,0
37046,-100,4,1,1,100,0,0
37212,-71.4285714285714,4,1,1,100,0,0
37268,-166.666666666667,4,1,1,100,0,0
37323,-100,4,1,1,100,0,0
37435,-83.3333333333333,4,1,1,100,0,0
37491,-125,4,1,1,100,0,0
37546,-83.3333333333333,4,1,1,100,0,0
37602,-125,4,1,1,100,0,0
37657,-83.3333333333333,4,1,1,100,0,0
37713,-125,4,1,1,100,0,0
37768,-83.3333333333333,4,1,1,100,0,0
37824,-125,4,1,1,100,0,0
37879,-50,4,1,1,100,0,0
37935,-100,4,1,1,100,0,0
38323,-66.6666666666667,4,1,1,100,0,0
38379,-100,4,1,1,100,0,0
38768,-66.6666666666667,4,1,1,100,0,0
38823,-100,4,1,1,100,0,0
39212,-66.6666666666667,4,1,1,100,0,0
39268,-100,4,1,1,100,0,0
39435,-71.4285714285714,4,1,1,100,0,0
39490,-166.666666666667,4,1,1,100,0,0
39546,-100,4,1,1,100,0,0
39657,-83.3333333333333,4,1,1,100,0,0
39713,-125,4,1,1,100,0,0
39768,-83.3333333333333,4,1,1,100,0,0
39824,-125,4,1,1,100,0,0
39879,-83.3333333333333,4,1,1,100,0,0
39935,-125,4,1,1,100,0,0
39990,-83.3333333333333,4,1,1,100,0,0
40046,-125,4,1,1,100,0,0
40101,-83.3333333333333,4,1,1,100,0,0
40157,-125,4,1,1,100,0,0
40212,-83.3333333333333,4,1,1,100,0,0
40268,-125,4,1,1,100,0,0
40323,-83.3333333333333,4,1,1,100,0,0
40379,-125,4,1,1,100,0,0
40434,-83.3333333333333,4,1,1,100,0,0
40490,-125,4,1,1,100,0,0
40546,-66.6666666666667,4,1,1,100,0,0
40601,-100,4,1,1,100,0,0
40768,-71.4285714285714,4,1,1,100,0,0
40823,-166.666666666667,4,1,1,100,0,0
40879,-100,4,1,1,100,0,0
40990,-83.3333333333333,4,1,1,100,0,0
41046,-125,4,1,1,100,0,0
41101,-83.3333333333333,4,1,1,100,0,0
41157,-125,4,1,1,100,0,0
41212,-83.3333333333333,4,1,1,100,0,0
41268,-125,4,1,1,100,0,0
41323,-83.3333333333333,4,1,1,100,0,0
41379,-125,4,1,1,100,0,0
41435,-50,4,1,1,100,0,0
41546,-100,4,1,1,100,0,0
42768,-111.111111111111,4,1,1,100,0,0
56694,-109.89010989011,4,1,1,100,0,0
56768,-108.695652173913,4,1,1,100,0,0
56842,-107.52688172043,4,1,1,100,0,0
56916,-106.382978723404,4,1,1,100,0,0
56990,-105.263157894737,4,1,1,100,0,0
70916,-104.166666666667,4,1,1,100,0,0
70990,-103.092783505155,4,1,1,100,0,0
71064,-102.040816326531,4,1,1,100,0,0
71138,-101.010101010101,4,1,1,100,0,0
71212,-100,4,1,1,100,0,0
85435,-71.4285714285714,4,1,1,100,0,0
85546,-166.666666666667,4,1,1,100,0,0
85657,-100,4,1,1,100,0,0
85879,-58.8235294117647,4,1,1,100,0,0
85907,-131.578947368421,4,1,1,100,0,0
85990,-100,4,1,1,100,0,0
86101,-71.4285714285714,4,1,1,100,0,0
86212,-166.666666666667,4,1,1,100,0,0
86323,-100,4,1,1,100,0,0
86768,-58.8235294117647,4,1,1,100,0,0
86796,-131.578947368421,4,1,1,100,0,0
86879,-100,4,1,1,100,0,0
86990,-71.4285714285714,4,1,1,100,0,0
87101,-166.666666666667,4,1,1,100,0,0
87213,-71.4285714285714,4,1,1,100,0,0
87324,-166.666666666667,4,1,1,100,0,0
87435,-100,4,1,1,100,0,0
87657,-58.8235294117647,4,1,1,100,0,0
87685,-131.578947368421,4,1,1,100,0,0
87768,-100,4,1,1,100,0,0
87879,-71.4285714285714,4,1,1,100,0,0
87990,-166.666666666667,4,1,1,100,0,0
88101,-100,4,1,1,100,0,0
88546,-58.8235294117647,4,1,1,100,0,0
88574,-131.578947368421,4,1,1,100,0,0
88657,-100,4,1,1,100,0,0
88990,-71.4285714285714,4,1,1,100,0,0
89101,-166.666666666667,4,1,1,100,0,0
89212,-100,4,1,1,100,0,0
89435,-58.8235294117647,4,1,1,100,0,0
89463,-131.578947368421,4,1,1,100,0,0
89546,-100,4,1,1,100,0,0
89657,-71.4285714285714,4,1,1,100,0,0
89768,-166.666666666667,4,1,1,100,0,0
89879,-100,4,1,1,100,0,0
90324,-58.8235294117647,4,1,1,100,0,0
90352,-131.578947368421,4,1,1,100,0,0
90435,-100,4,1,1,100,0,0
90546,-71.4285714285714,4,1,1,100,0,0
90657,-166.666666666667,4,1,1,100,0,0
90768,-71.4285714285714,4,1,1,100,0,0
90879,-166.666666666667,4,1,1,100,0,0
90990,-100,4,1,1,100,0,0
91213,-58.8235294117647,4,1,1,100,0,0
91241,-131.578947368421,4,1,1,100,0,0
91324,-100,4,1,1,100,0,0
91435,-71.4285714285714,4,1,1,100,0,0
91546,-166.666666666667,4,1,1,100,0,0
91657,-100,4,1,1,100,0,0
92101,-58.8235294117647,4,1,1,100,0,0
92129,-131.578947368421,4,1,1,100,0,0
92212,-100,4,1,1,100,0,0
92546,-71.4285714285714,4,1,1,100,0,0
92657,-166.666666666667,4,1,1,100,0,0
92768,-100,4,1,1,100,0,0
92990,-58.8235294117647,4,1,1,100,0,0
93018,-131.578947368421,4,1,1,100,0,0
93101,-100,4,1,1,100,0,0
93213,-71.4285714285714,4,1,1,100,0,0
93324,-166.666666666667,4,1,1,100,0,0
93435,-100,4,1,1,100,0,0
93879,-58.8235294117647,4,1,1,100,0,0
93907,-131.578947368421,4,1,1,100,0,0
93990,-100,4,1,1,100,0,0
94101,-71.4285714285714,4,1,1,100,0,0
94212,-166.666666666667,4,1,1,100,0,0
94324,-71.4285714285714,4,1,1,100,0,0
94435,-166.666666666667,4,1,1,100,0,0
94546,-100,4,1,1,100,0,0
94768,-58.8235294117647,4,1,1,100,0,0
94796,-131.578947368421,4,1,1,100,0,0
94879,-100,4,1,1,100,0,0
94990,-71.4285714285714,4,1,1,100,0,0
95101,-166.666666666667,4,1,1,100,0,0
95212,-100,4,1,1,100,0,0
95657,-58.8235294117647,4,1,1,100,0,0
95685,-131.578947368421,4,1,1,100,0,0
95768,-100,4,1,1,100,0,0
96101,-71.4285714285714,4,1,1,100,0,0
96212,-166.666666666667,4,1,1,100,0,0
96323,-100,4,1,1,100,0,0
96546,-58.8235294117647,4,1,1,100,0,0
96574,-131.578947368421,4,1,1,100,0,0
96657,-100,4,1,1,100,0,0
96768,-71.4285714285714,4,1,1,100,0,0
96879,-166.666666666667,4,1,1,100,0,0
96990,-100,4,1,1,100,0,0
97435,-58.8235294117647,4,1,1,100,0,0
97463,-131.578947368421,4,1,1,100,0,0
97546,-100,4,1,1,100,0,0
97657,-71.4285714285714,4,1,1,100,0,0
97768,-166.666666666667,4,1,1,100,0,0
97879,-71.4285714285714,4,1,1,100,0,0
97990,-166.666666666667,4,1,1,100,0,0
98101,-100,4,1,1,100,0,0
98324,-58.8235294117647,4,1,1,100,0,0
98352,-131.578947368421,4,1,1,100,0,0
98435,-100,4,1,1,100,0,0
98546,-71.4285714285714,4,1,1,100,0,0
98657,-166.666666666667,4,1,1,100,0,0
98768,-100,4,1,1,100,0,0
99213,-58.8235294117647,4,1,1,100,0,0
99241,-131.578947368421,4,1,1,100,0,0
99324,-100,4,1,1,100,0,0
99657,-71.4285714285714,4,1,1,100,0,0
99768,-166.666666666667,4,1,1,100,0,0
99879,-100,4,1,1,100,0,0
100101,-58.8235294117647,4,1,1,100,0,0
100129,-131.578947368421,4,1,1,100,0,0
100212,-100,4,1,1,100,0,0
100323,-71.4285714285714,4,1,1,100,0,0
100434,-166.666666666667,4,1,1,100,0,0
100545,-50,4,1,1,100,0,0
100657,-200,4,1,1,100,0,0
100879,-100,4,1,1,100,0,0
100990,-58.8235294117647,4,1,1,100,0,0
101018,-131.578947368421,4,1,1,100,0,0
101101,-100,4,1,1,100,0,0
101212,-71.4285714285714,4,1,1,100,0,0
101323,-166.666666666667,4,1,1,100,0,0
101435,-71.4285714285714,4,1,1,100,0,0
101546,-166.666666666667,4,1,1,100,0,0
101657,-100,4,1,1,100,0,0
101879,-58.8235294117647,4,1,1,100,0,0
101907,-131.578947368421,4,1,1,100,0,0
101990,-100,4,1,1,100,0,0
102101,-71.4285714285714,4,1,1,100,0,0
102212,-166.666666666667,4,1,1,100,0,0
102323,-100,4,1,1,100,0,0
102768,-58.8235294117647,4,1,1,100,0,0
102796,-131.578947368421,4,1,1,100,0,0
102879,-100,4,1,1,100,0,0
103212,-71.4285714285714,4,1,1,100,0,0
103323,-166.666666666667,4,1,1,100,0,0
103434,-100,4,1,1,100,0,0
103657,-58.8235294117647,4,1,1,100,0,0
103685,-131.578947368421,4,1,1,100,0,0
103768,-100,4,1,1,100,0,0
103879,-71.4285714285714,4,1,1,100,0,0
103990,-166.666666666667,4,1,1,100,0,0
104101,-50,4,1,1,100,0,0
104213,-200,4,1,1,100,0,0
104435,-100,4,1,1,100,0,0
104546,-58.8235294117647,4,1,1,100,0,0
104574,-131.578947368421,4,1,1,100,0,0
104657,-100,4,1,1,100,0,0
104768,-71.4285714285714,4,1,1,100,0,0
104879,-166.666666666667,4,1,1,100,0,0
104990,-71.4285714285714,4,1,1,100,0,0
105101,-166.666666666667,4,1,1,100,0,0
105212,-100,4,1,1,100,0,0
105435,-58.8235294117647,4,1,1,100,0,0
105463,-131.578947368421,4,1,1,100,0,0
105546,-100,4,1,1,100,0,0
105657,-71.4285714285714,4,1,1,100,0,0
105768,-166.666666666667,4,1,1,100,0,0
105879,-100,4,1,1,100,0,0
106323,-58.8235294117647,4,1,1,100,0,0
106351,-131.578947368421,4,1,1,100,0,0
106434,-100,4,1,1,100,0,0
106768,-71.4285714285714,4,1,1,100,0,0
106879,-166.666666666667,4,1,1,100,0,0
106990,-100,4,1,1,100,0,0
107212,-58.8235294117647,4,1,1,100,0,0
107240,-131.578947368421,4,1,1,100,0,0
107323,-100,4,1,1,100,0,0
107435,-71.4285714285714,4,1,1,100,0,0
107546,-166.666666666667,4,1,1,100,0,0
107657,-50,4,1,1,100,0,0
107769,-200,4,1,1,100,0,0
107991,-100,4,1,1,100,0,0
108101,-58.8235294117647,4,1,1,100,0,0
108129,-131.578947368421,4,1,1,100,0,0
108212,-100,4,1,1,100,0,0
108323,-71.4285714285714,4,1,1,100,0,0
108434,-166.666666666667,4,1,1,100,0,0
108546,-71.4285714285714,4,1,1,100,0,0
108657,-166.666666666667,4,1,1,100,0,0
108768,-100,4,1,1,100,0,0
108990,-58.8235294117647,4,1,1,100,0,0
109018,-131.578947368421,4,1,1,100,0,0
109101,-100,4,1,1,100,0,0
109212,-71.4285714285714,4,1,1,100,0,0
109323,-166.666666666667,4,1,1,100,0,0
109434,-100,4,1,1,100,0,0
109879,-58.8235294117647,4,1,1,100,0,0
109907,-131.578947368421,4,1,1,100,0,0
109990,-100,4,1,1,100,0,0
110323,-71.4285714285714,4,1,1,100,0,0
110434,-166.666666666667,4,1,1,100,0,0
110545,-100,4,1,1,100,0,0
110768,-58.8235294117647,4,1,1,100,0,0
110796,-131.578947368421,4,1,1,100,0,0
110879,-100,4,1,1,100,0,0
110990,-71.4285714285714,4,1,1,100,0,0
111101,-166.666666666667,4,1,1,100,0,0
111213,-50,4,1,1,100,0,0
111325,-200,4,1,1,100,0,0
111547,-100,4,1,1,100,0,0
111657,-58.8235294117647,4,1,1,100,0,0
111685,-131.578947368421,4,1,1,100,0,0
111768,-100,4,1,1,100,0,0
111879,-71.4285714285714,4,1,1,100,0,0
111990,-166.666666666667,4,1,1,100,0,0
112101,-71.4285714285714,4,1,1,100,0,0
112212,-166.666666666667,4,1,1,100,0,0
112323,-100,4,1,1,100,0,0
112546,-58.8235294117647,4,1,1,100,0,0
112574,-131.578947368421,4,1,1,100,0,0
112657,-100,4,1,1,100,0,0
112768,-71.4285714285714,4,1,1,100,0,0
112879,-166.666666666667,4,1,1,100,0,0
112990,-100,4,1,1,100,0,0
113879,-50,4,1,1,100,0,0
113953,-200,4,1,1,100,0,0
114101,-100,4,1,1,100,0,0
114768,-58.8235294117647,4,1,1,100,0,0
114796,-131.578947368421,4,1,1,100,0,0
114879,-100,4,1,1,100,0,0
116546,-58.8235294117647,4,1,1,100,0,0
116574,-131.578947368421,4,1,1,100,0,0
116657,-100,4,1,1,100,0,0
118324,-58.8235294117647,4,1,1,100,0,0
118352,-131.578947368421,4,1,1,100,0,0
118435,-100,4,1,1,100,0,0
120101,-58.8235294117647,4,1,1,100,0,0
120129,-131.578947368421,4,1,1,100,0,0
120212,-100,4,1,1,100,0,0
121879,-58.8235294117647,4,1,1,100,0,0
121907,-131.578947368421,4,1,1,100,0,0
121990,-100,4,1,1,100,0,0
123657,-58.8235294117647,4,1,1,100,0,0
123685,-131.578947368421,4,1,1,100,0,0
123768,-100,4,1,1,100,0,0
124546,-58.8235294117647,4,1,1,100,0,0
124574,-131.578947368421,4,1,1,100,0,0
124657,-100,4,1,1,100,0,0
125435,-58.8235294117647,4,1,1,100,0,0
125463,-131.578947368421,4,1,1,100,0,0
125546,-100,4,1,1,100,0,0
126324,-58.8235294117647,4,1,1,100,0,0
126352,-131.578947368421,4,1,1,100,0,0
126435,-100,4,1,1,100,0,0
128101,-117.647058823529,4,1,1,100,0,0
128990,-50,4,1,1,100,0,0
129101,-100,4,1,1,100,0,0
129434,-83.3333333333333,4,1,1,100,0,0
129490,-125,4,1,1,100,0,0
129545,-83.3333333333333,4,1,1,100,0,0
129601,-125,4,1,1,100,0,0
129656,-83.3333333333333,4,1,1,100,0,0
129712,-125,4,1,1,100,0,0
129767,-83.3333333333333,4,1,1,100,0,0
129823,-125,4,1,1,100,0,0
129878,-83.3333333333333,4,1,1,100,0,0
129934,-125,4,1,1,100,0,0
129990,-83.3333333333333,4,1,1,100,0,0
130046,-125,4,1,1,100,0,0
130101,-83.3333333333333,4,1,1,100,0,0
130157,-125,4,1,1,100,0,0
130212,-83.3333333333333,4,1,1,100,0,0
130268,-125,4,1,1,100,0,0
130323,-71.4285714285714,4,1,1,100,0,0
130434,-166.666666666667,4,1,1,100,0,0
130545,-100,4,1,1,100,0,0
130767,-50,4,1,1,100,0,0
130878,-100,4,1,1,100,0,0
131434,-71.4285714285714,4,1,1,100,0,0
131545,-166.666666666667,4,1,1,100,0,0
131656,-83.3333333333333,4,1,1,100,0,0
131712,-125,4,1,1,100,0,0
131767,-83.3333333333333,4,1,1,100,0,0
131823,-125,4,1,1,100,0,0
131878,-83.3333333333333,4,1,1,100,0,0
131934,-125,4,1,1,100,0,0
131989,-83.3333333333333,4,1,1,100,0,0
132045,-125,4,1,1,100,0,0
132101,-95.2380952380952,4,1,1,100,0,0
132545,-50,4,1,1,100,0,0
132656,-100,4,1,1,100,0,0
133212,-95.2380952380952,4,1,1,100,0,0
133434,-71.4285714285714,4,1,1,100,0,0
133545,-166.666666666667,4,1,1,100,0,0
133656,-83.3333333333333,4,1,1,100,0,0
133712,-125,4,1,1,100,0,0
133767,-83.3333333333333,4,1,1,100,0,0
133823,-125,4,1,1,100,0,0
133878,-83.3333333333333,4,1,1,100,0,0
133934,-125,4,1,1,100,0,0
133989,-83.3333333333333,4,1,1,100,0,0
134045,-125,4,1,1,100,0,0
134101,-83.3333333333333,4,1,1,100,0,0
134157,-125,4,1,1,100,0,0
134212,-83.3333333333333,4,1,1,100,0,0
134268,-125,4,1,1,100,0,0
134323,-66.6666666666667,4,1,1,100,0,0
134434,-100,4,1,1,100,0,0
134767,-95.2380952380952,4,1,1,100,0,0
135212,-111.111111111111,4,1,1,100,0,0
136101,-76.9230769230769,4,1,1,100,0,0
136157,-125,4,1,1,100,0,0
136212,-83.3333333333333,4,1,1,100,0,0
136268,-125,4,1,1,100,0,0
136323,-83.3333333333333,4,1,1,100,0,0
136379,-125,4,1,1,100,0,0
136434,-83.3333333333333,4,1,1,100,0,0
136490,-125,4,1,1,100,0,0
136545,-83.3333333333333,4,1,1,100,0,0
136601,-100,4,1,1,100,0,0
136767,-71.4285714285714,4,1,1,100,0,0
136823,-166.666666666667,4,1,1,100,0,0
136878,-100,4,1,1,100,0,0
136990,-83.3333333333333,4,1,1,100,0,0
137046,-125,4,1,1,100,0,0
137101,-83.3333333333333,4,1,1,100,0,0
137157,-125,4,1,1,100,0,0
137212,-83.3333333333333,4,1,1,100,0,0
137268,-125,4,1,1,100,0,0
137323,-83.3333333333333,4,1,1,100,0,0
137379,-125,4,1,1,100,0,0
137434,-50,4,1,1,100,0,0
137490,-100,4,1,1,100,0,0
137878,-66.6666666666667,4,1,1,100,0,0
137934,-100,4,1,1,100,0,0
138323,-66.6666666666667,4,1,1,100,0,0
138378,-100,4,1,1,100,0,0
138767,-66.6666666666667,4,1,1,100,0,0
138823,-100,4,1,1,100,0,0
138990,-71.4285714285714,4,1,1,100,0,0
139045,-166.666666666667,4,1,1,100,0,0
139101,-100,4,1,1,100,0,0
139212,-83.3333333333333,4,1,1,100,0,0
139268,-125,4,1,1,100,0,0
139323,-83.3333333333333,4,1,1,100,0,0
139379,-125,4,1,1,100,0,0
139434,-83.3333333333333,4,1,1,100,0,0
139490,-125,4,1,1,100,0,0
139545,-83.3333333333333,4,1,1,100,0,0
139601,-125,4,1,1,100,0,0
139656,-83.3333333333333,4,1,1,100,0,0
139712,-125,4,1,1,100,0,0
139767,-83.3333333333333,4,1,1,100,0,0
139823,-125,4,1,1,100,0,0
139878,-83.3333333333333,4,1,1,100,0,0
139934,-125,4,1,1,100,0,0
139989,-83.3333333333333,4,1,1,100,0,0
140045,-125,4,1,1,100,0,0
140101,-66.6666666666667,4,1,1,100,0,0
140156,-100,4,1,1,100,0,0
140323,-71.4285714285714,4,1,1,100,0,0
140378,-166.666666666667,4,1,1,100,0,0
140434,-100,4,1,1,100,0,0
140545,-83.3333333333333,4,1,1,100,0,0
140601,-125,4,1,1,100,0,0
140656,-83.3333333333333,4,1,1,100,0,0
140712,-125,4,1,1,100,0,0
140767,-83.3333333333333,4,1,1,100,0,0
140823,-125,4,1,1,100,0,0
140878,-83.3333333333333,4,1,1,100,0,0
140934,-125,4,1,1,100,0,0
140990,-50,4,1,1,100,0,0
141101,-100,4,1,1,100,0,0
142323,-33.3333333333333,4,1,1,100,0,0
142350,-125,4,1,1,100,0,0
142989,-111.111111111111,4,1,1,100,0,0
143212,-50,4,1,1,100,0,0
143323,-100,4,1,1,100,0,0
143656,-83.3333333333333,4,1,1,100,0,0
143712,-125,4,1,1,100,0,0
143767,-83.3333333333333,4,1,1,100,0,0
143823,-125,4,1,1,100,0,0
143878,-83.3333333333333,4,1,1,100,0,0
143934,-125,4,1,1,100,0,0
143989,-83.3333333333333,4,1,1,100,0,0
144045,-125,4,1,1,100,0,0
144100,-83.3333333333333,4,1,1,100,0,0
144156,-125,4,1,1,100,0,0
144212,-83.3333333333333,4,1,1,100,0,0
144268,-125,4,1,1,100,0,0
144323,-83.3333333333333,4,1,1,100,0,0
144379,-125,4,1,1,100,0,0
144434,-83.3333333333333,4,1,1,100,0,0
144490,-125,4,1,1,100,0,0
144545,-71.4285714285714,4,1,1,100,0,0
144656,-166.666666666667,4,1,1,100,0,0
144767,-100,4,1,1,100,0,0
144989,-50,4,1,1,100,0,0
145100,-100,4,1,1,100,0,0
145656,-71.4285714285714,4,1,1,100,0,0
145767,-166.666666666667,4,1,1,100,0,0
145878,-83.3333333333333,4,1,1,100,0,0
145934,-125,4,1,1,100,0,0
145989,-83.3333333333333,4,1,1,100,0,0
146045,-125,4,1,1,100,0,0
146100,-83.3333333333333,4,1,1,100,0,0
146156,-125,4,1,1,100,0,0
146211,-83.3333333333333,4,1,1,100,0,0
146267,-125,4,1,1,100,0,0
146323,-95.2380952380952,4,1,1,100,0,0
146767,-50,4,1,1,100,0,0
146878,-100,4,1,1,100,0,0
147434,-95.2380952380952,4,1,1,100,0,0
147656,-71.4285714285714,4,1,1,100,0,0
147767,-166.666666666667,4,1,1,100,0,0
147878,-83.3333333333333,4,1,1,100,0,0
147934,-125,4,1,1,100,0,0
147989,-83.3333333333333,4,1,1,100,0,0
148045,-125,4,1,1,100,0,0
148100,-83.3333333333333,4,1,1,100,0,0
148156,-125,4,1,1,100,0,0
148211,-83.3333333333333,4,1,1,100,0,0
148267,-125,4,1,1,100,0,0
148323,-83.3333333333333,4,1,1,100,0,0
148379,-125,4,1,1,100,0,0
148434,-83.3333333333333,4,1,1,100,0,0
148490,-125,4,1,1,100,0,0
148545,-66.6666666666667,4,1,1,100,0,0
148656,-100,4,1,1,100,0,0
148989,-95.2380952380952,4,1,1,100,0,0
149434,-111.111111111111,4,1,1,100,0,0
150101,-62.5,4,1,1,100,0,0
150156,-250,4,1,1,100,0,0
150212,-100,4,1,1,100,0,0
150323,-76.9230769230769,4,1,1,100,0,0
150379,-125,4,1,1,100,0,0
150434,-83.3333333333333,4,1,1,100,0,0
150490,-125,4,1,1,100,0,0
150545,-83.3333333333333,4,1,1,100,0,0
150601,-125,4,1,1,100,0,0
150656,-83.3333333333333,4,1,1,100,0,0
150712,-125,4,1,1,100,0,0
150767,-83.3333333333333,4,1,1,100,0,0
150823,-100,4,1,1,100,0,0
150989,-71.4285714285714,4,1,1,100,0,0
151045,-166.666666666667,4,1,1,100,0,0
151100,-100,4,1,1,100,0,0
151212,-83.3333333333333,4,1,1,100,0,0
151268,-125,4,1,1,100,0,0
151323,-83.3333333333333,4,1,1,100,0,0
151379,-125,4,1,1,100,0,0
151434,-83.3333333333333,4,1,1,100,0,0
151490,-125,4,1,1,100,0,0
151545,-83.3333333333333,4,1,1,100,0,0
151601,-125,4,1,1,100,0,0
151656,-50,4,1,1,100,0,0
151712,-100,4,1,1,100,0,0
152100,-66.6666666666667,4,1,1,100,0,0
152156,-100,4,1,1,100,0,0
152545,-66.6666666666667,4,1,1,100,0,0
152600,-100,4,1,1,100,0,0
152989,-66.6666666666667,4,1,1,100,0,0
153045,-100,4,1,1,100,0,0
153212,-71.4285714285714,4,1,1,100,0,0
153267,-166.666666666667,4,1,1,100,0,0
153323,-100,4,1,1,100,0,0
153434,-83.3333333333333,4,1,1,100,0,0
153490,-125,4,1,1,100,0,0
153545,-83.3333333333333,4,1,1,100,0,0
153601,-125,4,1,1,100,0,0
153656,-83.3333333333333,4,1,1,100,0,0
153712,-125,4,1,1,100,0,0
153767,-83.3333333333333,4,1,1,100,0,0
153823,-125,4,1,1,100,0,0
153878,-83.3333333333333,4,1,1,100,0,0
153934,-125,4,1,1,100,0,0
153989,-83.3333333333333,4,1,1,100,0,0
154045,-125,4,1,1,100,0,0
154100,-83.3333333333333,4,1,1,100,0,0
154156,-125,4,1,1,100,0,0
154211,-83.3333333333333,4,1,1,100,0,0
154267,-125,4,1,1,100,0,0
154323,-66.6666666666667,4,1,1,100,0,0
154378,-100,4,1,1,100,0,0
154545,-71.4285714285714,4,1,1,100,0,0
154600,-166.666666666667,4,1,1,100,0,0
154656,-100,4,1,1,100,0,0
154767,-83.3333333333333,4,1,1,100,0,0
154823,-125,4,1,1,100,0,0
154878,-83.3333333333333,4,1,1,100,0,0
154934,-125,4,1,1,100,0,0
154989,-83.3333333333333,4,1,1,100,0,0
155045,-125,4,1,1,100,0,0
155100,-83.3333333333333,4,1,1,100,0,0
155156,-125,4,1,1,100,0,0
155212,-50,4,1,1,100,0,0
155323,-100,4,1,1,100,0,0
156546,-117.647058823529,4,1,1,100,0,0
170472,-119.047619047619,4,1,1,100,0,0
170546,-120.481927710843,4,1,1,100,0,0
170620,-121.951219512195,4,1,1,100,0,0
170694,-123.456790123457,4,1,1,100,0,0
170768,-125,4,1,1,100,0,0

[HitObjects]
64,192,102,5,4,0:0:0:0:
192,192,102,1,0,0:0:0:0:
320,192,435,1,0,0:0:0:0:
192,192,546,1,0,0:0:0:0:
448,192,990,1,8,0:0:0:0:
320,192,1101,1,0,0:0:0:0:
448,192,1324,1,0,0:0:0:0:
192,192,1435,1,4,0:0:0:0:
64,192,1435,1,0,0:0:0:0:
64,192,1879,1,0,0:0:0:0:
320,192,2101,1,4,0:0:0:0:
448,192,2101,1,0,0:0:0:0:
64,192,2324,1,4,0:0:0:0:
192,192,2324,1,0,0:0:0:0:
448,192,2768,1,8,0:0:0:0:
320,192,2879,1,0,0:0:0:0:
192,192,3101,1,0,0:0:0:0:
320,192,3213,1,0,0:0:0:0:
64,192,3435,1,4,0:0:0:0:
192,192,3435,1,0,0:0:0:0:
320,192,3657,1,4,0:0:0:0:
448,192,3657,1,0,0:0:0:0:
192,192,3990,1,0,0:0:0:0:
320,192,4101,1,0,0:0:0:0:
448,192,4546,1,8,0:0:0:0:
192,192,4657,1,0,0:0:0:0:
320,192,4879,1,0,0:0:0:0:
192,192,4990,1,0,0:0:0:0:
64,192,5435,1,4,0:0:0:0:
192,192,5435,1,0,0:0:0:0:
448,192,5657,1,0,0:0:0:0:
320,192,5768,1,0,0:0:0:0:
192,192,5879,1,4,0:0:0:0:
64,192,5879,1,0,0:0:0:0:
448,192,6324,1,8,0:0:0:0:
192,192,6435,1,0,0:0:0:0:
320,192,6657,1,0,0:0:0:0:
192,192,6768,1,0,0:0:0:0:
64,192,7213,1,4,0:0:0:0:
192,192,7213,1,0,0:0:0:0:
320,192,7546,1,0,0:0:0:0:
192,192,7657,1,0,0:0:0:0:
448,192,8101,1,8,0:0:0:0:
320,192,8213,1,0,0:0:0:0:
448,192,8435,1,0,0:0:0:0:
64,192,8546,1,4,0:0:0:0:
192,192,8546,1,0,0:0:0:0:
192,192,8990,1,0,0:0:0:0:
320,192,9213,1,4,0:0:0:0:
448,192,9213,1,0,0:0:0:0:
192,192,9435,1,4,0:0:0:0:
64,192,9435,1,0,0:0:0:0:
448,192,9879,1,8,0:0:0:0:
320,192,9990,1,0,0:0:0:0:
192,192,10213,1,0,0:0:0:0:
320,192,10324,1,0,0:0:0:0:
64,192,10546,1,4,0:0:0:0:
192,192,10546,1,0,0:0:0:0:
320,192,10768,1,4,0:0:0:0:
448,192,10768,1,0,0:0:0:0:
192,192,11101,1,0,0:0:0:0:
320,192,11213,1,0,0:0:0:0:
448,192,11657,1,8,0:0:0:0:
192,192,11768,1,0,0:0:0:0:
320,192,11990,1,0,0:0:0:0:
192,192,12101,1,0,0:0:0:0:
448,192,12546,1,0,0:0:0:0:
320,192,12620,1,0,0:0:0:0:
192,192,12694,1,0,0:0:0:0:
448,192,12842,1,0,0:0:0:0:
320,192,12990,1,0,0:0:0:0:
192,192,13139,1,0,0:0:0:0:
64,192,13287,1,0,0:0:0:0:
448,192,13435,1,0,0:0:0:0:
320,192,13583,1,0,0:0:0:0:
192,192,13731,1,0,0:0:0:0:
64,192,13879,128,0,14324:0:0:0:0:
448,192,14324,128,0,14990:0:0:0:0:
320,192,14990,128,0,15213:0:0:0:0:
192,192,15213,128,8,15657:0:0:0:0:
64,192,15213,1,0,0:0:0:0:
320,192,15657,1,4,0:0:0:0:
64,192,15768,1,0,0:0:0:0:
192,192,15879,1,0,0:0:0:0:
320,192,15990,1,0,0:0:0:0:
448,192,16101,1,0,0:0:0:0:
320,192,16213,1,0,0:0:0:0:
64,192,16324,1,4,0:0:0:0:
192,192,16324,1,0,0:0:0:0:
448,192,16435,1,0,0:0:0:0:
64,192,16546,1,4,0:0:0:0:
192,192,16546,1,0,0:0:0:0:
448,192,16990,1,8,0:0:0:0:
64,192,16990,128,4,17435:0:0:0:0:
320,192,17657,1,4,0:0:0:0:
448,192,17657,1,0,0:0:0:0:
64,192,17879,1,4,0:0:0:0:
192,192,17879,1,0,0:0:0:0:
320,192,17990,1,0,0:0:0:0:
448,192,18101,1,0,0:0:0:0:
64,192,18213,1,0,0:0:0:0:
192,192,18324,128,0,18768:0:0:0:0:
448,192,18768,1,8,0:0:0:0:
64,192,18768,1,0,0:0:0:0:
448,192,19435,128,0,19657:0:0:0:0:
64,192,19657,1,4,0:0:0:0:
192,192,19657,1,0,0:0:0:0:
192,192,19879,1,0,0:0:0:0:
448,192,19990,1,0,0:0:0:0:
64,192,20101,1,4,0:0:0:0:
192,192,20101,1,0,0:0:0:0:
448,192,20213,1,0,0:0:0:0:
192,192,20324,1,0,0:0:0:0:
448,192,20435,1,0,0:0:0:0:
192,192,20546,1,8,0:0:0:0:
320,192,20546,1,4,0:0:0:0:
64,192,20768,1,0,0:0:0:0:
192,192,20879,1,0,0:0:0:0:
448,192,20990,128,0,21435:0:0:0:0:
64,192,21435,128,0,21657:0:0:0:0:
448,192,21657,1,4,0:0:0:0:
320,192,21879,1,4,0:0:0:0:
192,192,22101,1,4,0:0:0:0:
320,192,22324,1,8,0:0:0:0:
448,192,22324,1,4,0:0:0:0:
192,192,22435,1,0,0:0:0:0:
64,192,22546,1,0,0:0:0:0:
320,192,22657,1,0,0:0:0:0:
448,192,22768,1,8,0:0:0:0:
192,192,22990,1,4,0:0:0:0:
64,192,22990,1,0,0:0:0:0:
448,192,23213,1,8,0:0:0:0:
192,192,23324,1,0,0:0:0:0:
448,192,23435,1,0,0:0:0:0:
192,192,23546,1,0,0:0:0:0:
64,192,23657,1,4,0:0:0:0:
448,192,23657,1,8,0:0:0:0:
64,192,24101,128,8,24324:0:0:0:0:
448,192,24101,1,0,0:0:0:0:
192,192,24324,1,4,0:0:0:0:
320,192,24435,1,0,0:0:0:0:
64,192,24546,1,4,0:0:0:0:
448,192,24546,1,8,0:0:0:0:
320,192,24768,1,0,0:0:0:0:
448,192,24990,1,8,0:0:0:0:
192,192,25213,1,4,0:0:0:0:
320,192,25213,1,0,0:0:0:0:
64,192,25435,1,4,0:0:0:0:
448,192,25435,1,8,0:0:0:0:
192,192,25546,1,0,0:0:0:0:
448,192,25657,1,4,0:0:0:0:
320,192,25657,1,0,0:0:0:0:
192,192,25768,1,0,0:0:0:0:
64,192,25879,1,4,0:0:0:0:
448,192,25879,1,8,0:0:0:0:
320,192,25990,1,0,0:0:0:0:
192,192,26101,1,0,0:0:0:0:
320,192,26213,1,0,0:0:0:0:
448,192,26324,1,8,0:0:0:0:
320,192,26546,1,4,0:0:0:0:
192,192,26546,1,0,0:0:0:0:
448,192,26768,1,8,0:0:0:0:
64,192,26879,1,0,0:0:0:0:
448,192,26990,1,0,0:0:0:0:
64,192,27101,1,0,0:0:0:0:
192,192,27213,1,8,0:0:0:0:
448,192,27213,1,4,0:0:0:0:
448,192,27657,1,0,0:0:0:0:
192,192,27768,1,0,0:0:0:0:
320,192,27879,1,0,0:0:0:0:
64,192,27990,1,0,0:0:0:0:
448,192,28101,1,0,0:0:0:0:
64,192,28250,1,0,0:0:0:0:
448,192,28398,1,0,0:0:0:0:
320,192,28546,128,0,29213:0:0:0:0:
192,192,29213,128,0,29435:0:0:0:0:
64,192,29435,128,8,29879:0:0:0:0:
448,192,29435,1,0,0:0:0:0:
192,192,29879,1,4,0:0:0:0:
448,192,29990,1,0,0:0:0:0:
320,192,30101,1,0,0:0:0:0:
192,192,30213,1,0,0:0:0:0:
64,192,30324,1,0,0:0:0:0:
192,192,30435,1,0,0:0:0:0:
320,192,30546,1,4,0:0:0:0:
448,192,30546,1,0,0:0:0:0:
64,192,30657,1,0,0:0:0:0:
320,192,30768,1,4,0:0:0:0:
448,192,30768,1,0,0:0:0:0:
448,192,31213,128,8,31657:0:0:0:0:
64,192,31213,1,4,0:0:0:0:
64,192,31879,1,4,0:0:0:0:
192,192,31879,1,0,0:0:0:0:
320,192,32101,1,4,0:0:0:0:
448,192,32101,1,0,0:0:0:0:
192,192,32213,1,0,0:0:0:0:
64,192,32324,1,0,0:0:0:0:
320,192,32435,1,0,0:0:0:0:
192,192,32546,128,0,32990:0:0:0:0:
448,192,32990,1,8,0:0:0:0:
64,192,32990,1,4,0:0:0:0:
64,192,33657,128,0,33879:0:0:0:0:
320,192,33879,1,4,0:0:0:0:
448,192,33879,1,0,0:0:0:0:
320,192,34101,1,0,0:0:0:0:
192,192,34213,1,0,0:0:0:0:
448,192,34324,1,4,0:0:0:0:
320,192,34324,1,0,0:0:0:0:
192,192,34435,1,0,0:0:0:0:
320,192,34546,1,0,0:0:0:0:
192,192,34657,1,0,0:0:0:0:
64,192,34768,1,8,0:0:0:0:
320,192,34768,1,4,0:0:0:0:
64,192,34990,1,0,0:0:0:0:
192,192,35101,1,0,0:0:0:0:
320,192,35213,128,0,35657:0:0:0:0:
64,192,35657,128,0,35879:0:0:0:0:
320,192,35879,1,0,0:0:0:0:
448,192,35990,1,0,0:0:0:0:
192,192,36101,1,0,0:0:0:0:
64,192,36213,1,0,0:0:0:0:
448,192,36324,1,8,0:0:0:0:
192,192,36546,1,8,0:0:0:0:
64,192,36546,1,4,0:0:0:0:
320,192,36657,1,0,0:0:0:0:
448,192,36768,1,0,0:0:0:0:
192,192,36879,1,0,0:0:0:0:
64,192,36990,1,8,0:0:0:0:
320,192,37213,1,4,0:0:0:0:
448,192,37213,1,0,0:0:0:0:
64,192,37435,1,8,0:0:0:0:
320,192,37546,1,0,0:0:0:0:
64,192,37657,1,0,0:0:0:0:
320,192,37768,1,0,0:0:0:0:
448,192,37879,1,8,0:0:0:0:
64,192,37879,1,0,0:0:0:0:
320,192,38101,128,0,38324:0:0:0:0:
448,192,38324,1,8,0:0:0:0:
64,192,38324,1,0,0:0:0:0:
192,192,38546,1,4,0:0:0:0:
320,192,38546,1,0,0:0:0:0:
448,192,38768,1,4,0:0:0:0:
64,192,38768,1,0,0:0:0:0:
320,192,38990,1,0,0:0:0:0:
64,192,39213,1,8,0:0:0:0:
320,192,39435,1,4,0:0:0:0:
448,192,39435,1,0,0:0:0:0:
448,192,39657,1,8,0:0:0:0:
64,192,39657,1,4,0:0:0:0:
320,192,39768,1,0,0:0:0:0:
192,192,39879,1,4,0:0:0:0:
64,192,39879,1,0,0:0:0:0:
320,192,39990,1,0,0:0:0:0:
448,192,40101,1,8,0:0:0:0:
64,192,40101,1,4,0:0:0:0:
192,192,40213,1,0,0:0:0:0:
320,192,40324,1,0,0:0:0:0:
448,192,40435,1,0,0:0:0:0:
64,192,40546,1,8,0:0:0:0:
192,192,40768,1,4,0:0:0:0:
64,192,40990,1,8,0:0:0:0:
448,192,41101,1,0,0:0:0:0:
64,192,41213,1,0,0:0:0:0:
448,192,41324,1,0,0:0:0:0:
320,192,41435,1,8,0:0:0:0:
64,192,41435,1,4,0:0:0:0:
64,192,41879,1,8,0:0:0:0:
320,192,41990,1,0,0:0:0:0:
192,192,42101,1,0,0:0:0:0:
448,192,42213,1,0,0:0:0:0:
320,192,42324,128,0,42768:0:0:0:0:
64,192,42768,1,4,0:0:0:0:
192,192,42768,1,0,0:0:0:0:
64,192,43101,1,4,0:0:0:0:
448,192,43213,1,0,0:0:0:0:
192,192,43435,1,0,0:0:0:0:
448,192,43657,1,0,0:0:0:0:
192,192,43879,1,0,0:0:0:0:
448,192,44101,1,0,0:0:0:0:
192,192,44324,1,0,0:0:0:0:
320,192,44546,1,4,0:0:0:0:
448,192,44546,1,0,0:0:0:0:
448,192,44879,1,4,0:0:0:0:
64,192,44990,1,0,0:0:0:0:
320,192,45213,1,0,0:0:0:0:
64,192,45435,1,0,0:0:0:0:
192,192,45657,1,0,0:0:0:0:
320,192,45879,1,0,0:0:0:0:
64,192,46101,1,0,0:0:0:0:
448,192,46324,1,4,0:0:0:0:
192,192,46324,1,0,0:0:0:0:
64,192,46657,1,4,0:0:0:0:
320,192,46768,1,0,0:0:0:0:
192,192,46990,1,0,0:0:0:0:
320,192,47213,1,0,0:0:0:0:
192,192,47435,1,0,0:0:0:0:
320,192,47657,1,0,0:0:0:0:
192,192,47879,1,0,0:0:0:0:
448,192,47990,1,4,0:0:0:0:
320,192,48101,1,4,0:0:0:0:
64,192,48101,1,0,0:0:0:0:
64,192,48324,1,4,0:0:0:0:
448,192,48435,1,4,0:0:0:0:
192,192,48546,1,0,0:0:0:0:
320,192,48768,1,0,0:0:0:0:
192,192,48990,1,0,0:0:0:0:
320,192,49213,1,0,0:0:0:0:
448,192,49435,1,0,0:0:0:0:
192,192,49657,1,0,0:0:0:0:
64,192,49879,1,4,0:0:0:0:
448,192,49879,1,0,0:0:0:0:
192,192,50213,1,4,0:0:0:0:
448,192,50324,1,0,0:0:0:0:
192,192,50546,1,0,0:0:0:0:
448,192,50768,1,0,0:0:0:0:
192,192,50990,1,0,0:0:0:0:
448,192,51213,1,0,0:0:0:0:
192,192,51435,1,0,0:0:0:0:
448,192,51657,1,4,0:0:0:0:
64,192,51657,1,0,0:0:0:0:
320,192,51990,1,4,0:0:0:0:
64,192,52101,1,0,0:0:0:0:
320,192,52324,1,0,0:0:0:0:
64,192,52546,1,0,0:0:0:0:
192,192,52768,1,0,0:0:0:0:
320,192,52990,1,0,0:0:0:0:
64,192,53213,1,0,0:0:0:0:
192,192,53435,1,4,0:0:0:0:
320,192,53435,1,0,0:0:0:0:
448,192,53768,1,4,0:0:0:0:
320,192,53879,1,0,0:0:0:0:
448,192,54101,1,0,0:0:0:0:
320,192,54324,1,0,0:0:0:0:
448,192,54546,1,0,0:0:0:0:
320,192,54768,1,0,0:0:0:0:
448,192,54990,1,0,0:0:0:0:
64,192,55101,1,4,0:0:0:0:
192,192,55213,1,4,0:0:0:0:
320,192,55213,1,0,0:0:0:0:
448,192,55435,1,4,0:0:0:0:
64,192,55546,1,4,0:0:0:0:
192,192,55657,1,0,0:0:0:0:
64,192,55879,1,0,0:0:0:0:
192,192,56101,1,0,0:0:0:0:
320,192,56324,1,0,0:0:0:0:
64,192,56546,1,0,0:0:0:0:
192,192,56768,1,0,0:0:0:0:
320,192,56990,1,4,0:0:0:0:
448,192,56990,1,0,0:0:0:0:
64,192,57213,1,0,0:0:0:0:
448,192,57324,1,4,0:0:0:0:
192,192,57435,1,0,0:0:0:0:
448,192,57657,1,4,0:0:0:0:
64,192,57879,1,4,0:0:0:0:
448,192,58101,1,0,0:0:0:0:
64,192,58213,1,4,0:0:0:0:
320,192,58324,1,0,0:0:0:0:
64,192,58546,1,4,0:0:0:0:
192,192,58768,1,4,0:0:0:0:
320,192,58768,1,0,0:0:0:0:
448,192,58990,1,0,0:0:0:0:
192,192,59101,1,4,0:0:0:0:
320,192,59213,1,0,0:0:0:0:
192,192,59435,1,4,0:0:0:0:
320,192,59657,1,4,0:0:0:0:
64,192,59879,1,0,0:0:0:0:
320,192,59990,1,0,0:0:0:0:
192,192,60101,1,0,0:0:0:0:
64,192,60213,1,0,0:0:0:0:
320,192,60324,1,4,0:0:0:0:
64,192,60546,1,4,0:0:0:0:
192,192,60546,1,0,0:0:0:0:
448,192,60768,1,0,0:0:0:0:
64,192,60879,1,4,0:0:0:0:
320,192,60990,1,0,0:0:0:0:
64,192,61213,1,4,0:0:0:0:
448,192,61435,1,4,0:0:0:0:
64,192,61657,1,0,0:0:0:0:
448,192,61768,1,4,0:0:0:0:
192,192,61879,1,0,0:0:0:0:
448,192,62101,1,4,0:0:0:0:
192,192,62213,1,4,0:0:0:0:
64,192,62324,1,4,0:0:0:0:
320,192,62324,1,0,0:0:0:0:
448,192,62546,1,4,0:0:0:0:
64,192,62657,1,4,0:0:0:0:
448,192,62768,1,0,0:0:0:0:
64,192,62990,1,4,0:0:0:0:
320,192,63213,1,4,0:0:0:0:
64,192,63435,1,0,0:0:0:0:
320,192,63546,1,0,0:0:0:0:
192,192,63657,1,0,0:0:0:0:
448,192,63768,1,0,0:0:0:0:
320,192,63879,1,4,0:0:0:0:
192,192,64101,1,0,0:0:0:0:
64,192,64101,1,4,0:0:0:0:
448,192,64324,1,0,0:0:0:0:
64,192,64435,1,4,0:0:0:0:
320,192,64546,1,0,0:0:0:0:
64,192,64768,1,4,0:0:0:0:
448,192,64990,1,4,0:0:0:0:
64,192,65213,1,0,0:0:0:0:
448,192,65324,1,4,0:0:0:0:
192,192,65435,1,0,0:0:0:0:
448,192,65657,1,4,0:0:0:0:
320,192,65879,1,4,0:0:0:0:
192,192,65879,1,0,0:0:0:0:
64,192,66101,1,0,0:0:0:0:
320,192,66213,1,4,0:0:0:0:
192,192,66324,1,0,0:0:0:0:
320,192,66546,1,4,0:0:0:0:
192,192,66768,1,4,0:0:0:0:
448,192,66990,1,0,0:0:0:0:
192,192,67101,1,0,0:0:0:0:
320,192,67213,1,0,0:0:0:0:
448,192,67324,1,0,0:0:0:0:
192,192,67435,1,4,0:0:0:0:
448,192,67657,1,4,0:0:0:0:
320,192,67657,1,0,0:0:0:0:
64,192,67879,1,0,0:0:0:0:
448,192,67990,1,4,0:0:0:0:
192,192,68101,1,0,0:0:0:0:
448,192,68324,1,4,0:0:0:0:
64,192,68546,1,4,0:0:0:0:
448,192,68768,1,0,0:0:0:0:
64,192,68879,1,4,0:0:0:0:
320,192,68990,1,0,0:0:0:0:
64,192,69213,1,4,0:0:0:0:
320,192,69324,1,4,0:0:0:0:
448,192,69435,1,4,0:0:0:0:
192,192,69435,1,0,0:0:0:0:
64,192,69657,1,4,0:0:0:0:
448,192,69768,1,0,0:0:0:0:
64,192,69879,1,0,0:0:0:0:
192,192,69990,1,0,0:0:0:0:
448,192,70101,1,4,0:0:0:0:
192,192,70324,1,4,0:0:0:0:
448,192,70546,1,0,0:0:0:0:
64,192,70657,1,0,0:0:0:0:
192,192,70768,1,0,0:0:0:0:
320,192,70879,1,0,0:0:0:0:
448,192,70990,1,0,0:0:0:0:
64,192,71213,1,4,0:0:0:0:
448,192,71213,1,8,0:0:0:0:
192,192,71213,1,0,0:0:0:0:
320,192,71435,1,0,0:0:0:0:
64,192,71546,1,4,0:0:0:0:
448,192,71657,1,0,0:0:0:0:
64,192,71879,1,4,0:0:0:0:
320,192,71990,1,0,0:0:0:0:
64,192,72101,1,0,0:0:0:0:
448,192,72213,1,0,0:0:0:0:
320,192,72324,1,0,0:0:0:0:
64,192,72435,1,4,0:0:0:0:
192,192,72546,1,0,0:0:0:0:
64,192,72768,1,4,0:0:0:0:
320,192,72879,1,0,0:0:0:0:
448,192,72990,1,4,0:0:0:0:
320,192,73213,1,0,0:0:0:0:
448,192,73324,1,4,0:0:0:0:
192,192,73435,1,0,0:0:0:0:
448,192,73657,1,0,0:0:0:0:
64,192,73657,128,0,73879:0:0:0:0:
448,192,73879,1,4,0:0:0:0:
192,192,73990,1,0,0:0:0:0:
320,192,74101,1,0,0:0:0:0:
448,192,74213,1,4,0:0:0:0:
64,192,74324,1,0,0:0:0:0:
448,192,74546,1,4,0:0:0:0:
64,192,74657,1,0,0:0:0:0:
320,192,74768,1,4,0:0:0:0:
192,192,74990,1,0,0:0:0:0:
320,192,75101,1,4,0:0:0:0:
64,192,75213,1,0,0:0:0:0:
320,192,75435,1,4,0:0:0:0:
192,192,75546,1,0,0:0:0:0:
320,192,75657,1,4,0:0:0:0:
192,192,75879,1,0,0:0:0:0:
320,192,75990,1,4,0:0:0:0:
64,192,76101,1,0,0:0:0:0:
320,192,76324,1,4,0:0:0:0:
448,192,76435,1,0,0:0:0:0:
192,192,76546,1,4,0:0:0:0:
64,192,76768,1,0,0:0:0:0:
192,192,76879,1,4,0:0:0:0:
320,192,76990,1,0,0:0:0:0:
192,192,77213,1,4,0:0:0:0:
448,192,77213,128,0,77435:0:0:0:0:
192,192,77435,1,4,0:0:0:0:
64,192,77657,1,0,0:0:0:0:
192,192,77768,1,4,0:0:0:0:
320,192,77879,1,0,0:0:0:0:
192,192,78101,1,4,0:0:0:0:
64,192,78101,128,0,78324:0:0:0:0:
448,192,78324,1,4,0:0:0:0:
320,192,78546,1,0,0:0:0:0:
448,192,78657,1,4,0:0:0:0:
192,192,78768,1,0,0:0:0:0:
448,192,78990,1,4,0:0:0:0:
64,192,79101,1,0,0:0:0:0:
448,192,79213,1,4,0:0:0:0:
320,192,79435,1,0,0:0:0:0:
448,192,79546,1,4,0:0:0:0:
192,192,79657,1,0,0:0:0:0:
448,192,79879,1,4,0:0:0:0:
64,192,79990,1,0,0:0:0:0:
320,192,80101,1,4,0:0:0:0:
448,192,80101,1,0,0:0:0:0:
64,192,80324,1,0,0:0:0:0:
320,192,80435,1,4,0:0:0:0:
192,192,80546,1,0,0:0:0:0:
320,192,80768,1,4,0:0:0:0:
64,192,80879,1,0,0:0:0:0:
320,192,80990,1,4,0:0:0:0:
64,192,81213,1,0,0:0:0:0:
320,192,81324,1,4,0:0:0:0:
192,192,81435,1,0,0:0:0:0:
320,192,81657,1,4,0:0:0:0:
64,192,81768,1,0,0:0:0:0:
192,192,81879,1,4,0:0:0:0:
320,192,81879,1,0,0:0:0:0:
64,192,82101,1,0,0:0:0:0:
192,192,82213,1,4,0:0:0:0:
448,192,82324,1,0,0:0:0:0:
192,192,82546,5,4,0:0:0:0:
320,192,82657,1,0,0:0:0:0:
192,192,82768,1,4,0:0:0:0:
64,192,82768,1,0,0:0:0:0:
64,192,82990,1,0,0:0:0:0:
192,192,83101,1,4,0:0:0:0:
448,192,83213,1,0,0:0:0:0:
192,192,83435,1,4,0:0:0:0:
64,192,84990,1,4,0:0:0:0:
448,192,84990,128,8,85435:0:0:0:0:
192,192,85435,1,4,0:0:0:0:
192,192,85768,1,4,0:0:0:0:
64,192,85879,1,4,0:0:0:0:
448,192,85879,1,8,0:0:0:0:
192,192,86101,1,4,0:0:0:0:
192,192,86324,1,4,0:0:0:0:
320,192,86435,1,0,0:0:0:0:
192,192,86546,1,0,0:0:0:0:
320,192,86657,1,4,0:0:0:0:
448,192,86768,1,4,0:0:0:0:
64,192,86768,1,8,0:0:0:0:
192,192,86990,1,4,0:0:0:0:
320,192,87213,1,4,0:0:0:0:
320,192,87546,1,4,0:0:0:0:
448,192,87657,1,4,0:0:0:0:
64,192,87657,1,8,0:0:0:0:
320,192,87879,1,4,0:0:0:0:
320,192,88101,1,4,0:0:0:0:
448,192,88101,1,0,0:0:0:0:
192,192,88213,1,0,0:0:0:0:
320,192,88324,1,0,0:0:0:0:
192,192,88435,1,4,0:0:0:0:
64,192,88546,1,4,0:0:0:0:
448,192,88546,1,8,0:0:0:0:
320,192,88768,128,4,88990:0:0:0:0:
64,192,88990,1,4,0:0:0:0:
64,192,89324,1,4,0:0:0:0:
192,192,89435,1,4,0:0:0:0:
448,192,89435,1,8,0:0:0:0:
64,192,89657,1,4,0:0:0:0:
64,192,89879,1,4,0:0:0:0:
320,192,89990,1,0,0:0:0:0:
64,192,90101,1,0,0:0:0:0:
320,192,90213,1,4,0:0:0:0:
448,192,90324,1,4,0:0:0:0:
192,192,90324,1,8,0:0:0:0:
64,192,90546,1,4,0:0:0:0:
448,192,90768,1,4,0:0:0:0:
448,192,91101,1,4,0:0:0:0:
320,192,91213,1,4,0:0:0:0:
64,192,91213,1,8,0:0:0:0:
448,192,91435,1,4,0:0:0:0:
448,192,91657,1,4,0:0:0:0:
320,192,91657,1,0,0:0:0:0:
192,192,91768,1,0,0:0:0:0:
448,192,91879,1,0,0:0:0:0:
192,192,91990,1,4,0:0:0:0:
320,192,92101,1,4,0:0:0:0:
64,192,92101,1,8,0:0:0:0:
448,192,92324,128,4,92546:0:0:0:0:
320,192,92546,1,4,0:0:0:0:
320,192,92879,1,4,0:0:0:0:
192,192,92990,1,4,0:0:0:0:
448,192,92990,1,8,0:0:0:0:
320,192,93213,1,4,0:0:0:0:
320,192,93435,1,4,0:0:0:0:
64,192,93546,1,0,0:0:0:0:
320,192,93657,1,0,0:0:0:0:
64,192,93768,1,4,0:0:0:0:
448,192,93879,1,4,0:0:0:0:
192,192,93879,1,8,0:0:0:0:
320,192,94101,1,4,0:0:0:0:
192,192,94324,1,4,0:0:0:0:
192,192,94657,1,4,0:0:0:0:
320,192,94768,1,4,0:0:0:0:
64,192,94768,1,8,0:0:0:0:
192,192,94990,1,4,0:0:0:0:
192,192,95213,1,4,0:0:0:0:
64,192,95213,1,0,0:0:0:0:
448,192,95324,1,0,0:0:0:0:
192,192,95435,1,0,0:0:0:0:
448,192,95546,1,4,0:0:0:0:
320,192,95657,1,4,0:0:0:0:
64,192,95657,1,8,0:0:0:0:
192,192,95879,128,4,96101:0:0:0:0:
448,192,96101,1,4,0:0:0:0:
448,192,96435,1,4,0:0:0:0:
192,192,96546,1,4,0:0:0:0:
64,192,96546,1,8,0:0:0:0:
448,192,96768,1,4,0:0:0:0:
448,192,96990,1,4,0:0:0:0:
320,192,97101,1,0,0:0:0:0:
448,192,97213,1,0,0:0:0:0:
320,192,97324,1,4,0:0:0:0:
192,192,97435,1,4,0:0:0:0:
64,192,97435,1,8,0:0:0:0:
448,192,97657,1,4,0:0:0:0:
64,192,97879,1,4,0:0:0:0:
64,192,98213,1,4,0:0:0:0:
320,192,98324,1,4,0:0:0:0:
448,192,98324,1,8,0:0:0:0:
64,192,98546,1,4,0:0:0:0:
64,192,98768,1,4,0:0:0:0:
448,192,98768,1,0,0:0:0:0:
192,192,98879,1,0,0:0:0:0:
64,192,98990,1,0,0:0:0:0:
448,192,99101,1,4,0:0:0:0:
320,192,99101,1,0,0:0:0:0:
192,192,99213,1,4,0:0:0:0:
64,192,99213,1,8,0:0:0:0:
448,192,99435,1,4,0:0:0:0:
320,192,99435,1,0,0:0:0:0:
192,192,99657,1,4,0:0:0:0:
320,192,99657,1,0,0:0:0:0:
192,192,99990,1,4,0:0:0:0:
448,192,100101,1,4,0:0:0:0:
64,192,100101,1,8,0:0:0:0:
192,192,100324,1,4,0:0:0:0:
64,192,100546,1,12,0:0:0:0:
192,192,100546,1,4,0:0:0:0:
320,192,100546,1,8,0:0:0:0:
64,192,100879,1,12,0:0:0:0:
192,192,100879,1,4,0:0:0:0:
320,192,100879,1,8,0:0:0:0:
448,192,100990,1,12,0:0:0:0:
192,192,101213,1,4,0:0:0:0:
320,192,101435,1,4,0:0:0:0:
320,192,101768,1,4,0:0:0:0:
448,192,101879,1,4,0:0:0:0:
64,192,101879,1,8,0:0:0:0:
320,192,102101,1,0,0:0:0:0:
192,192,102324,1,4,0:0:0:0:
64,192,102324,1,0,0:0:0:0:
320,192,102435,1,0,0:0:0:0:
192,192,102546,1,0,0:0:0:0:
320,192,102657,1,4,0:0:0:0:
448,192,102768,1,4,0:0:0:0:
64,192,102768,1,8,0:0:0:0:
192,192,102990,1,4,0:0:0:0:
448,192,103213,1,4,0:0:0:0:
320,192,103213,1,0,0:0:0:0:
448,192,103546,1,4,0:0:0:0:
64,192,103657,1,4,0:0:0:0:
320,192,103657,1,8,0:0:0:0:
448,192,103879,1,4,0:0:0:0:
448,192,104101,1,12,0:0:0:0:
192,192,104101,1,4,0:0:0:0:
320,192,104101,1,8,0:0:0:0:
448,192,104435,1,12,0:0:0:0:
320,192,104435,1,8,0:0:0:0:
192,192,104435,1,4,0:0:0:0:
64,192,104546,1,12,0:0:0:0:
448,192,104768,1,4,0:0:0:0:
64,192,104990,1,4,0:0:0:0:
64,192,105324,1,4,0:0:0:0:
448,192,105435,1,4,0:0:0:0:
192,192,105435,1,8,0:0:0:0:
64,192,105657,1,4,0:0:0:0:
64,192,105879,1,4,0:0:0:0:
320,192,105990,1,0,0:0:0:0:
64,192,106101,1,0,0:0:0:0:
320,192,106213,1,4,0:0:0:0:
448,192,106324,1,4,0:0:0:0:
192,192,106324,1,8,0:0:0:0:
64,192,106546,1,4,0:0:0:0:
192,192,106768,1,4,0:0:0:0:
320,192,106768,1,0,0:0:0:0:
192,192,107101,1,4,0:0:0:0:
64,192,107213,1,4,0:0:0:0:
320,192,107213,1,8,0:0:0:0:
192,192,107435,1,4,0:0:0:0:
64,192,107657,1,4,0:0:0:0:
192,192,107657,1,12,0:0:0:0:
448,192,107657,1,8,0:0:0:0:
448,192,107990,1,4,0:0:0:0:
192,192,107990,1,12,0:0:0:0:
64,192,107990,1,8,0:0:0:0:
320,192,108101,1,12,0:0:0:0:
192,192,108324,1,4,0:0:0:0:
320,192,108546,1,4,0:0:0:0:
320,192,108879,1,4,0:0:0:0:
448,192,108990,1,4,0:0:0:0:
192,192,108990,1,8,0:0:0:0:
320,192,109213,1,4,0:0:0:0:
320,192,109435,1,4,0:0:0:0:
192,192,109435,1,0,0:0:0:0:
64,192,109546,1,0,0:0:0:0:
320,192,109657,1,0,0:0:0:0:
64,192,109768,1,4,0:0:0:0:
448,192,109879,1,4,0:0:0:0:
192,192,109879,1,8,0:0:0:0:
320,192,110101,1,4,0:0:0:0:
64,192,110324,1,4,0:0:0:0:
192,192,110324,1,0,0:0:0:0:
64,192,110657,1,4,0:0:0:0:
192,192,110768,1,4,0:0:0:0:
320,192,110768,1,8,0:0:0:0:
64,192,110990,1,4,0:0:0:0:
64,192,111213,1,12,0:0:0:0:
448,192,111213,1,8,0:0:0:0:
320,192,111213,1,4,0:0:0:0:
64,192,111546,1,12,0:0:0:0:
448,192,111546,1,4,0:0:0:0:
320,192,111546,1,8,0:0:0:0:
192,192,111657,1,12,0:0:0:0:
64,192,111879,1,4,0:0:0:0:
448,192,112101,1,4,0:0:0:0:
448,192,112435,1,4,0:0:0:0:
320,192,112546,1,4,0:0:0:0:
192,192,112546,1,8,0:0:0:0:
448,192,112768,1,4,0:0:0:0:
64,192,112990,1,4,0:0:0:0:
64,192,113324,1,4,0:0:0:0:
64,192,113657,1,4,0:0:0:0:
192,192,113879,1,4,0:0:0:0:
320,192,113879,1,8,0:0:0:0:
448,192,113879,1,12,0:0:0:0:
64,192,114101,1,0,0:0:0:0:
192,192,114213,1,0,0:0:0:0:
320,192,114324,1,0,0:0:0:0:
64,192,114546,1,4,0:0:0:0:
448,192,114768,1,8,0:0:0:0:
64,192,114768,1,4,0:0:0:0:
320,192,114879,1,0,0:0:0:0:
192,192,114990,1,4,0:0:0:0:
64,192,115101,1,0,0:0:0:0:
448,192,115213,1,0,0:0:0:0:
64,192,115435,1,4,0:0:0:0:
64,192,115657,1,4,0:0:0:0:
192,192,115879,1,0,0:0:0:0:
320,192,115990,1,0,0:0:0:0:
448,192,116101,1,0,0:0:0:0:
192,192,116324,128,0,116546:0:0:0:0:
64,192,116546,1,8,0:0:0:0:
448,192,116546,1,0,0:0:0:0:
320,192,116657,1,0,0:0:0:0:
192,192,116768,1,0,0:0:0:0:
64,192,116879,1,0,0:0:0:0:
320,192,116990,1,0,0:0:0:0:
448,192,117213,1,4,0:0:0:0:
448,192,117435,1,4,0:0:0:0:
320,192,117657,1,0,0:0:0:0:
192,192,117768,1,0,0:0:0:0:
64,192,117879,1,0,0:0:0:0:
192,192,118101,1,0,0:0:0:0:
320,192,118213,1,0,0:0:0:0:
448,192,118324,1,8,0:0:0:0:
64,192,118324,1,0,0:0:0:0:
192,192,118768,1,0,0:0:0:0:
448,192,119213,1,4,0:0:0:0:
64,192,119435,1,0,0:0:0:0:
448,192,119546,1,0,0:0:0:0:
192,192,119657,1,0,0:0:0:0:
320,192,119879,128,4,120101:0:0:0:0:
64,192,120101,1,8,0:0:0:0:
448,192,120101,1,4,0:0:0:0:
192,192,120213,1,4,0:0:0:0:
448,192,120324,1,4,0:0:0:0:
320,192,120546,1,4,0:0:0:0:
448,192,120768,1,4,0:0:0:0:
64,192,120990,1,4,0:0:0:0:
320,192,120990,1,8,0:0:0:0:
192,192,121213,1,0,0:0:0:0:
320,192,121324,1,0,0:0:0:0:
448,192,121435,1,0,0:0:0:0:
320,192,121657,1,0,0:0:0:0:
192,192,121768,1,0,0:0:0:0:
64,192,121879,1,8,0:0:0:0:
448,192,121879,1,0,0:0:0:0:
64,192,122324,1,0,0:0:0:0:
320,192,122546,1,0,0:0:0:0:
448,192,122657,1,0,0:0:0:0:
192,192,122768,1,4,0:0:0:0:
64,192,122768,1,8,0:0:0:0:
64,192,122990,1,0,0:0:0:0:
320,192,123101,1,0,0:0:0:0:
448,192,123213,1,0,0:0:0:0:
192,192,123435,1,0,0:0:0:0:
64,192,123546,1,0,0:0:0:0:
448,192,123657,1,8,0:0:0:0:
192,192,123657,1,0,0:0:0:0:
448,192,124101,1,0,0:0:0:0:
192,192,124324,1,0,0:0:0:0:
320,192,124546,1,8,0:0:0:0:
448,192,124546,1,4,0:0:0:0:
64,192,124546,1,0,0:0:0:0:
192,192,124768,1,0,0:0:0:0:
320,192,124879,1,0,0:0:0:0:
448,192,124990,1,0,0:0:0:0:
448,192,125213,1,0,0:0:0:0:
320,192,125324,1,0,0:0:0:0:
192,192,125435,1,4,0:0:0:0:
64,192,125435,1,8,0:0:0:0:
448,192,125435,1,8,0:0:0:0:
448,192,125879,1,0,0:0:0:0:
64,192,126324,1,8,0:0:0:0:
448,192,126324,1,4,0:0:0:0:
192,192,126324,1,0,0:0:0:0:
320,192,126472,1,0,0:0:0:0:
192,192,126620,1,0,0:0:0:0:
64,192,126768,1,0,0:0:0:0:
320,192,126916,1,0,0:0:0:0:
192,192,127064,1,0,0:0:0:0:
448,192,127213,1,0,0:0:0:0:
320,192,127361,1,0,0:0:0:0:
192,192,127509,1,0,0:0:0:0:
64,192,127657,128,0,128101:0:0:0:0:
448,192,128101,128,4,128546:0:0:0:0:
192,192,128546,128,4,128990:0:0:0:0:
320,192,128990,128,8,129435:0:0:0:0:
192,192,129435,1,4,0:0:0:0:
448,192,129546,1,0,0:0:0:0:
320,192,129657,1,0,0:0:0:0:
192,192,129768,1,0,0:0:0:0:
64,192,129879,1,0,0:0:0:0:
192,192,129990,1,0,0:0:0:0:
448,192,130101,1,4,0:0:0:0:
320,192,130101,1,0,0:0:0:0:
64,192,130213,1,0,0:0:0:0:
448,192,130324,1,4,0:0:0:0:
320,192,130324,1,0,0:0:0:0:
64,192,130768,1,8,0:0:0:0:
448,192,130768,128,4,131213:0:0:0:0:
192,192,131435,1,4,0:0:0:0:
64,192,131435,1,0,0:0:0:0:
448,192,131657,1,4,0:0:0:0:
320,192,131657,1,0,0:0:0:0:
192,192,131768,1,0,0:0:0:0:
64,192,131879,1,0,0:0:0:0:
448,192,131990,1,0,0:0:0:0:
320,192,132101,128,0,132546:0:0:0:0:
64,192,132546,1,8,0:0:0:0:
448,192,132546,1,4,0:0:0:0:
64,192,133213,128,0,133435:0:0:0:0:
448,192,133435,1,4,0:0:0:0:
320,192,133435,1,0,0:0:0:0:
320,192,133657,1,0,0:0:0:0:
64,192,133768,1,0,0:0:0:0:
448,192,133879,1,4,0:0:0:0:
320,192,133879,1,0,0:0:0:0:
64,192,133990,1,0,0:0:0:0:
320,192,134101,1,0,0:0:0:0:
64,192,134213,1,0,0:0:0:0:
320,192,134324,1,8,0:0:0:0:
192,192,134324,1,4,0:0:0:0:
448,192,134546,1,0,0:0:0:0:
320,192,134657,1,0,0:0:0:0:
64,192,134768,128,0,135213:0:0:0:0:
448,192,135213,128,0,135435:0:0:0:0:
64,192,135435,1,4,0:0:0:0:
192,192,135657,1,4,0:0:0:0:
320,192,135879,1,4,0:0:0:0:
192,192,136101,1,4,0:0:0:0:
64,192,136101,1,8,0:0:0:0:
320,192,136213,1,0,0:0:0:0:
448,192,136324,1,0,0:0:0:0:
192,192,136435,1,0,0:0:0:0:
64,192,136546,1,8,0:0:0:0:
320,192,136768,1,4,0:0:0:0:
448,192,136768,1,0,0:0:0:0:
64,192,136990,1,8,0:0:0:0:
320,192,137101,1,0,0:0:0:0:
64,192,137213,1,0,0:0:0:0:
320,192,137324,1,0,0:0:0:0:
448,192,137435,1,8,0:0:0:0:
64,192,137435,1,4,0:0:0:0:
448,192,137879,128,8,138101:0:0:0:0:
64,192,137879,1,0,0:0:0:0:
320,192,138101,1,4,0:0:0:0:
192,192,138213,1,0,0:0:0:0:
448,192,138324,1,4,0:0:0:0:
64,192,138324,1,8,0:0:0:0:
192,192,138546,1,0,0:0:0:0:
64,192,138768,1,8,0:0:0:0:
320,192,138990,1,4,0:0:0:0:
192,192,138990,1,0,0:0:0:0:
448,192,139213,1,8,0:0:0:0:
64,192,139213,1,4,0:0:0:0:
320,192,139324,1,0,0:0:0:0:
64,192,139435,1,4,0:0:0:0:
192,192,139435,1,0,0:0:0:0:
320,192,139546,1,0,0:0:0:0:
448,192,139657,1,8,0:0:0:0:
64,192,139657,1,4,0:0:0:0:
192,192,139768,1,0,0:0:0:0:
320,192,139879,1,0,0:0:0:0:
192,192,139990,1,0,0:0:0:0:
64,192,140101,1,8,0:0:0:0:
192,192,140324,1,4,0:0:0:0:
320,192,140324,1,0,0:0:0:0:
64,192,140546,1,8,0:0:0:0:
448,192,140657,1,0,0:0:0:0:
64,192,140768,1,0,0:0:0:0:
448,192,140879,1,0,0:0:0:0:
320,192,140990,1,4,0:0:0:0:
64,192,140990,1,8,0:0:0:0:
64,192,141435,1,0,0:0:0:0:
320,192,141546,1,0,0:0:0:0:
192,192,141657,1,0,0:0:0:0:
448,192,141768,1,0,0:0:0:0:
64,192,141879,1,0,0:0:0:0:
448,192,142027,1,0,0:0:0:0:
64,192,142176,1,0,0:0:0:0:
192,192,142324,128,0,142990:0:0:0:0:
320,192,142990,128,0,143213:0:0:0:0:
448,192,143213,128,8,143657:0:0:0:0:
64,192,143213,1,0,0:0:0:0:
320,192,143657,1,4,0:0:0:0:
64,192,143768,1,0,0:0:0:0:
192,192,143879,1,0,0:0:0:0:
320,192,143990,1,0,0:0:0:0:
448,192,144101,1,0,0:0:0:0:
320,192,144213,1,0,0:0:0:0:
192,192,144324,1,4,0:0:0:0:
64,192,144324,1,0,0:0:0:0:
448,192,144435,1,0,0:0:0:0:
192,192,144546,1,4,0:0:0:0:
64,192,144546,1,0,0:0:0:0:
64,192,144990,128,8,145435:0:0:0:0:
448,192,144990,1,4,0:0:0:0:
448,192,145657,1,4,0:0:0:0:
320,192,145657,1,0,0:0:0:0:
192,192,145879,1,4,0:0:0:0:
64,192,145879,1,0,0:0:0:0:
320,192,145990,1,0,0:0:0:0:
448,192,146101,1,0,0:0:0:0:
192,192,146213,1,0,0:0:0:0:
320,192,146324,128,0,146768:0:0:0:0:
64,192,146768,1,8,0:0:0:0:
448,192,146768,1,4,0:0:0:0:
448,192,147435,128,0,147657:0:0:0:0:
192,192,147657,1,4,0:0:0:0:
64,192,147657,1,0,0:0:0:0:
192,192,147879,1,0,0:0:0:0:
320,192,147990,1,0,0:0:0:0:
64,192,148101,1,4,0:0:0:0:
192,192,148101,1,0,0:0:0:0:
320,192,148213,1,0,0:0:0:0:
192,192,148324,1,0,0:0:0:0:
320,192,148435,1,0,0:0:0:0:
448,192,148546,1,8,0:0:0:0:
192,192,148546,1,4,0:0:0:0:
448,192,148768,1,0,0:0:0:0:
320,192,148879,1,0,0:0:0:0:
192,192,148990,128,0,149435:0:0:0:0:
448,192,149435,128,0,149657:0:0:0:0:
192,192,149657,1,0,0:0:0:0:
64,192,149768,1,0,0:0:0:0:
320,192,149879,1,0,0:0:0:0:
448,192,149990,1,0,0:0:0:0:
64,192,150101,1,8,0:0:0:0:
320,192,150324,1,8,0:0:0:0:
448,192,150324,1,4,0:0:0:0:
192,192,150435,1,0,0:0:0:0:
64,192,150546,1,0,0:0:0:0:
320,192,150657,1,0,0:0:0:0:
448,192,150768,1,8,0:0:0:0:
192,192,150990,1,4,0:0:0:0:
64,192,150990,1,0,0:0:0:0:
448,192,151213,1,8,0:0:0:0:
192,192,151324,1,0,0:0:0:0:
448,192,151435,1,0,0:0:0:0:
192,192,151546,1,0,0:0:0:0:
64,192,151657,1,8,0:0:0:0:
448,192,151657,1,4,0:0:0:0:
192,192,151879,128,0,152101:0:0:0:0:
64,192,152101,1,8,0:0:0:0:
448,192,152101,1,0,0:0:0:0:
320,192,152324,1,4,0:0:0:0:
192,192,152324,1,0,0:0:0:0:
64,192,152546,1,4,0:0:0:0:
448,192,152546,1,0,0:0:0:0:
192,192,152768,1,0,0:0:0:0:
448,192,152990,1,8,0:0:0:0:
192,192,153213,1,4,0:0:0:0:
64,192,153213,1,0,0:0:0:0:
64,192,153435,1,8,0:0:0:0:
448,192,153435,1,4,0:0:0:0:
192,192,153546,1,0,0:0:0:0:
320,192,153657,1,4,0:0:0:0:
448,192,153657,1,0,0:0:0:0:
192,192,153768,1,0,0:0:0:0:
64,192,153879,1,8,0:0:0:0:
448,192,153879,1,4,0:0:0:0:
320,192,153990,1,0,0:0:0:0:
192,192,154101,1,0,0:0:0:0:
64,192,154213,1,0,0:0:0:0:
448,192,154324,1,8,0:0:0:0:
320,192,154546,1,4,0:0:0:0:
448,192,154768,1,8,0:0:0:0:
64,192,154879,1,0,0:0:0:0:
448,192,154990,1,0,0:0:0:0:
64,192,155101,1,0,0:0:0:0:
192,192,155213,1,8,0:0:0:0:
448,192,155213,1,4,0:0:0:0:
448,192,155657,1,8,0:0:0:0:
192,192,155768,1,0,0:0:0:0:
320,192,155879,1,0,0:0:0:0:
64,192,155990,1,0,0:0:0:0:
192,192,156101,128,0,156546:0:0:0:0:
64,192,156546,5,4,0:0:0:0:
64,192,156879,1,4,0:0:0:0:
64,192,157213,1,4,0:0:0:0:
448,192,157435,1,8,0:0:0:0:
64,192,158324,1,4,0:0:0:0:
64,192,158657,1,4,0:0:0:0:
64,192,158990,1,4,0:0:0:0:
448,192,159213,1,8,0:0:0:0:
64,192,159546,1,4,0:0:0:0:
64,192,159879,1,4,0:0:0:0:
192,192,160101,1,4,0:0:0:0:
192,192,160435,1,4,0:0:0:0:
192,192,160768,1,4,0:0:0:0:
448,192,160990,1,8,0:0:0:0:
320,192,161768,1,4,0:0:0:0:
192,192,161879,1,4,0:0:0:0:
320,192,162101,1,4,0:0:0:0:
192,192,162213,1,4,0:0:0:0:
320,192,162435,1,4,0:0:0:0:
192,192,162546,1,4,0:0:0:0:
448,192,162768,1,8,0:0:0:0:
192,192,163101,1,4,0:0:0:0:
192,192,163435,1,4,0:0:0:0:
448,192,163657,1,4,0:0:0:0:
448,192,163990,1,4,0:0:0:0:
448,192,164324,1,4,0:0:0:0:
64,192,164546,1,4,0:0:0:0:
448,192,165435,1,4,0:0:0:0:
448,192,165768,1,4,0:0:0:0:
448,192,166101,1,4,0:0:0:0:
64,192,166324,1,8,0:0:0:0:
448,192,166657,1,4,0:0:0:0:
448,192,166990,1,4,0:0:0:0:
320,192,167213,1,4,0:0:0:0:
320,192,167546,1,4,0:0:0:0:
320,192,167879,1,4,0:0:0:0:
64,192,168101,1,4,0:0:0:0:
192,192,168879,1,4,0:0:0:0:
320,192,168990,1,4,0:0:0:0:
192,192,169213,1,4,0:0:0:0:
320,192,169324,1,4,0:0:0:0:
192,192,169546,1,4,0:0:0:0:
320,192,169657,1,4,0:0:0:0:
64,192,169879,1,4,0:0:0:0:
320,192,170213,1,4,0:0:0:0:
320,192,170546,1,4,0:0:0:0:
64,192,170768,1,4,0:0:0:0:
64,192,171101,1,4,0:0:0:0:
64,192,171435,1,4,0:0:0:0:
64,192,172546,1,4,0:0:0:0:
64,192,172879,1,4,0:0:0:0:
64,192,173213,1,4,0:0:0:0:
64,192,173768,1,4,0:0:0:0:
64,192,174101,1,4,0:0:0:0:
192,192,174324,1,4,0:0:0:0:
192,192,174657,1,4,0:0:0:0:
192,192,174990,1,4,0:0:0:0:
192,192,176101,1,4,0:0:0:0:
192,192,176435,1,4,0:0:0:0:
192,192,176768,1,4,0:0:0:0:
192,192,177324,1,4,0:0:0:0:
192,192,177657,1,4,0:0:0:0:
448,192,177879,1,4,0:0:0:0:
448,192,178213,1,4,0:0:0:0:
448,192,178546,1,4,0:0:0:0:
448,192,179657,1,4,0:0:0:0:
448,192,179990,1,4,0:0:0:0:
448,192,180324,1,4,0:0:0:0:
448,192,180879,1,4,0:0:0:0:
448,192,181213,1,4,0:0:0:0:
320,192,181435,1,4,0:0:0:0:
320,192,181768,1,4,0:0:0:0:
320,192,182101,1,4,0:0:0:0:
320,192,183213,1,4,0:0:0:0:
320,192,183546,1,4,0:0:0:0:
320,192,183879,1,4,0:0:0:0:
