osu file format v14

[General]
AudioFilename: audio.mp3
AudioLeadIn: 0
PreviewTime: 63847
Countdown: 0
SampleSet: Soft
StackLeniency: 0.5
Mode: 0
LetterboxInBreaks: 0
WidescreenStoryboard: 0

[Editor]
DistanceSpacing: 1.9
BeatDivisor: 4
GridSize: 32
TimelineZoom: 2.1

[Metadata]
Title:Stories (TV Size)
TitleUnicode:Stories (TV Size)
Artist:Snow Man
ArtistUnicode:Snow Man
Creator:HakuYT
Version:New Page
Source:ブラッククローバー
Tags:pop HIKARI black clover op 11 asta noelle mimosa secre nero kuki1537 anime japanese male vocal rock j-rock
BeatmapID:2385733
BeatmapSetID:1142363

[Difficulty]
HPDrainRate:6
CircleSize:4
OverallDifficulty:8.5
ApproachRate:9.2
SliderMultiplier:1.8
SliderTickRate:1

[Events]
//Background and Video events
Video,425,"video.mp4"
0,0,"bgbgbg.jpg",0,0
//Break Periods
//Storyboard Layer 0 (Background)
//Storyboard Layer 1 (Fail)
//Storyboard Layer 2 (Pass)
//Storyboard Layer 3 (Foreground)
//Storyboard Layer 4 (Overlay)
//Storyboard Sound Samples

[TimingPoints]
-475,338.983050847458,4,2,1,50,1,0
1474,-100,4,2,1,5,0,0
1558,-100,4,2,1,70,0,0
2067,-100,4,2,1,70,0,0
21049,-117.647058823529,4,2,1,60,0,0
26643,-153.846153846153,4,2,1,60,0,0
27491,-117.647058823529,4,2,1,60,0,0
30965,-117.647058823529,4,2,1,5,0,0
31050,-117.647058823529,4,2,1,60,0,0
34694,-117.647058823529,4,2,1,5,0,0
34779,-117.647058823529,4,2,1,60,0,0
48253,-117.647058823529,4,2,1,5,0,0
48337,-100,4,2,1,65,0,0
51304,-100,4,2,1,5,0,0
51389,-100,4,2,1,65,0,0
56728,-100,4,2,1,5,0,0
56813,-100,4,2,1,65,0,0
57490,-100,4,2,1,70,0,0
59185,-117.647058823529,4,2,1,65,0,0
63847,-117.647058823529,4,2,1,5,0,0
63931,-117.647058823529,4,2,1,70,0,0
64440,-90.9090909090909,4,2,1,80,0,1
64694,-90.9090909090909,4,2,1,5,0,1
64779,-90.9090909090909,4,2,1,80,0,1
66050,-90.9090909090909,4,2,1,5,0,1
66135,-90.9090909090909,4,2,1,80,0,1
66558,-90.9090909090909,4,2,1,5,0,1
66643,-90.9090909090909,4,2,1,80,0,1
83423,-133.333333333333,4,2,1,70,0,0
88422,-133.333333333333,4,2,1,5,0,0
88507,-133.333333333333,4,2,1,70,0,0

[Colours]
Combo1 : 170,170,255
Combo2 : 170,255,170
Combo3 : 255,170,170

[HitObjects]
256,192,373,12,0,1475,0:2:0:0:
229,98,1558,5,8,0:2:0:0:
99,304,1728,1,0,1:2:0:0:
99,304,2068,6,0,B|169:302|169:302|206:321|206:321|287:319,1,180,6|2,1:2|1:2,0:2:0:0:
429,188,2575,1,10,0:2:0:0:
256,236,2745,1,2,1:2:0:0:
256,236,2830,1,0,1:2:0:0:
256,236,2914,1,2,1:2:0:0:
463,340,3084,1,2,1:2:0:0:
274,319,3253,1,10,0:2:0:0:
494,252,3423,6,0,P|512:193|430:96,1,180,6|0,1:2|1:2,0:2:0:0:
238,151,3931,1,10,0:2:0:0:
400,262,4101,1,2,1:2:0:0:
400,262,4186,1,0,1:2:0:0:
400,262,4270,1,2,1:2:0:0:
361,50,4440,1,2,1:2:0:0:
256,236,4609,1,10,0:2:0:0:
125,42,4779,6,0,B|98:91|98:91|127:230,1,180,6|0,1:2|1:2,0:2:0:0:
161,378,5287,1,10,0:2:0:0:
2,273,5457,1,2,0:2:0:0:
213,307,5626,2,0,L|316:300,1,90,2|0,1:2|0:2,0:2:0:0:
154,170,5965,2,0,L|64:163,1,90,10|0,0:2|0:2,0:2:0:0:
248,16,6304,6,0,P|265:66|269:107,1,90,2|0,1:2|0:2,0:2:0:0:
379,248,6643,2,0,P|384:203|399:161,1,90,10|0,0:2|0:2,0:2:0:0:
364,33,6982,1,2,1:2:0:0:
286,215,7152,1,8,0:2:0:0:
254,246,7236,1,8,0:2:0:0:
213,264,7321,1,10,0:2:0:0:
168,266,7406,1,8,0:2:0:0:
126,251,7491,6,0,L|91:70,1,180,6|0,1:2|1:2,0:2:0:0:
21,255,7999,1,10,0:2:0:0:
202,171,8169,1,2,1:2:0:0:
202,171,8253,1,0,1:2:0:0:
202,171,8338,1,2,1:2:0:0:
68,321,8508,1,2,1:2:0:0:
130,108,8677,1,10,0:2:0:0:
337,199,8847,6,0,B|382:176|425:190|425:190|460:226|520:218,1,180,6|0,1:2|1:2,0:2:0:0:
284,99,9355,1,10,0:2:0:0:
492,139,9525,1,2,1:2:0:0:
492,139,9609,1,0,1:2:0:0:
492,139,9694,1,2,1:2:0:0:
351,289,9864,1,2,1:2:0:0:
406,81,10033,1,10,0:2:0:0:
269,283,10203,6,0,B|199:281|199:281|162:300|162:300|84:298,1,180,6|0,1:2|1:2,0:2:0:0:
2,161,10711,1,8,0:2:0:0:
138,218,10881,1,0,1:2:0:0:
138,218,10965,1,0,1:2:0:0:
138,218,11050,2,0,L|153:123,1,90,2|0,1:2|1:2,0:2:0:0:
59,0,11389,2,0,L|74:95,1,90,8|0,0:2|1:2,0:2:0:0:
74,88,11643,1,0,1:2:0:0:
74,88,11728,5,2,1:2:0:0:
231,33,11897,1,0,1:2:0:0:
226,229,12067,1,8,0:2:0:0:
149,22,12236,1,0,1:2:0:0:
289,175,12406,1,10,0:2:0:0:
331,188,12490,1,8,0:2:0:0:
375,182,12575,1,8,0:2:0:0:
412,157,12660,1,8,0:2:0:0:
434,119,12745,1,8,0:2:0:0:
437,74,12829,1,8,0:2:0:0:
420,33,12914,6,0,B|375:10|332:24|332:24|297:60|237:52,1,180,6|0,1:2|1:2,0:2:0:0:
48,174,13423,1,10,0:2:0:0:
263,156,13592,1,2,1:2:0:0:
263,156,13677,1,0,1:2:0:0:
263,156,13762,1,2,1:2:0:0:
165,347,13931,1,2,1:2:0:0:
130,133,14101,1,10,0:2:0:0:
305,273,14270,6,0,B|375:271|375:271|412:290|412:290|490:288,1,180,6|0,1:2|1:2,0:2:0:0:
263,156,14779,1,10,0:2:0:0:
446,209,14948,1,2,1:2:0:0:
446,209,15033,1,0,1:2:0:0:
446,209,15118,1,2,1:2:0:0:
338,68,15287,1,2,1:2:0:0:
238,257,15457,1,10,0:2:0:0:
164,80,15626,6,0,P|91:75|48:178,1,180,6|0,1:2|1:2,0:2:0:0:
111,317,16135,2,0,L|128:216,1,90,10|0,0:2|0:2,0:2:0:0:
284,345,16474,2,0,L|267:244,1,90,2|0,1:2|0:2,0:2:0:0:
120,145,16813,2,0,P|180:169|204:202,1,90,10|0,0:2|0:2,0:2:0:0:
366,102,17152,6,0,P|333:132|290:144,1,90,2|0,1:2|0:2,0:2:0:0:
175,27,17491,2,0,L|281:51,1,90,10|0,0:2|0:2,0:2:0:0:
328,215,17830,1,2,1:2:0:0:
120,145,17999,1,8,0:2:0:0:
75,147,18083,1,8,0:2:0:0:
37,170,18168,1,8,0:2:0:0:
15,209,18253,1,8,0:2:0:0:
16,254,18338,6,0,B|63:270|96:254|96:254|113:267|113:267|156:245|199:256,1,180,6|0,1:2|1:2,0:2:0:0:
381,307,18847,1,10,0:2:0:0:
250,165,19016,1,2,1:2:0:0:
250,165,19101,1,0,1:2:0:0:
250,165,19186,1,2,1:2:0:0:
168,360,19355,1,2,1:2:0:0:
328,215,19525,1,10,0:2:0:0:
80,254,19694,6,0,B|60:193|60:193|94:67,1,180,6|0,1:2|1:2,0:2:0:0:
261,20,20203,1,10,0:2:0:0:
150,196,20372,1,2,1:2:0:0:
150,196,20457,1,0,1:2:0:0:
150,196,20541,1,2,1:2:0:0:
333,93,20711,1,2,1:2:0:0:
145,16,20880,1,10,0:2:0:0:
208,116,21050,1,6,0:2:0:0:
256,192,21135,12,2,22491,0:2:0:0:
231,190,24948,5,2,0:2:0:0:
294,262,25118,1,2,0:2:0:0:
207,305,25287,2,0,L|117:293,1,76.5000014591217,2|0,0:2|0:2,0:2:0:0:
33,208,25626,1,2,0:2:0:0:
129,213,25796,2,0,P|150:162|154:131,1,76.5000014591217,2|0,0:2|0:2,0:2:0:0:
194,61,26135,2,0,B|250:47|250:47|293:58|293:58|343:45,1,153.000002918243,2|0,0:0|0:0,0:0:0:0:
434,83,26643,6,0,P|454:117|292:197,1,292.499986610413,2|0,0:0|0:0,0:0:0:0:
170,53,27660,1,2,0:2:0:0:
236,126,27830,1,2,0:2:0:0:
292,52,27999,6,0,L|375:45,1,76.5000014591217,2|0,0:2|0:2,0:2:0:0:
461,110,28338,1,2,0:2:0:0:
388,179,28508,2,0,P|377:222|373:259,1,76.5000014591217,2|0,0:2|0:2,0:2:0:0:
474,312,28847,2,0,P|469:274|459:237,1,76.5000014591217,2|0,0:2|0:2,0:2:0:0:
384,331,29186,1,2,0:2:0:0:
295,265,29355,5,2,0:2:0:0:
258,360,29525,1,0,0:2:0:0:
373,253,29694,1,0,0:2:0:0:
229,220,29864,2,0,L|144:209,1,76.5000014591217,0|0,0:2|0:2,0:2:0:0:
64,258,30203,1,0,0:2:0:0:
162,304,30372,1,2,0:2:0:0:
77,180,30542,1,2,0:2:0:0:
200,138,30711,6,0,L|340:123,1,114.750002188683,2|0,0:2|0:2,0:2:0:0:
385,113,31050,1,2,0:2:0:0:
310,53,31219,2,0,L|228:61,1,76.5000014591217,2|0,0:2|0:2,0:2:0:0:
86,34,31558,2,0,L|168:26,1,76.5000014591217,2|0,0:2|0:2,0:2:0:0:
200,138,31897,1,0,0:2:0:0:
75,120,32067,5,2,0:2:0:0:
182,224,32236,1,2,0:2:0:0:
52,199,32406,1,2,0:2:0:0:
164,313,32575,1,2,0:2:0:0:
26,281,32745,2,0,L|44:368,1,76.5000014591217,2|0,0:2|0:2,0:2:0:0:
164,313,33084,5,2,0:2:0:0:
52,199,33253,1,2,0:2:0:0:
182,224,33423,1,2,0:2:0:0:
75,120,33592,1,2,0:2:0:0:
200,138,33762,2,0,L|301:120,1,76.5000014591217,2|2,0:2|0:2,0:2:0:0:
352,28,34101,1,2,0:2:0:0:
265,51,34270,1,2,0:2:0:0:
366,113,34440,2,0,L|383:240,1,114.750002188683,2|0,0:2|0:2,0:2:0:0:
392,306,34779,5,2,0:2:0:0:
289,236,34948,2,0,P|221:231|164:290,1,153.000002918243,2|0,0:2|0:2,0:2:0:0:
234,373,35457,2,0,P|245:322|240:296,1,76.5000014591217,0|0,0:2|0:2,0:2:0:0:
118,202,35796,1,2,0:2:0:0:
87,346,35965,1,2,0:2:0:0:
241,299,36135,6,0,L|140:286,1,76.5000014591217,2|0,0:2|0:2,0:2:0:0:
41,266,36474,1,2,0:2:0:0:
118,202,36643,2,0,L|107:115,1,76.5000014591217,2|0,0:2|0:2,0:2:0:0:
176,49,36982,2,0,B|240:43|240:43|265:54|265:54|340:49,1,153.000002918243,2|0,0:2|0:2,0:2:0:0:
219,189,37491,5,6,1:2:0:0:
364,137,37660,1,0,1:2:0:0:
279,269,37830,1,0,1:2:0:0:
278,116,37999,1,0,1:2:0:0:
362,251,38169,2,0,P|353:315|250:347,1,153.000002918243,8|2,0:2|0:2,0:2:0:0:
195,265,38677,1,2,0:2:0:0:
107,366,38847,6,0,L|95:259,1,76.5000014591217,2|0,0:2|1:2,0:2:0:0:
140,185,39186,1,2,1:2:0:0:
21,243,39355,2,0,L|33:136,1,76.5000014591217,2|10,1:2|0:2,0:2:0:0:
120,88,39694,2,0,L|284:74,1,153.000002918243,2|0,0:2|0:2,0:2:0:0:
366,205,40203,5,2,1:2:0:0:
230,164,40372,1,0,1:2:0:0:
367,320,40542,1,0,1:2:0:0:
231,279,40711,1,0,1:2:0:0:
435,249,40881,2,0,P|449:188|364:122,1,153.000002918243,8|2,0:2|0:2,0:2:0:0:
290,216,41389,1,2,0:2:0:0:
292,58,41558,6,0,L|307:152,1,76.5000014591217,2|0,0:2|1:2,0:2:0:0:
178,188,41897,1,2,1:2:0:0:
130,64,42067,2,0,P|173:44|211:41,1,76.5000014591217,2|8,1:2|0:2,0:2:0:0:
71,161,42406,2,0,B|36:113|36:113|57:15,1,153.000002918243,2|0,0:2|0:2,0:2:0:0:
202,41,42914,5,2,1:2:0:0:
152,204,43084,1,2,1:2:0:0:
284,83,43253,1,2,1:2:0:0:
126,92,43423,1,2,1:2:0:0:
277,196,43592,2,0,L|376:189,1,76.5000014591217,10|0,0:2|0:2,0:2:0:0:
474,156,43931,5,2,0:2:0:0:
380,286,44101,1,2,0:2:0:0:
400,117,44270,1,2,1:2:0:0:
473,306,44440,1,2,1:2:0:0:
353,190,44609,1,2,1:2:0:0:
311,356,44779,1,2,1:2:0:0:
249,200,44948,2,0,L|237:278,1,76.5000014591217,10|0,0:2|0:2,0:2:0:0:
111,358,45287,2,0,L|122:282,1,76.5000014591217,2|0,0:2|0:2,0:2:0:0:
17,172,45626,5,2,1:2:0:0:
15,286,45796,1,0,1:2:0:0:
128,186,45965,1,0,1:2:0:0:
52,78,46135,1,0,1:2:0:0:
163,23,46304,2,0,L|275:16,1,76.5000014591217,8|0,0:2|0:2,0:2:0:0:
323,118,46643,1,2,0:2:0:0:
202,105,46813,1,2,0:2:0:0:
279,193,46982,6,0,L|290:284,1,76.5000014591217,2|0,0:2|1:2,0:2:0:0:
390,367,47321,1,2,1:2:0:0:
465,230,47491,2,0,P|421:214|384:212,1,76.5000014591217,2|8,1:2|0:2,0:2:0:0:
289,269,47830,2,0,B|208:281|208:281|176:271|176:271|100:281,1,191.250003647804,2|0,0:2|0:2,0:2:0:0:
24,303,48338,6,0,L|8:198,1,90,2|0,1:2|0:2,0:2:0:0:
67,96,48677,1,2,1:2:0:0:
159,182,48847,2,0,L|270:192,1,90,2|0,0:2|1:2,0:2:0:0:
329,116,49186,1,2,0:2:0:0:
186,19,49355,2,0,P|168:72|176:114,1,90,2|0,1:2|0:2,0:2:0:0:
248,190,49694,5,2,1:2:0:0:
309,39,49864,2,0,L|405:30,1,90,2|0,0:2|1:2,0:2:0:0:
465,152,50203,1,2,0:2:0:0:
329,116,50372,2,0,P|343:161|328:212,1,90,2|0,1:2|0:2,0:2:0:0:
464,322,50711,2,0,P|455:278|468:236,1,90,2|0,1:2|0:2,0:2:0:0:
365,285,51050,6,0,L|210:267,1,135,2|0,1:2|0:2,0:2:0:0:
164,233,51389,1,2,1:2:0:0:
244,191,51558,2,0,L|348:203,1,90,2|0,0:2|1:2,0:2:0:0:
379,100,51897,1,2,0:2:0:0:
240,107,52067,6,0,P|185:125|190:261,1,180,2|0,1:2|1:2,0:2:0:0:
321,294,52575,2,0,L|205:278,1,90,2|0,0:2|1:2,0:2:0:0:
82,334,52914,1,2,0:2:0:0:
122,160,53084,2,0,P|141:207|143:252,1,90,2|2,1:2|0:2,0:2:0:0:
10,186,53423,2,0,P|13:141|31:100,1,90,2|0,1:2|0:2,0:2:0:0:
151,1,53762,5,0,1:2:0:0:
226,173,53931,1,2,0:2:0:0:
81,45,54101,1,2,1:2:0:0:
238,84,54270,1,2,0:2:0:0:
122,160,54440,1,2,1:2:0:0:
225,0,54609,1,2,0:2:0:0:
331,156,54779,1,2,1:2:0:0:
238,84,54948,6,0,L|225:186,1,90,2|0,0:2|1:2,0:2:0:0:
406,60,55287,2,0,L|317:71,1,90,2|0,0:2|1:2,0:2:0:0:
442,222,55626,2,0,L|430:133,1,90,2|0,0:2|1:2,0:2:0:0:
328,238,55965,2,0,B|262:240|262:240|224:264|224:264|153:268,1,180,2|0,0:2|0:2,0:2:0:0:
19,356,56474,6,0,L|181:345,1,135,2|0,1:2|0:2,0:2:0:0:
238,346,56813,1,2,1:2:0:0:
156,268,56982,2,0,L|143:164,1,90,2|0,0:2|1:2,0:2:0:0:
224,74,57321,1,2,0:2:0:0:
329,239,57491,6,0,P|423:247|458:141,1,180,6|0,1:2|1:2,0:2:0:0:
373,75,57999,1,0,1:2:0:0:
373,75,58084,1,0,1:2:0:0:
373,75,58169,2,0,L|380:170,1,90,0|0,1:2|1:2,0:2:0:0:
234,209,58508,1,2,1:2:0:0:
289,33,58677,1,2,0:2:0:0:
115,92,58847,1,2,1:2:0:0:
299,152,59016,1,2,0:2:0:0:
150,258,59186,6,0,B|85:257|85:257|59:270|59:270|-14:270,1,153.000002918243,6|0,1:2|0:2,0:2:0:0:
110,343,59694,1,0,1:2:0:0:
23,190,59864,2,0,P|10:108|59:46,1,153.000002918243,8|0,0:2|0:2,0:2:0:0:
160,21,60372,1,2,1:2:0:0:
154,146,60542,6,0,L|58:124,1,76.5000014591217,2|0,1:2|0:2,0:2:0:0:
229,71,60881,1,2,1:2:0:0:
221,193,61050,2,0,L|201:278,1,76.5000014591217,2|8,0:2|0:2,0:2:0:0:
307,125,61389,2,0,L|327:210,1,76.5000014591217,10|8,0:3|1:3,0:2:0:0:
403,269,61728,1,2,0:2:0:0:
432,82,61897,5,6,1:2:0:0:
256,192,61982,12,0,63847,0:2:0:0:
216,105,63931,5,10,0:2:0:0:
306,347,64101,1,2,1:2:0:0:
306,347,64440,6,0,B|260:323|228:325|228:325|187:350|134:342,1,148.50000453186,6|0,1:2|0:2,0:2:0:0:
83,325,64779,1,2,1:2:0:0:
215,104,64948,2,0,L|230:208,1,99.0000030212403,10|0,0:2|1:2,0:2:0:0:
229,201,65203,1,0,1:2:0:0:
229,201,65287,1,2,1:2:0:0:
0,115,65457,2,0,P|51:81|100:79,1,99.0000030212403,2|8,1:2|0:2,0:2:0:0:
360,102,65796,6,0,B|308:95|308:95|266:111|266:111|205:103,1,148.50000453186,6|0,1:2|0:2,0:2:0:0:
165,35,66135,1,2,1:2:0:0:
8,226,66304,2,0,B|60:219|60:219|102:235|102:235|163:227,1,148.50000453186,10|0,0:2|0:2,0:2:0:0:
233,208,66643,1,2,1:2:0:0:
262,382,66813,2,0,L|243:280,1,99.0000030212403,2|8,1:2|0:2,0:2:0:0:
450,105,67152,6,0,L|431:207,1,99.0000030212403,6|0,1:2|0:2,0:2:0:0:
262,382,67491,1,2,1:2:0:0:
322,127,67660,1,10,0:2:0:0:
466,351,67830,1,2,0:2:0:0:
248,188,67999,2,0,L|145:204,1,99.0000030212403,2|0,1:2|1:2,0:2:0:0:
304,37,68338,1,10,0:2:0:0:
376,265,68508,6,0,L|354:380,1,99.0000030212403,2|0,1:2|1:2,0:2:0:0:
469,79,68847,2,0,L|491:194,1,99.0000030212403,2|8,1:2|0:2,0:2:0:0:
304,37,69186,1,2,1:2:0:0:
304,37,69270,1,0,1:2:0:0:
304,37,69355,1,0,1:2:0:0:
218,216,69525,1,10,0:2:0:0:
169,222,69609,1,8,0:2:0:0:
123,204,69694,1,8,0:2:0:0:
90,168,69779,1,8,0:2:0:0:
79,120,69864,6,0,B|113:165|113:165|82:314,1,198.000006042481,6|0,1:2|1:2,0:2:0:0:
303,384,70372,2,0,L|295:268,1,99.0000030212403,8|2,0:2|1:2,0:2:0:0:
296,285,70626,1,0,1:2:0:0:
296,285,70711,1,2,1:2:0:0:
95,382,70881,1,0,1:2:0:0:
210,156,71050,1,10,0:2:0:0:
400,286,71219,6,0,P|455:280|466:150,1,198.000006042481,6|0,1:2|1:2,0:2:0:0:
272,39,71728,2,0,L|292:149,1,99.0000030212403,8|0,0:2|1:2,0:2:0:0:
289,136,71982,1,0,1:2:0:0:
289,136,72067,1,0,1:2:0:0:
450,0,72236,1,0,1:2:0:0:
422,210,72406,1,10,0:2:0:0:
211,138,72575,6,0,B|131:132|131:132|95:146|95:146|10:139,1,198.000006042481,6|2,1:2|1:2,0:2:0:0:
181,319,73084,2,0,L|164:199,1,99.0000030212403,10|2,0:2|1:2,0:2:0:0:
167,220,73338,1,0,1:2:0:0:
167,220,73423,1,2,1:2:0:0:
12,384,73592,1,0,1:2:0:0:
279,326,73762,1,10,0:2:0:0:
62,274,73931,1,2,1:2:0:0:
62,274,74016,1,0,1:2:0:0:
62,274,74101,5,0,1:2:0:0:
326,238,74270,1,2,1:2:0:0:
111,384,74440,1,8,0:2:0:0:
219,157,74609,1,2,0:2:0:0:
357,380,74779,1,10,0:2:0:0:
152,228,74948,1,10,0:2:0:0:
130,183,75032,1,8,0:2:0:0:
134,135,75117,1,8,0:2:0:0:
161,94,75202,1,8,0:2:0:0:
205,72,75287,6,0,L|405:61,1,198.000006042481,6|2,1:2|1:2,0:2:0:0:
500,311,75796,1,10,0:2:0:0:
219,157,75965,1,0,1:2:0:0:
443,374,76135,1,10,0:2:0:0:
480,68,76304,1,2,1:2:0:0:
360,355,76474,1,8,0:2:0:0:
264,75,76643,6,0,B|184:69|184:69|148:83|148:83|63:76,1,198.000006042481,6|2,1:2|1:2,0:2:0:0:
264,359,77152,1,10,0:2:0:0:
69,76,77321,1,0,1:2:0:0:
187,383,77491,1,10,0:2:0:0:
264,75,77660,1,2,1:2:0:0:
112,358,77830,1,8,0:2:0:0:
324,151,77999,6,0,B|371:128|419:164|419:164|478:201|532:172,1,198.000006042481,6|0,1:2|1:2,0:2:0:0:
375,384,78508,1,10,0:2:0:0:
233,181,78677,1,2,0:2:0:0:
437,268,78847,1,2,1:2:0:0:
178,310,79016,1,0,1:2:0:0:
366,152,79186,1,10,0:2:0:0:
264,384,79355,6,0,L|255:278,1,99.0000030212403,6|0,1:2|0:2,0:2:0:0:
116,66,79694,2,0,L|107:172,1,99.0000030212403,2|8,1:2|0:2,0:2:0:0:
0,343,80033,1,2,1:2:0:0:
0,343,80118,1,0,1:2:0:0:
0,343,80203,1,0,1:2:0:0:
186,182,80372,2,0,P|240:167|308:171,1,99.0000030212403,2|8,1:2|0:2,0:2:0:0:
435,365,80711,6,0,B|413:308|413:308|434:160,1,198.000006042481,6|0,1:2|1:2,0:2:0:0:
238,1,81219,1,8,0:2:0:0:
338,285,81389,1,0,1:2:0:0:
305,63,81558,1,10,0:2:0:0:
212,346,81728,1,0,1:2:0:0:
224,103,81897,1,8,0:2:0:0:
309,363,82067,6,0,L|203:344,1,99.0000030212403,6|0,1:2|0:2,0:2:0:0:
51,283,82406,1,0,1:2:0:0:
51,283,82491,1,0,1:2:0:0:
51,283,82575,1,8,0:2:0:0:
310,187,82745,1,0,1:2:0:0:
54,188,82914,1,10,0:2:0:0:
38,141,82998,1,8,0:2:0:0:
44,92,83083,1,8,0:2:0:0:
71,51,83168,1,8,0:2:0:0:
112,25,83252,1,8,0:2:0:0:
161,19,83337,1,8,0:2:0:0:
207,35,83424,1,14,0:2:0:0:
256,192,83508,12,0,88423,0:2:0:0:
133,327,88508,5,8,0:2:0:0:
251,54,88677,1,8,0:2:0:0:
385,323,88847,1,8,0:2:0:0:
