osu file format v14

[General]
AudioFilename: audio.mp3
AudioLeadIn: 0
PreviewTime: 46850
Countdown: 0
SampleSet: Drum
StackLeniency: 0.5
Mode: 0
LetterboxInBreaks: 0
WidescreenStoryboard: 1

[Editor]
DistanceSpacing: 1
BeatDivisor: 4
GridSize: 32
TimelineZoom: 2.9

[Metadata]
Title:Grandeur (TV Size)
TitleUnicode:Grandeur (TV Size)
Artist:Snow Man
ArtistUnicode:Snow Man
Creator:Monstrata
Version:Normal
Source:ブラッククローバー
Tags:black clover op opening 13 thirteen anime japanese alternator pop jpop
BeatmapID:2851934
BeatmapSetID:1380176

[Difficulty]
HPDrainRate:2
CircleSize:3.5
OverallDifficulty:4
ApproachRate:5
SliderMultiplier:1
SliderTickRate:1

[Events]
//Background and Video events
0,0,"1114121.jpg",0,0
Video,-775,"black clover.mp4"
//Break Periods
//Storyboard Layer 0 (Background)
//Storyboard Layer 1 (Fail)
//Storyboard Layer 2 (Pass)
//Storyboard Layer 3 (Foreground)
//Storyboard Layer 4 (Overlay)
//Storyboard Sound Samples

[TimingPoints]
2435,468.75,4,2,1,45,1,0
2435,-100,4,2,1,45,0,0
9949,468.75,4,2,1,60,1,0
9949,-100,4,2,1,60,0,0
13699,-100,4,3,1,60,0,0
15574,-100,4,2,1,60,0,0
16863,-100,4,2,1,60,0,0
17436,468.75,4,3,1,60,1,0
17436,-100,4,3,1,60,0,0
30561,-100,4,3,1,70,0,0
32436,-100,4,2,1,60,0,0
39936,-100,4,3,1,60,0,0
46967,-100,4,3,1,80,0,0
47436,-100,4,3,1,80,0,1
62318,-100,4,3,1,80,0,0
62436,-100,4,3,1,80,0,1
84936,-100,4,2,1,60,0,0
86811,-100,4,2,1,60,0,0

[Colours]
Combo1 : 255,255,191
Combo2 : 191,255,191
Combo3 : 255,191,191
Combo4 : 255,223,191

[HitObjects]
270,108,2435,5,2,0:2:0:0:
329,187,2903,2,0,P|362:203|399:204,2,75,2|2|0,0:2|0:2|0:0,0:0:0:0:
284,210,3841,2,0,P|234:205|189:226,1,100,2|2,0:2|3:2,0:0:0:0:
168,271,4544,1,0,0:0:0:0:
194,313,4778,2,0,L|281:324,1,83.3333333333333,2|2,3:2|0:0,0:0:0:0:
326,331,5403,6,0,P|402:305|430:229,1,166.666666666667,2|2,0:2|0:2,0:0:0:0:
376,145,6653,1,2,0:2:0:0:
280,174,7122,2,0,L|265:258,2,75,2|2|0,0:2|0:2|0:0,0:0:0:0:
245,138,8060,2,0,P|195:132|148:147,1,100,0|0,3:2|3:2,0:0:0:0:
94,232,8997,6,0,L|84:315,2,75,10|10|10,3:3|3:3|3:3,0:0:0:0:
48,200,9949,6,0,L|60:97,1,100,6|10,0:0|0:0,0:0:0:0:
140,43,10886,2,0,P|185:22|233:32,1,100,8|8,0:0|0:0,0:0:0:0:
305,102,11824,1,10,0:2:0:0:
240,177,12292,2,0,L|246:230,1,50,10|2,0:0|0:0,0:0:0:0:
252,276,12761,2,0,P|286:289|324:288,2,75,10|10|10,0:0|0:0|0:0,0:0:0:0:
210,303,13699,6,0,L|108:313,1,100,4|8,0:0|0:0,0:0:0:0:
73,279,14402,1,2,0:3:0:0:
33,246,14636,2,0,P|16:200|79:113,1,150,8|8,0:3|0:3,0:0:0:0:
110,102,15574,6,0,L|101:31,2,50,6|0|2,0:0|1:0|0:0,0:0:0:0:
196,151,16511,2,0,L|207:242,1,75,2|2,0:2|0:2,0:0:0:0:
304,294,17436,6,0,P|353:309|402:297,1,100,12|8,0:0|0:0,0:0:0:0:
469,225,18373,2,0,L|473:139,1,75,10|2,0:0|0:0,0:0:0:0:
374,71,19311,6,0,P|325:56|276:68,1,100,10|10,0:0|0:0,0:0:0:0:
210,141,20248,2,0,L|206:227,2,75,10|2|2,0:0|0:0|0:0,0:0:0:0:
185,97,21186,6,0,L|78:113,1,100,10|10,0:0|0:0,0:0:0:0:
26,191,22123,2,0,P|18:228|29:300,1,100,10|8,0:0|0:0,0:0:0:0:
118,326,23061,5,10,0:0:0:0:
154,290,23295,2,0,P|198:268|247:267,1,100,2|0,0:0|0:0,0:0:0:0:
290,294,23998,2,0,L|286:351,2,50,10|2|14,0:0|0:0|0:0,0:0:0:0:
368,231,24936,6,0,L|476:224,1,100,14|10,0:0|0:0,0:0:0:0:
457,124,25873,2,0,P|476:91|482:54,2,75,10|2|0,0:0|0:0|0:0,0:0:0:0:
409,135,26811,6,0,L|301:128,1,100,10|10,0:0|0:0,0:0:0:0:
223,179,27748,2,0,P|204:211|198:248,2,75,10|2|0,0:0|0:0|0:0,0:0:0:0:
200,134,28686,6,0,P|218:101|217:29,1,100,10|10,0:0|0:0,0:0:0:0:
176,17,29389,1,2,0:0:0:0:
129,36,29623,2,0,L|54:41,1,75,8|2,0:0|0:0,0:0:0:0:
30,164,30561,6,0,P|52:196|57:261,1,100,14|8,0:0|0:0,0:0:0:0:
35,300,31264,1,8,0:0:0:0:
51,347,31498,2,0,L|150:338,1,100,8|8,0:0|0:0,0:0:0:0:
177,296,32201,2,0,L|246:290,1,50,2|12,0:0|0:3,0:0:0:0:
318,331,32904,5,8,0:3:0:0:
407,285,33373,2,0,P|421:238|415:189,1,100,8|8,0:3|0:3,0:0:0:0:
338,124,34311,2,0,P|288:130|241:115,1,100,8|8,0:3|0:3,0:0:0:0:
151,70,35248,2,0,P|103:55|54:61,1,100,8|8,0:3|0:3,0:0:0:0:
0,150,36186,5,14,0:3:0:0:
69,222,36654,2,0,L|63:304,2,75,10|2|2,0:3|0:0|0:0,0:0:0:0:
153,168,37826,5,0,0:0:0:0:
202,162,38061,2,0,L|252:157,1,50,2|2,0:0|0:0,0:0:0:0:
302,150,38529,2,0,L|307:75,2,75,10|2|2,0:3|0:0|0:0,0:0:0:0:
335,187,39467,2,0,P|393:207|441:191,1,100,8|12,0:3|0:3,0:0:0:0:
495,123,40404,5,0,1:3:0:0:
408,69,40873,2,0,P|394:35|398:-1,2,75,2|2|8,1:3|0:0|0:0,0:0:0:0:
373,104,41811,2,0,L|318:113,1,50,2|10,1:3|0:0,0:0:0:0:
275,123,42279,2,0,P|260:157|264:194,2,75,2|0|10,1:3|0:0|0:0,0:0:0:0:
193,64,43451,1,10,0:0:0:0:
143,74,43686,6,0,P|105:105|83:150,1,100,6|12,0:0|0:0,0:0:0:0:
100,197,44389,1,2,0:0:0:0:
149,207,44624,2,0,P|187:238|209:283,1,100,2|0,0:0|0:0,0:0:0:0:
304,252,45561,6,0,B|361:242|388:290|388:290|422:354|500:347|518:281|478:235,1,300,14|8,0:0|0:3,0:0:0:0:
406,170,47436,6,0,L|419:101,1,50,14|2,0:0|0:0,0:0:0:0:
425,72,47904,2,0,L|499:63,2,75,10|2|2,0:0|0:0|0:0,0:0:0:0:
387,39,48842,1,10,0:0:0:0:
287,56,49311,6,0,P|274:103|281:152,1,100,10|10,0:0|0:0,0:0:0:0:
337,236,50248,1,8,0:0:0:0:
271,312,50717,2,0,L|209:315,1,50,10|2,0:0|0:0,0:0:0:0:
179,286,51186,6,0,L|117:289,1,50,10|2,0:0|0:0,0:0:0:0:
79,294,51654,2,0,L|69:375,2,75,8|2|2,0:0|0:0|0:0,0:0:0:0:
45,256,52592,1,10,0:0:0:0:
22,158,53061,6,0,P|53:117|103:107,1,100,10|10,0:0|0:0,0:0:0:0:
186,154,53998,1,8,0:0:0:0:
228,127,54232,2,0,L|244:62,2,50,2|10|2,0:0|0:0|0:0,0:0:0:0:
270,150,54936,6,0,P|317:167|367:163,1,100,10|10,0:0|0:0,0:0:0:0:
409,136,55639,1,2,0:0:0:0:
454,155,55873,2,0,P|474:199|466:248,1,100,10|10,0:0|0:0,0:0:0:0:
429,281,56576,1,2,0:0:0:0:
379,277,56811,6,0,L|269:292,1,100,14|14,0:0|0:0,0:0:0:0:
198,232,57748,1,14,0:0:0:0:
154,257,57982,2,0,L|159:308,2,50,2|10|2,0:0|0:0|0:0,0:0:0:0:
106,239,58686,6,0,B|89:211|89:211|98:125,1,100,10|10,0:0|0:0,0:0:0:0:
103,94,59389,1,2,0:0:0:0:
113,45,59623,2,0,B|141:28|141:28|227:37,1,100,10|10,0:0|0:0,0:0:0:0:
257,43,60326,1,2,0:0:0:0:
306,51,60561,6,0,B|373:58|373:58|401:41,1,100,14|14,0:0|0:0,0:0:0:0:
462,119,61498,2,0,L|520:110,2,50,14|2|10,0:0|0:0|0:0,0:0:0:0:
380,177,62436,6,0,P|364:224|363:274,1,100,14|8,0:0|0:0,0:0:0:0:
300,353,63373,2,0,P|253:367|203:363,1,100,8|8,0:0|0:0,0:0:0:0:
165,331,64076,1,2,1:3:0:0:
160,281,64311,6,0,L|171:177,1,100,8|8,0:0|0:0,0:0:0:0:
254,127,65248,2,0,L|265:23,1,100,8|8,0:0|0:0,0:0:0:0:
310,7,65951,1,2,1:3:0:0:
356,26,66186,6,0,P|399:49|449:50,1,100,12|8,0:0|0:0,0:0:0:0:
498,137,67123,2,0,P|448:138|404:161,1,100,8|8,0:0|0:0,0:0:0:0:
373,200,67826,1,2,1:3:0:0:
387,247,68061,6,0,L|376:357,1,100,8|8,0:0|0:0,0:0:0:0:
335,374,68764,1,2,1:3:0:0:
288,356,68998,2,0,L|281:290,2,50,8|2|10,0:0|1:3|0:0,0:0:0:0:
188,368,69936,6,0,P|143:346|94:350,1,100,14|8,0:0|0:0,0:0:0:0:
41,264,70873,2,0,P|44:214|72:173,1,100,8|8,0:0|0:0,0:0:0:0:
116,149,71576,1,2,1:3:0:0:
161,170,71811,6,0,L|172:279,1,100,8|8,0:0|0:0,0:0:0:0:
270,282,72748,2,0,L|259:182,1,100,8|8,0:0|0:0,0:0:0:0:
278,135,73451,1,2,1:3:0:0:
325,118,73686,6,0,P|374:118|415:146,1,100,12|8,0:0|0:0,0:0:0:0:
486,216,74623,2,0,P|444:243|395:243,1,100,8|8,0:0|0:0,0:0:0:0:
347,230,75326,1,2,1:3:0:0:
298,242,75561,6,0,B|287:278|287:278|301:342,1,100,8|8,0:0|0:0,0:0:0:0:
256,362,76264,1,2,1:3:0:0:
208,348,76498,2,0,L|155:350,2,50,8|2|8,0:0|1:3|0:0,0:0:0:0:
189,249,77436,6,0,L|74:253,1,100,12|8,0:0|0:0,0:0:0:0:
33,169,78373,2,0,P|21:121|42:73,1,100,8|8,0:0|0:0,0:0:0:0:
74,39,79076,1,2,1:3:0:0:
121,54,79311,6,0,L|220:50,1,100,8|8,0:0|0:0,0:0:0:0:
296,116,80248,2,0,P|307:163|287:212,1,100,8|8,0:0|0:0,0:0:0:0:
247,237,80951,1,2,1:3:0:0:
199,220,81186,5,12,0:0:0:0:
256,192,81303,12,12,83061,0:0:0:0:
256,192,83178,12,2,84936,0:0:0:0:
