osu file format v14

[General]
AudioFilename: audio.mp3
AudioLeadIn: 0
PreviewTime: 46850
Countdown: 0
SampleSet: Drum
StackLeniency: 0.5
Mode: 0
LetterboxInBreaks: 0
WidescreenStoryboard: 1

[Editor]
DistanceSpacing: 1.3
BeatDivisor: 4
GridSize: 32
TimelineZoom: 2.9

[Metadata]
Title:Grandeur (TV Size)
TitleUnicode:Grandeur (TV Size)
Artist:Snow Man
ArtistUnicode:Snow Man
Creator:Monstrata
Version:Insane
Source:ブラッククローバー
Tags:black clover op opening 13 thirteen anime japanese alternator pop jpop
BeatmapID:2851933
BeatmapSetID:1380176

[Difficulty]
HPDrainRate:4
CircleSize:4
OverallDifficulty:8
ApproachRate:9
SliderMultiplier:3.2
SliderTickRate:1

[Events]
//Background and Video events
0,0,"1114121.jpg",0,0
Video,-775,"black clover.mp4"
//Break Periods
//Storyboard Layer 0 (Background)
//Storyboard Layer 1 (Fail)
//Storyboard Layer 2 (Pass)
//Storyboard Layer 3 (Foreground)
//Storyboard Layer 4 (Overlay)
//Storyboard Sound Samples

[TimingPoints]
2435,468.75,4,2,1,45,1,0
2435,-200,4,2,1,45,0,0
9949,468.75,4,2,1,60,1,0
9949,-133.333333333333,4,2,1,60,0,0
13699,-114.285714285714,4,3,1,60,0,0
15574,-100,4,2,1,60,0,0
16863,-444.444444444444,4,2,1,60,0,0
17436,468.75,4,3,1,60,1,0
17436,-133.333333333333,4,3,1,60,0,0
30561,-133.333333333333,4,3,1,70,0,0
32436,-200,4,2,1,60,0,0
39936,-114.285714285714,4,3,1,60,0,0
46967,-166.666666666667,4,3,1,80,0,0
47436,-100,4,3,1,80,0,1
62318,-100,4,3,1,80,0,0
62436,-100,4,3,1,80,0,1
84936,-133.333333333333,4,2,1,60,0,0
86811,-133.333333333333,4,2,1,60,0,0

[Colours]
Combo1 : 255,255,191
Combo2 : 191,255,191
Combo3 : 255,191,191
Combo4 : 255,223,191

[HitObjects]
131,159,2435,6,0,L|124:226,1,40,2|0,0:2|0:0,0:0:0:0:
78,267,2669,2,0,L|85:334,1,40,0|0,3:0|0:0,0:0:0:0:
160,336,2903,2,0,P|190:312|229:304,1,80,2|0,0:2|0:0,0:0:0:0:
275,232,3255,2,0,P|305:256|344:264,1,80,2|2,0:2|0:2,0:0:0:0:
445,58,3724,1,2,0:2:0:0:
445,58,3841,2,0,L|336:71,1,80,2|0,0:2|0:0,0:0:0:0:
127,20,4310,5,2,3:2:0:0:
229,152,4544,1,0,0:0:0:0:
165,306,4778,1,2,3:2:0:0:
63,174,5013,2,0,L|0:186,1,53.3333333333333,0|2,0:0|0:0,0:0:0:0:
127,20,5403,5,2,0:2:0:0:
127,20,5481,1,2,0:2:0:0:
207,58,5638,1,0,0:0:0:0:
207,58,5716,1,2,0:2:0:0:
295,30,5872,1,0,0:0:0:0:
295,30,5950,1,2,0:2:0:0:
375,68,6107,1,0,0:0:0:0:
375,68,6185,6,0,L|385:142,1,40,2|0,0:2|0:0,0:0:0:0:
316,162,6419,2,0,L|326:236,1,40,0|0,0:0|0:0,0:0:0:0:
398,234,6653,2,0,L|413:346,1,80,2|0,0:2|0:2,0:0:0:0:
181,384,7122,2,0,L|170:304,1,80,2|0,0:2|0:2,0:0:0:0:
99,255,7474,2,0,P|60:256|25:276,1,80,2|2,0:2|0:2,0:0:0:0:
121,48,7942,6,0,L|167:52,1,40,2|0,0:2|3:2,0:0:0:0:
272,177,8294,1,0,3:2:0:0:
329,19,8528,1,0,3:2:0:0:
438,147,8763,2,0,L|495:151,1,53.3333333333333,0|0,3:2|0:0,0:0:0:0:
491,151,8997,6,0,P|499:190|495:230,1,80,10|0,3:3|0:0,0:0:0:0:
422,358,9349,2,0,P|430:319|427:280,1,80,10|0,3:3|0:0,0:0:0:0:
353,239,9700,2,0,L|278:246,1,40,10|0,3:3|0:0,0:0:0:0:
87,172,9949,6,0,P|83:201|82:231,1,60.0000022888184,6|0,0:0|0:0,0:0:0:0:
200,160,10183,2,0,P|181:183|166:209,1,60.0000022888184,0|0,0:0|0:0,0:0:0:0:
254,84,10417,2,0,P|272:107|287:133,1,60.0000022888184,10|0,0:0|0:0,0:0:0:0:
367,96,10652,1,0,0:0:0:0:
367,96,10769,6,0,P|370:125|371:155,1,60.0000022888184,0|8,0:0|0:0,0:0:0:0:
462,36,11003,2,0,P|458:65|457:95,1,60.0000022888184,2|0,0:0|0:0,0:0:0:0:
452,181,11238,1,0,0:0:0:0:
452,181,11355,2,0,L|523:170,1,60.0000022888184,8|0,0:0|0:0,0:0:0:0:
401,253,11589,2,0,L|472:264,1,60.0000022888184,0|2,0:0|0:0,0:0:0:0:
312,272,11824,5,10,0:2:0:0:
312,272,11941,2,0,P|339:325|339:342,2,60.0000022888184,0|0|0,0:0|0:0|0:0,0:0:0:0:
236,222,12292,2,0,L|146:243,1,60.0000022888184,10|0,0:0|0:0,0:0:0:0:
273,140,12527,2,0,L|363:161,1,60.0000022888184,2|0,0:0|0:0,0:0:0:0:
194,30,12761,6,0,P|178:87|186:146,1,120.000004577637,10|0,0:0|0:0,0:0:0:0:
71,102,13113,1,10,0:0:0:0:
108,183,13230,2,0,L|92:265,1,60.0000022888184,8|0,0:0|0:0,0:0:0:0:
21,348,13464,2,0,L|78:329,1,60.0000022888184,10|0,0:0|0:0,0:0:0:0:
162,305,13699,6,0,P|196:300|230:309,1,70.000000667572,4|0,0:0|0:0,0:0:0:0:
324,355,13933,2,0,P|319:320|328:286,1,70.000000667572,10|0,0:0|0:0,0:0:0:0:
267,201,14167,2,0,L|375:186,1,70.000000667572,8|0,0:0|0:0,0:0:0:0:
415,121,14402,2,0,L|467:128,2,35.000000333786,2|0|0,0:3|0:0|0:0,0:0:0:0:
385,93,14636,6,0,P|373:60|371:25,1,70.000000667572,8|0,0:3|0:0,0:0:0:0:
267,37,14870,1,0,0:3:0:0:
267,37,14988,2,0,P|265:71|253:104,1,70.000000667572,2|8,0:3|0:3,0:0:0:0:
153,135,15222,1,0,0:0:0:0:
153,135,15339,2,0,P|141:102|139:67,1,70.000000667572,8|0,0:3|0:0,0:0:0:0:
59,61,15574,6,0,L|138:66,1,80,6|0,0:0|0:0,0:0:0:0:
83,216,15808,2,0,L|163:222,1,80,0|0,1:0|0:0,0:0:0:0:
349,162,16042,2,0,L|428:167,1,80,2|0,0:0|0:0,0:0:0:0:
373,317,16277,2,0,L|453:323,1,80,0|0,1:0|0:0,0:0:0:0:
250,166,16511,6,0,L|262:217,4,40,2|0|0|0|0,0:2|0:0|0:0|0:0|0:0,0:0:0:0:
255,79,16863,6,0,P|278:65|304:58,1,53.9999983520508,2|2,0:2|0:2,0:0:0:0:
474,113,17436,5,12,0:0:0:0:
474,113,17553,1,0,0:0:0:0:
474,113,17670,2,0,L|460:205,1,60.0000022888184,2|0,0:0|0:0,0:0:0:0:
398,233,17904,1,8,0:0:0:0:
398,233,18021,1,0,0:0:0:0:
398,233,18138,2,0,L|412:325,1,60.0000022888184,2|0,0:0|0:0,0:0:0:0:
318,309,18373,5,10,0:0:0:0:
314,328,18490,1,0,0:0:0:0:
311,348,18607,1,2,0:0:0:0:
308,368,18725,2,0,L|238:382,1,60.0000022888184,2|8,0:0|0:0,0:0:0:0:
174,312,18959,2,0,L|232:300,1,60.0000022888184,0|0,0:0|0:0,0:0:0:0:
260,214,19193,1,0,0:0:0:0:
260,214,19311,6,0,P|274:187|275:157,1,60.0000022888184,10|0,0:0|0:0,0:0:0:0:
208,31,19545,2,0,P|209:61|223:88,1,60.0000022888184,2|0,0:0|0:0,0:0:0:0:
130,173,19779,1,10,0:0:0:0:
130,173,19896,1,2,0:0:0:0:
130,173,20014,2,0,L|189:167,1,60.0000022888184,2|0,0:0|0:0,0:0:0:0:
72,242,20248,5,10,0:0:0:0:
137,304,20365,2,0,P|203:333|252:323,1,120.000004577637,2|2,0:0|0:0,0:0:0:0:
343,299,20717,2,0,L|332:358,1,60.0000022888184,8|0,0:0|0:0,0:0:0:0:
265,187,20951,2,0,L|276:245,1,60.0000022888184,2|0,0:0|0:0,0:0:0:0:
300,107,21186,6,0,P|366:78|415:88,1,120.000004577637,10|2,0:0|0:0,0:0:0:0:
482,140,21537,1,0,0:0:0:0:
482,140,21654,2,0,L|468:241,1,60.0000022888184,10|0,0:0|0:0,0:0:0:0:
485,289,21889,2,0,L|384:275,1,60.0000022888184,2|0,0:0|0:0,0:0:0:0:
327,232,22123,6,0,L|336:292,1,60.0000022888184,10|0,0:0|0:0,0:0:0:0:
238,215,22357,1,0,0:0:0:0:
238,215,22475,2,0,L|247:275,1,60.0000022888184,2|8,0:0|0:0,0:0:0:0:
174,327,22709,1,2,0:0:0:0:
174,327,22826,2,0,P|145:320|116:327,1,60.0000022888184,0|0,0:0|0:0,0:0:0:0:
14,225,23061,6,0,P|21:254|39:279,1,60.0000022888184,10|0,0:0|0:0,0:0:0:0:
111,125,23295,1,2,0:0:0:0:
111,125,23412,2,0,P|104:154|86:179,1,60.0000022888184,0|8,0:0|0:0,0:0:0:0:
0,67,23646,1,0,0:0:0:0:
0,67,23764,2,0,P|7:96|25:121,1,60.0000022888184,0|0,0:0|0:0,0:0:0:0:
125,2,23998,6,0,L|66:11,1,60.0000022888184,10|0,0:0|0:0,0:0:0:0:
213,31,24232,2,0,L|177:79,1,60.0000022888184,2|0,0:0|0:0,0:0:0:0:
299,1,24467,2,0,L|316:121,1,120.000004577637,14|0,0:0|0:0,0:0:0:0:
401,149,24818,1,0,0:0:0:0:
331,207,24936,6,0,L|314:288,1,60.0000022888184,14|0,0:0|0:0,0:0:0:0:
238,306,25170,2,0,L|225:247,1,60.0000022888184,2|0,0:0|0:0,0:0:0:0:
145,206,25404,2,0,L|128:287,1,60.0000022888184,10|0,0:0|0:0,0:0:0:0:
52,305,25638,2,0,L|39:246,1,60.0000022888184,2|0,0:0|0:0,0:0:0:0:
12,159,25873,5,10,0:0:0:0:
12,159,25990,2,0,P|37:141|65:131,1,60.0000022888184,2|0,0:0|0:0,0:0:0:0:
155,124,26225,2,0,P|167:96|186:74,1,60.0000022888184,2|8,0:0|0:0,0:0:0:0:
267,113,26459,2,0,P|289:168|291:228,1,120.000004577637,2|2,0:0|0:0,0:0:0:0:
379,204,26811,5,10,0:0:0:0:
356,290,26928,2,0,B|344:318|340:332|340:332|403:322|454:360,1,120.000004577637,2|0,0:0|0:0,0:0:0:0:
452,256,27279,2,0,L|526:250,1,60.0000022888184,10|0,0:0|0:0,0:0:0:0:
409,175,27514,2,0,L|469:171,1,60.0000022888184,2|0,0:0|0:0,0:0:0:0:
322,145,27748,6,0,P|362:102|369:44,1,120.000004577637,10|0,0:0|0:0,0:0:0:0:
220,58,28100,2,0,L|280:63,1,60.0000022888184,2|8,0:0|0:0,0:0:0:0:
176,136,28334,2,0,L|236:141,1,60.0000022888184,2|0,0:0|0:0,0:0:0:0:
135,54,28568,1,2,0:0:0:0:
135,54,28686,6,0,P|94:97|87:155,1,120.000004577637,10|2,0:0|0:0,0:0:0:0:
0,384,29154,2,0,P|43:343|101:336,1,120.000004577637,10|2,0:0|0:0,0:0:0:0:
157,265,29506,1,2,0:0:0:0:
189,348,29623,6,0,L|296:328,1,60.0000022888184,8|0,0:0|0:0,0:0:0:0:
343,307,29857,1,0,0:0:0:0:
343,307,29975,2,0,L|332:366,1,60.0000022888184,2|8,0:0|0:0,0:0:0:0:
428,267,30209,1,2,0:0:0:0:
428,267,30326,2,0,L|439:325,1,60.0000022888184,0|2,0:0|0:0,0:0:0:0:
318,122,30561,5,14,0:0:0:0:
310,194,30678,1,8,0:0:0:0:
301,265,30795,2,0,P|318:289|342:306,1,60.0000022888184,8|0,0:0|0:0,0:0:0:0:
216,250,31029,2,0,P|206:234|192:223,2,30.0000011444092,8|0|0,0:0|0:0|0:0,0:0:0:0:
211,297,31264,5,8,0:0:0:0:
139,289,31381,1,0,0:0:0:0:
68,280,31498,2,0,P|44:297|27:321,1,60.0000022888184,8|0,0:0|0:0,0:0:0:0:
46,153,31732,2,0,P|70:170|87:194,1,60.0000022888184,2|0,0:0|0:0,0:0:0:0:
250,109,31967,2,0,P|226:126|209:150,1,60.0000022888184,8|0,0:0|0:0,0:0:0:0:
128,45,32201,2,0,L|136:125,1,60.0000022888184,2|0,0:0|0:0,0:0:0:0:
328,13,32436,6,0,L|336:93,1,80,12|0,0:3|0:0,0:0:0:0:
136,263,32904,2,0,L|144:343,1,80,8|0,0:3|0:0,0:0:0:0:
411,353,33373,6,0,L|477:340,1,40,8|0,0:3|0:0,0:0:0:0:
434,260,33607,1,2,0:0:0:0:
434,260,33725,2,0,L|355:275,1,80,0|0,0:0|0:0,0:0:0:0:
301,213,34076,1,2,0:0:0:0:
158,121,34311,6,0,L|118:128,1,40,8|0,0:3|0:0,0:0:0:0:
29,101,34545,1,0,0:0:0:0:
29,101,34662,1,2,0:0:0:0:
29,101,34779,2,0,L|37:141,1,40,8|0,0:3|0:0,0:0:0:0:
86,206,35014,1,0,0:0:0:0:
86,206,35131,6,0,L|70:284,1,80,2|0,0:0|0:0,0:0:0:0:
129,338,35482,1,2,0:0:0:0:
270,279,35717,1,8,0:3:0:0:
411,336,35951,1,0,0:0:0:0:
430,186,36186,6,0,P|444:130|481:93,1,80,14|2,0:3|0:0,0:0:0:0:
270,279,36654,2,0,P|256:223|219:186,1,80,10|2,0:3|0:0,0:0:0:0:
148,117,37006,2,0,P|185:131|225:131,1,80,2|0,0:0|0:0,0:0:0:0:
278,77,37357,1,2,0:0:0:0:
111,47,37592,1,8,0:3:0:0:
168,206,37826,1,2,0:0:0:0:
278,77,38061,6,0,P|315:62|354:63,1,80,14|2,0:3|0:0,0:0:0:0:
437,293,38529,2,0,P|399:278|360:279,1,80,10|2,0:3|0:0,0:0:0:0:
273,378,38881,2,0,P|287:340|286:301,1,80,2|0,0:0|0:0,0:0:0:0:
247,235,39232,1,2,0:0:0:0:
68,192,39467,1,8,0:3:0:0:
68,192,39584,2,0,L|83:261,1,40,2|0,0:0|0:0,0:0:0:0:
107,118,39818,1,2,0:0:0:0:
171,165,39936,6,0,P|206:157|236:139,1,70.000000667572,12|0,0:3|0:0,0:0:0:0:
290,51,40170,2,0,P|298:85|316:116,1,70.000000667572,8|0,0:0|0:0,0:0:0:0:
293,196,40404,2,0,P|322:214|356:223,1,70.000000667572,0|0,1:3|0:0,0:0:0:0:
457,200,40638,2,0,P|438:229|429:263,1,70.000000667572,8|0,0:0|0:0,0:0:0:0:
385,372,40873,6,0,P|376:338|358:309,1,70.000000667572,2|0,1:3|0:0,0:0:0:0:
222,319,41107,1,10,0:0:0:0:
222,319,41225,2,0,P|290:328|357:308,1,140.000001335144,2|0,0:0|0:0,0:0:0:0:
194,255,41576,2,0,P|202:288|221:318,1,70.000000667572,8|0,0:0|0:0,0:0:0:0:
104,375,41811,6,0,L|131:281,1,70.000000667572,2|0,1:3|0:0,0:0:0:0:
58,243,42045,2,0,L|39:311,1,70.000000667572,10|0,0:0|0:0,0:0:0:0:
77,44,42279,2,0,L|119:187,1,140.000001335144,2|8,1:3|0:0,0:0:0:0:
163,63,42631,1,0,0:0:0:0:
163,63,42748,6,0,P|235:43|251:46,1,70.000000667572,0|0,1:3|0:0,0:0:0:0:
358,74,42982,2,0,P|323:79|293:95,1,70.000000667572,10|0,0:0|0:0,0:0:0:0:
221,198,43217,2,0,P|293:178|309:181,1,70.000000667572,0|0,1:3|0:0,0:0:0:0:
416,209,43451,2,0,P|381:213|350:229,1,70.000000667572,10|0,0:0|0:0,0:0:0:0:
314,331,43686,5,6,0:0:0:0:
335,333,43803,1,0,0:0:0:0:
356,336,43920,1,8,0:0:0:0:
377,339,44037,1,8,0:0:0:0:
398,341,44154,2,0,L|303:351,1,70.000000667572,12|0,0:0|0:0,0:0:0:0:
243,273,44389,2,0,L|148:283,1,70.000000667572,2|0,0:0|0:0,0:0:0:0:
135,178,44623,5,2,0:0:0:0:
114,180,44740,1,0,0:0:0:0:
93,183,44857,1,8,0:0:0:0:
72,185,44974,1,8,0:0:0:0:
51,187,45091,2,0,L|146:197,1,70.000000667572,12|0,0:0|0:0,0:0:0:0:
206,119,45326,2,0,L|301:129,1,70.000000667572,0|0,0:0|0:0,0:0:0:0:
378,27,45561,6,0,P|379:61|365:96,1,70.000000667572,14|0,0:0|0:0,0:0:0:0:
469,144,45795,2,0,P|467:178|482:213,1,70.000000667572,8|0,0:0|0:0,0:0:0:0:
357,222,46029,2,0,P|436:189|498:236,1,140.000001335144
424,276,46381,1,0,0:0:0:0:
424,276,46498,6,0,L|413:328,6,35.000000333786,14|0|0|0|0|0|0,0:0|0:0|0:0|0:0|0:0|0:0|0:0,0:0:0:0:
416,310,46967,6,0,L|288:330,1,95.9999970703126,8|12,0:3|0:3,0:0:0:0:
41,145,47436,6,0,P|80:146|118:158,1,80,14|0,0:0|0:0,0:0:0:0:
148,302,47670,2,0,P|148:262|161:225,1,80,2|0,0:0|0:0,0:0:0:0:
235,97,47904,2,0,P|235:137|223:175,1,80,10|0,0:0|0:0,0:0:0:0:
279,232,48139,1,2,0:0:0:0:
312,159,48256,6,0,L|489:138,1,160,2|0,0:0|0:0,0:0:0:0:
391,237,48607,2,0,L|484:264,1,80,2|0,0:0|0:0,0:0:0:0:
366,317,48842,2,0,P|350:353|321:381,1,80,10|0,0:0|0:0,0:0:0:0:
212,275,49076,2,0,P|250:284|283:306,1,80,2|0,0:0|0:0,0:0:0:0:
203,354,49311,6,0,L|213:263,1,80,10|0,0:0|0:0,0:0:0:0:
181,124,49545,2,0,L|173:204,1,80,0|0,0:0|0:0,0:0:0:0:
55,309,49779,2,0,L|259:263,1,160,10|0,0:0|0:0,0:0:0:0:
283,237,50131,1,2,0:0:0:0:
283,237,50248,6,0,P|317:256|357:257,1,80,8|0,0:0|0:0,0:0:0:0:
455,325,50482,2,0,P|436:290|436:251,1,80,0|0,0:0|0:0,0:0:0:0:
502,149,50717,2,0,P|467:169|428:170,1,80,10|0,0:0|0:0,0:0:0:0:
390,38,50951,2,0,P|371:73|371:113,1,80,2|0,0:0|0:0,0:0:0:0:
211,133,51186,6,0,L|291:123,1,80,10|0,0:0|0:0,0:0:0:0:
227,16,51420,2,0,L|147:26,1,80,2|0,0:0|0:0,0:0:0:0:
85,173,51654,2,0,L|116:100,1,80,8|0,0:0|0:0,0:0:0:0:
65,36,51889,1,2,0:0:0:0:
17,99,52006,6,0,P|47:172|41:251,1,160,2|0,0:0|0:0,0:0:0:0:
57,364,52357,2,0,P|71:327|101:302,1,80,2|0,0:0|0:0,0:0:0:0:
140,230,52592,2,0,P|170:255|184:292,1,80,10|0,0:0|0:0,0:0:0:0:
257,323,52826,2,0,P|287:297|301:260,1,80,0|0,0:0|0:0,0:0:0:0:
304,179,53061,6,0,L|429:169,1,80,10|0,0:0|0:0,0:0:0:0:
384,252,53295,2,0,L|509:242,1,80,2|0,0:0|0:0,0:0:0:0:
320,90,53529,2,0,L|445:80,1,80,10|0,0:0|0:0,0:0:0:0:
224,185,53764,1,2,0:0:0:0:
224,185,53881,1,2,0:0:0:0:
224,185,53998,2,0,L|349:175,1,80,8|0,0:0|0:0,0:0:0:0:
174,108,54232,6,0,P|173:69|156:33,1,80,2|0,0:0|0:0,0:0:0:0:
158,246,54467,2,0,P|140:281|140:321,1,80,10|0,0:0|0:0,0:0:0:0:
111,169,54701,2,0,P|76:149|36:146,1,80,2|0,0:0|0:0,0:0:0:0:
19,353,54936,1,10,0:0:0:0:
252,285,55170,5,2,0:0:0:0:
294,245,55287,1,2,0:0:0:0:
349,261,55404,1,10,0:0:0:0:
241,288,55639,5,2,0:0:0:0:
291,234,55757,1,0,0:0:0:0:
360,258,55874,1,10,0:0:0:0:
230,291,56107,5,2,0:0:0:0:
288,223,56225,1,2,0:0:0:0:
371,255,56342,1,10,0:0:0:0:
121,189,56576,5,2,0:0:0:0:
361,95,56811,1,14,0:0:0:0:
222,312,57045,1,0,0:0:0:0:
207,54,57279,6,0,P|232:139|208:222,1,160,14|0,0:0|0:0,0:0:0:0:
476,199,57748,2,0,P|461:276|486:352,1,160,14|2,0:0|0:0,0:0:0:0:
480,50,58217,6,0,P|440:55|403:70,1,80,10|0,0:0|0:0,0:0:0:0:
356,189,58451,2,0,P|350:150|336:113,1,80,2|0,0:0|0:0,0:0:0:0:
198,28,58686,1,10,0:0:0:0:
51,245,58920,5,2,0:0:0:0:
91,203,59037,1,2,0:0:0:0:
75,148,59154,1,10,0:0:0:0:
48,256,59389,5,2,0:0:0:0:
102,206,59506,1,2,0:0:0:0:
78,137,59624,1,10,0:0:0:0:
45,267,59857,5,2,0:0:0:0:
113,209,59975,1,2,0:0:0:0:
81,126,60092,1,10,0:0:0:0:
42,278,60326,5,2,0:0:0:0:
124,212,60443,1,2,0:0:0:0:
84,115,60561,1,14,0:0:0:0:
315,235,60795,5,0,0:0:0:0:
315,235,60912,1,0,0:0:0:0:
315,235,61029,2,0,L|500:204,1,160,14|0,0:0|0:0,0:0:0:0:
480,32,61498,5,14,0:0:0:0:
256,96,61732,1,2,0:0:0:0:
32,32,61967,2,0,P|93:105|90:200,1,160,10|0,0:0|0:0,0:0:0:0:
55,232,62318,1,0,0:0:0:0:
55,232,62436,6,0,B|52:259|39:277|39:277|130:241|201:291,1,160,14|2,0:0|1:3,0:0:0:0:
215,221,62787,1,0,0:0:0:0:
278,270,62904,2,0,L|298:368,1,80,8|0,0:0|0:0,0:0:0:0:
347,229,63139,2,0,L|363:308,1,80,2|0,1:3|0:0,0:0:0:0:
442,308,63373,5,8,0:0:0:0:
467,278,63490,1,2,0:0:0:0:
482,241,63607,1,2,1:3:0:0:
485,202,63724,1,2,0:0:0:0:
475,163,63842,2,0,L|352:158,1,80,8|0,0:0|0:0,0:0:0:0:
335,106,64076,2,0,L|212:101,1,80,2|0,1:3|0:0,0:0:0:0:
140,0,64311,6,0,P|131:78|182:137,1,160,8|2,0:0|1:3,0:0:0:0:
119,187,64662,1,2,0:0:0:0:
119,187,64779,2,0,P|141:296|132:315,1,80,8|0,0:0|0:0,0:0:0:0:
188,371,65014,2,0,P|195:332|217:299,1,80,2|0,1:3|0:0,0:0:0:0:
273,242,65248,5,8,0:0:0:0:
273,242,65365,1,0,0:0:0:0:
273,242,65482,2,0,L|399:249,1,80,2|0,1:3|0:0,0:0:0:0:
409,157,65717,2,0,L|329:152,1,80,8|0,0:0|0:0,0:0:0:0:
269,61,65951,2,0,L|395:68,1,80,2|0,1:3|0:0,0:0:0:0:
423,22,66186,6,0,P|489:60|496:137,1,160,12|2,0:0|1:3,0:0:0:0:
473,213,66537,1,2,0:0:0:0:
444,287,66654,2,0,P|456:328|479:368,1,80,8|0,0:0|0:0,0:0:0:0:
371,259,66889,2,0,P|358:217|336:178,1,80,2|0,1:3|0:0,0:0:0:0:
308,312,67123,5,8,0:0:0:0:
274,331,67240,1,2,0:0:0:0:
235,336,67357,1,2,1:3:0:0:
197,324,67474,1,2,0:0:0:0:
167,298,67592,2,0,P|127:297|90:312,1,80,8|0,0:0|0:0,0:0:0:0:
0,284,67826,2,0,P|15:320|14:360,1,80,2|0,1:3|0:0,0:0:0:0:
70,153,68061,6,0,L|62:251,1,80,8|0,0:0|0:0,0:0:0:0:
179,114,68295,1,2,1:3:0:0:
179,114,68412,1,2,0:0:0:0:
179,114,68529,2,0,L|187:212,1,80,8|0,0:0|0:0,0:0:0:0:
252,238,68764,1,2,1:3:0:0:
318,193,68881,1,2,0:0:0:0:
381,241,68998,6,0,L|367:338,1,80,8|0,0:0|0:0,0:0:0:0:
290,331,69232,2,0,L|387:317,1,80,2|0,1:3|0:0,0:0:0:0:
440,356,69467,1,10,0:0:0:0:
473,335,69584,1,0,0:0:0:0:
494,301,69701,1,2,1:3:0:0:
500,262,69818,1,0,0:0:0:0:
489,224,69936,6,0,P|469:132|507:85,1,160,14|2,0:0|1:3,0:0:0:0:
451,27,70287,1,2,0:0:0:0:
451,27,70404,2,0,L|325:44,1,80,8|0,0:0|0:0,0:0:0:0:
348,114,70639,2,0,L|222:97,1,80,2|0,1:3|0:0,0:0:0:0:
208,48,70873,5,8,0:0:0:0:
169,52,70990,1,2,0:0:0:0:
133,69,71107,1,2,1:3:0:0:
105,98,71224,1,2,0:0:0:0:
88,134,71342,2,0,L|107:216,1,80,8|0,0:0|0:0,0:0:0:0:
185,218,71576,2,0,L|166:295,1,80,2|0,1:3|0:0,0:0:0:0:
14,318,71811,6,0,P|87:288|166:295,1,160,8|2,0:0|1:3,0:0:0:0:
237,331,72162,1,2,0:0:0:0:
237,331,72279,2,0,P|273:346|313:345,1,80,8|0,0:0|0:0,0:0:0:0:
374,293,72514,2,0,P|410:277|450:278,1,80,2|0,1:3|0:0,0:0:0:0:
466,200,72748,5,8,0:0:0:0:
440,169,72865,1,2,0:0:0:0:
430,131,72982,1,2,1:3:0:0:
436,91,73099,1,2,0:0:0:0:
458,58,73217,2,0,L|337:77,1,80,8|0,0:0|0:0,0:0:0:0:
286,156,73451,2,0,L|299:77,1,80,2|0,1:3|0:0,0:0:0:0:
102,11,73686,6,0,P|207:59|214:128,1,160,12|2,0:0|1:3,0:0:0:0:
161,150,74037,1,2,0:0:0:0:
86,117,74154,2,0,P|80:156|93:193,1,80,8|0,0:0|0:0,0:0:0:0:
156,307,74389,2,0,P|150:268|163:231,1,80,2|0,1:3|0:0,0:0:0:0:
233,193,74623,5,8,0:0:0:0:
269,177,74740,1,2,0:0:0:0:
308,182,74857,1,2,1:3:0:0:
340,205,74974,1,2,0:0:0:0:
357,241,75092,2,0,L|339:348,1,80,8|0,0:0|0:0,0:0:0:0:
270,352,75326,2,0,L|249:275,1,80,2|0,1:3|0:0,0:0:0:0:
106,216,75561,6,0,P|146:213|183:225,1,80,8|0,0:0|0:0,0:0:0:0:
280,104,75795,1,2,1:3:0:0:
280,104,75912,1,2,0:0:0:0:
280,104,76029,2,0,P|244:121|217:151,1,80,8|0,0:0|0:0,0:0:0:0:
100,38,76264,1,2,1:3:0:0:
100,38,76381,1,2,0:0:0:0:
100,38,76498,6,0,P|122:70|130:109,1,80,8|0,0:0|0:0,0:0:0:0:
0,194,76732,2,0,P|33:172|72:164,1,80,2|0,1:3|0:0,0:0:0:0:
83,354,76967,1,8,0:0:0:0:
76,315,77084,1,0,0:0:0:0:
84,277,77201,1,2,1:3:0:0:
107,244,77318,1,0,0:0:0:0:
140,222,77436,6,0,B|192:208|238:225|238:225|205:249|207:310,1,160,12|2,0:0|1:3,0:0:0:0:
287,290,77787,1,2,0:0:0:0:
342,347,77904,2,0,L|452:338,1,80,8|0,0:0|0:0,0:0:0:0:
364,262,78139,2,0,L|443:255,1,80,2|0,1:3|0:0,0:0:0:0:
301,209,78373,5,8,0:0:0:0:
278,176,78490,1,2,0:0:0:0:
272,136,78607,1,2,1:3:0:0:
282,98,78724,1,2,0:0:0:0:
308,68,78842,2,0,P|394:96|408:118,1,80,8|0,0:0|0:0,0:0:0:0:
234,32,79076,2,0,P|198:49|158:49,1,80,2|2,1:3|0:0,0:0:0:0:
85,177,79311,6,0,L|91:98,1,80,8|0,0:0|0:0,0:0:0:0:
153,303,79545,1,2,1:3:0:0:
153,303,79662,1,2,0:0:0:0:
153,303,79779,2,0,L|146:381,1,80,8|0,0:0|0:0,0:0:0:0:
281,275,80014,2,0,L|359:260,1,80,2|0,1:3|0:0,0:0:0:0:
419,124,80248,5,8,0:0:0:0:
388,149,80365,1,2,0:0:0:0:
367,182,80482,1,2,1:3:0:0:
357,221,80599,1,2,0:0:0:0:
359,260,80717,2,0,P|442:286|476:278,1,80,8|0,0:0|0:0,0:0:0:0:
266,374,80951,2,0,P|349:348|383:356,1,80,2|2,1:3|0:0,0:0:0:0:
279,196,81186,6,0,L|265:308,1,80,12|0,0:0|0:0,0:0:0:0:
143,344,81420,1,2,1:3:0:0:
143,344,81537,1,0,0:0:0:0:
143,344,81654,2,0,L|153:265,1,80,8|0,0:0|0:0,0:0:0:0:
26,218,81889,2,0,L|104:200,1,80,2|0,1:3|0:0,0:0:0:0:
146,70,82123,5,8,0:0:0:0:
173,41,82240,1,0,0:0:0:0:
209,26,82357,1,2,1:3:0:0:
249,26,82474,1,0,0:0:0:0:
285,42,82591,5,8,0:0:0:0:
262,85,82709,1,0,0:0:0:0:
296,119,82826,1,2,1:3:0:0:
340,97,82944,1,0,0:0:0:0:
332,50,83061,5,12,0:0:0:0:
414,220,83295,5,0,1:0:0:0:
414,220,83412,1,0,1:0:0:0:
414,220,83529,1,0,1:0:0:0:
277,351,83764,5,0,1:0:0:0:
277,351,83881,1,0,0:0:0:0:
277,351,83998,1,0,1:0:0:0:
111,262,84232,5,0,0:0:0:0:
111,262,84349,1,0,0:0:0:0:
111,262,84466,1,8,0:0:0:0:
144,75,84701,5,8,0:0:0:0:
332,50,84936,6,0,P|316:140|296:177,1,120.000004577637,2|0,0:0|0:0,0:0:0:0:
111,262,85404,2,0,P|88:206|82:147,1,120.000004577637,2|0,0:0|0:0,0:0:0:0:
144,75,85795,1,2,0:0:0:0:
303,164,86029,5,0,0:0:0:0:
303,164,86107,1,2,1:2:0:0:
385,138,86264,5,0,0:0:0:0:
385,138,86342,1,8,0:3:0:0:
430,211,86498,5,0,0:0:0:0:
430,211,86576,1,2,0:0:0:0:
512,185,86733,5,0,0:0:0:0:
512,185,86811,1,6,0:0:0:0:
