osu file format v14

[General]
AudioFilename: audio.mp3
AudioLeadIn: 0
PreviewTime: 46850
Countdown: 0
SampleSet: Drum
StackLeniency: 0.5
Mode: 0
LetterboxInBreaks: 0
WidescreenStoryboard: 1

[Editor]
DistanceSpacing: 1
BeatDivisor: 8
GridSize: 32
TimelineZoom: 2.9

[Metadata]
Title:Grandeur (TV Size)
TitleUnicode:Grandeur (TV Size)
Artist:Snow Man
ArtistUnicode:Snow Man
Creator:Monstrata
Version:Grimoire
Source:ブラッククローバー
Tags:black clover op opening 13 thirteen anime japanese alternator pop jpop
BeatmapID:2851929
BeatmapSetID:1380176

[Difficulty]
HPDrainRate:4
CircleSize:4
OverallDifficulty:8.5
ApproachRate:9.3
SliderMultiplier:3.5
SliderTickRate:1

[Events]
//Background and Video events
0,0,"1114121.jpg",0,0
Video,-775,"black clover.mp4"
//Break Periods
//Storyboard Layer 0 (Background)
//Storyboard Layer 1 (Fail)
//Storyboard Layer 2 (Pass)
//Storyboard Layer 3 (Foreground)
//Storyboard Layer 4 (Overlay)
//Storyboard Sound Samples

[TimingPoints]
2435,468.75,4,2,1,45,1,0
2435,-200,4,2,1,45,0,0
9949,468.75,4,2,1,60,1,0
9949,-133.333333333333,4,2,1,60,0,0
13699,-114.285714285714,4,3,1,60,0,0
15574,-100,4,2,1,60,0,0
16863,-675.675675675676,4,2,1,60,0,0
17436,468.75,4,3,1,60,1,0
17436,-133.333333333333,4,3,1,60,0,0
30561,-133.333333333333,4,3,1,70,0,0
32436,-200,4,2,1,60,0,0
39936,-114.285714285714,4,3,1,60,0,0
46967,-166.666666666667,4,3,1,80,0,0
47436,-100,4,3,1,80,0,1
62318,-100,4,3,1,80,0,0
62436,-100,4,3,1,80,0,1
84936,-133.333333333333,4,2,1,60,0,0
86811,-133.333333333333,4,2,1,60,0,0

[Colours]
Combo1 : 255,255,191
Combo2 : 191,255,191
Combo3 : 255,191,191
Combo4 : 255,223,191

[HitObjects]
198,340,2435,6,0,L|190:406,1,43.75,2|0,0:2|0:0,0:0:0:0:
320,288,2669,1,0,3:0:0:0:
320,288,2786,1,0,0:0:0:0:
320,288,2903,2,0,L|328:361,1,43.75,2|0,0:2|0:0,0:0:0:0:
193,205,3138,1,0,0:0:0:0:
193,205,3255,2,0,L|185:271,1,43.75,2|0,0:2|0:0,0:0:0:0:
347,165,3489,2,0,L|352:208,1,43.75,2|0,0:2|0:0,0:0:0:0:
203,118,3724,1,2,0:2:0:0:
203,118,3841,2,0,L|190:222,1,87.5,2|0,0:2|0:0,0:0:0:0:
311,34,4192,5,0,0:0:0:0:
311,34,4310,2,0,L|368:24,1,43.75,2|0,3:2|0:0,0:0:0:0:
276,251,4544,1,0,0:0:0:0:
197,41,4778,1,2,3:2:0:0:
143,274,5013,2,0,L|67:287,1,58.3333333333333,0|2,0:0|0:0,0:0:0:0:
219,207,5403,5,2,0:2:0:0:
219,207,5481,1,2,0:2:0:0:
178,114,5638,5,0,0:0:0:0:
178,114,5716,1,2,0:2:0:0:
77,123,5872,5,0,0:0:0:0:
77,123,5950,1,2,0:2:0:0:
55,222,6107,5,0,0:0:0:0:
55,222,6185,2,0,L|68:284,1,43.75,2|0,0:2|0:0,0:0:0:0:
219,207,6419,2,0,L|206:269,1,43.75,0|0,0:0|0:0,0:0:0:0:
338,147,6653,2,0,L|356:233,1,87.5,2|0,0:2|0:2,0:0:0:0:
503,63,7122,2,0,L|494:106,1,43.75,2|0,0:2|0:0,0:0:0:0:
411,75,7356,1,0,0:2:0:0:
411,75,7474,2,0,L|428:160,1,87.5,2|2,0:2|0:2,0:0:0:0:
113,57,7942,5,2,0:2:0:0:
113,57,8060,2,0,L|55:52,1,43.75,0|0,3:2|0:0,0:0:0:0:
254,191,8294,1,0,3:2:0:0:
334,15,8528,1,0,3:2:0:0:
398,326,8763,2,0,L|481:334,1,58.3333333333333,0|0,3:2|0:0,0:0:0:0:
456,331,8997,6,0,P|459:276|442:233,1,87.5,10|0,3:3|0:0,0:0:0:0:
392,100,9349,2,0,P|380:142|385:185,1,87.5,10|0,3:3|0:0,0:0:0:0:
269,241,9700,2,0,L|338:225,1,43.75,10|0,3:3|0:0,0:0:0:0:
101,76,9949,6,0,P|91:114|86:176,1,65.6250025033952,6|0,0:0|0:0,0:0:0:0:
42,216,10183,2,0,P|74:223|107:229,1,65.6250025033952,0|0,0:0|0:0,0:0:0:0:
198,237,10417,2,0,P|205:268|210:301,1,65.6250025033952,10|0,0:0|0:0,0:0:0:0:
135,384,10652,1,0,0:0:0:0:
135,384,10769,2,0,P|127:352|122:319,1,65.6250025033952,0|8,0:0|0:0,0:0:0:0:
288,340,11003,6,0,L|384:351,1,65.6250025033952,2|0,0:0|0:0,0:0:0:0:
403,204,11238,1,0,0:0:0:0:
403,204,11355,2,0,L|499:193,1,65.6250025033952,8|0,0:0|0:0,0:0:0:0:
325,264,11589,2,0,L|314:168,1,65.6250025033952,0|2,0:0|0:0,0:0:0:0:
353,63,11824,5,10,0:2:0:0:
353,63,11941,2,0,L|360:128,2,65.6250025033952,0|0|0,0:0|0:0|0:0,0:0:0:0:
265,23,12292,2,0,P|235:10|202:9,1,65.6250025033952,10|0,0:0|0:0,0:0:0:0:
74,85,12527,2,0,P|103:72|136:71,1,65.6250025033952,2|0,0:0|0:0,0:0:0:0:
236,230,12761,6,0,P|240:165|218:104,1,131.25000500679,10|0,0:0|0:0,0:0:0:0:
370,36,13113,1,10,0:0:0:0:
333,108,13230,2,0,P|320:137|319:170,1,65.6250025033952,8|0,0:0|0:0,0:0:0:0:
433,275,13464,2,0,P|414:249|386:233,1,65.6250025033952,10|0,0:0|0:0,0:0:0:0:
280,322,13699,6,0,L|388:312,1,76.5625007301569,4|0,0:0|0:0,0:0:0:0:
197,223,13933,2,0,L|120:230,1,76.5625007301569,10|0,0:0|0:0,0:0:0:0:
49,370,14167,2,0,L|81:300,1,76.5625007301569,8|0,0:0|0:0,0:0:0:0:
11,190,14402,2,0,L|51:246,2,38.2812503650784,2|0|0,0:3|0:0|0:0,0:0:0:0:
7,152,14636,6,0,P|32:124|68:111,1,76.5625007301569,8|0,0:3|0:0,0:0:0:0:
134,48,14870,1,0,0:3:0:0:
187,123,14988,2,0,P|212:150|248:163,1,76.5625007301569,2|8,0:3|0:3,0:0:0:0:
312,98,15222,1,0,0:0:0:0:
393,138,15339,1,8,0:3:0:0:
379,227,15457,1,0,0:0:0:0:
460,267,15574,6,0,L|475:361,1,87.5,6|0,0:0|0:0,0:0:0:0:
257,250,15808,2,0,L|272:344,1,87.5,0|0,1:0|0:0,0:0:0:0:
365,140,16042,2,0,L|380:234,1,87.5,2|0,0:0|0:0,0:0:0:0:
162,123,16276,2,0,L|177:217,1,87.5,0|0,1:0|0:0,0:0:0:0:
276,55,16511,6,0,L|283:99,4,43.75,2|0|0|0|0,0:2|0:0|0:0|0:0|0:0,0:0:0:0:
74,42,16863,6,0,L|80:81,1,38.8500009484863,2|0,0:2|0:0,0:0:0:0:
15,336,17436,5,12,0:0:0:0:
15,336,17553,1,0,0:0:0:0:
15,336,17670,2,0,P|44:322|76:314,1,65.6250025033952,2|0,0:0|0:0,0:0:0:0:
120,241,17904,5,8,0:0:0:0:
120,241,18021,1,0,0:0:0:0:
120,241,18138,2,0,P|149:255|181:263,1,65.6250025033952,2|0,0:0|0:0,0:0:0:0:
230,194,18373,5,10,0:0:0:0:
270,179,18490,1,0,0:0:0:0:
312,188,18607,1,2,0:0:0:0:
344,218,18725,2,0,L|347:283,1,65.6250025033952,2|8,0:0|0:0,0:0:0:0:
423,322,18959,2,0,P|462:269|465:185,1,131.25000500679,0|0,0:0|0:0,0:0:0:0:
403,84,19311,6,0,P|398:116|404:149,1,65.6250025033952,10|0,0:0|0:0,0:0:0:0:
320,29,19545,2,0,P|325:61|320:94,1,65.6250025033952,2|0,0:0|0:0,0:0:0:0:
245,136,19779,1,10,0:0:0:0:
245,136,19896,1,2,0:0:0:0:
245,136,20014,2,0,L|137:150,1,65.6250025033952,2|0,0:0|0:0,0:0:0:0:
58,87,20248,5,10,0:0:0:0:
58,87,20365,2,0,L|124:79,1,65.6250025033952,2|0,0:0|0:0,0:0:0:0:
91,169,20600,2,0,P|113:192|122:223,1,65.6250025033952,2|8,0:0|0:0,0:0:0:0:
7,295,20834,1,0,0:0:0:0:
7,295,20951,2,0,P|17:264|39:240,1,65.6250025033952,2|0,0:0|0:0,0:0:0:0:
93,306,21186,6,0,P|157:304|204:255,1,131.25000500679,10|2,0:0|0:0,0:0:0:0:
248,187,21537,1,0,0:0:0:0:
291,259,21654,2,0,P|321:249|354:245,1,65.6250025033952,10|0,0:0|0:0,0:0:0:0:
423,194,21889,2,0,P|433:224|437:257,1,65.6250025033952,2|0,0:0|0:0,0:0:0:0:
358,99,22123,6,0,P|347:129|343:162,1,65.6250025033952,10|0,0:0|0:0,0:0:0:0:
421,37,22357,1,0,0:0:0:0:
421,37,22475,2,0,P|453:40|484:51,1,65.6250025033952,2|8,0:0|0:0,0:0:0:0:
358,99,22709,2,0,P|325:102|294:113,1,65.6250025033952,2|0,0:0|0:0,0:0:0:0:
215,80,22943,1,0,0:0:0:0:
166,198,23061,6,0,L|231:205,1,65.6250025033952,10|0,0:0|0:0,0:0:0:0:
315,217,23295,1,2,0:0:0:0:
315,217,23412,2,0,P|329:246|335:278,1,65.6250025033952,0|8,0:0|0:0,0:0:0:0:
261,320,23646,1,0,0:0:0:0:
261,320,23763,2,0,P|246:349|240:381,1,65.6250025033952,0|0,0:0|0:0,0:0:0:0:
164,342,23998,6,0,L|98:349,1,65.6250025033952,10|0,0:0|0:0,0:0:0:0:
44,271,24232,2,0,L|110:264,1,65.6250025033952,2|0,0:0|0:0,0:0:0:0:
117,141,24467,2,0,P|133:203|109:263,1,131.25000500679,14|0,0:0|0:0,0:0:0:0:
208,163,24818,1,0,0:0:0:0:
248,239,24936,6,0,P|278:249|311:249,1,65.6250025033952,14|0,0:0|0:0,0:0:0:0:
400,142,25170,2,0,P|389:172|389:205,1,65.6250025033952,2|0,0:0|0:0,0:0:0:0:
486,293,25404,2,0,P|486:260|476:230,1,65.6250025033952,10|0,0:0|0:0,0:0:0:0:
344,331,25639,2,0,L|427:318,1,65.6250025033952,2|0,0:0|0:0,0:0:0:0:
248,239,25873,5,10,0:0:0:0:
257,319,25990,2,0,L|264:385,1,65.6250025033952,2|0,0:0|0:0,0:0:0:0:
175,293,26225,2,0,L|168:359,1,65.6250025033952,2|8,0:0|0:0,0:0:0:0:
76,252,26459,2,0,L|89:382,1,131.25000500679,2|2,0:0|0:0,0:0:0:0:
149,207,26811,5,10,0:0:0:0:
149,207,26928,2,0,P|213:217|274:197,1,131.25000500679,2|0,0:0|0:0,0:0:0:0:
342,88,27279,1,10,0:0:0:0:
342,88,27396,1,0,0:0:0:0:
342,88,27514,2,0,L|348:154,1,65.6250025033952,2|0,0:0|0:0,0:0:0:0:
351,262,27748,6,0,L|417:257,1,65.6250025033952,10|0,0:0|0:0,0:0:0:0:
312,372,27982,1,0,0:0:0:0:
312,372,28100,2,0,L|246:377,1,65.6250025033952,2|8,0:0|0:0,0:0:0:0:
180,280,28334,2,0,P|235:314|246:377,1,131.25000500679,2|2,0:0|0:0,0:0:0:0:
87,384,28686,6,0,L|103:216,1,131.25000500679,10|2,0:0|0:0,0:0:0:0:
425,0,29154,2,0,L|409:168,1,131.25000500679,10|2,0:0|0:0,0:0:0:0:
330,103,29506,1,2,0:0:0:0:
324,38,29623,6,0,L|331:104,1,65.6250025033952,8|0,0:0|0:0,0:0:0:0:
187,38,29857,1,0,0:0:0:0:
187,38,29975,2,0,L|181:104,1,65.6250025033952,2|8,0:0|0:0,0:0:0:0:
125,168,30209,1,2,0:0:0:0:
125,168,30326,2,0,L|59:174,1,65.6250025033952,0|2,0:0|0:0,0:0:0:0:
11,309,30561,5,14,0:0:0:0:
81,261,30678,1,8,0:0:0:0:
161,287,30795,2,0,P|177:315|184:348,1,65.6250025033952,8|0,0:0|0:0,0:0:0:0:
247,192,31029,2,0,P|248:176|254:161,2,32.8125012516976,8|0|0,0:0|0:0|0:0,0:0:0:0:
301,263,31264,1,8,0:0:0:0:
371,215,31381,1,0,0:0:0:0:
446,254,31498,6,0,P|449:287|435:326,1,65.6250025033952,8|0,0:0|0:0,0:0:0:0:
361,66,31732,2,0,P|351:97|355:130,1,65.6250025033952,2|0,0:0|0:0,0:0:0:0:
183,183,31967,2,0,L|255:194,1,65.6250025033952,8|0,0:0|0:0,0:0:0:0:
44,44,32201,2,0,L|116:33,1,65.6250025033952,2|0,0:0|0:0,0:0:0:0:
33,290,32436,6,0,P|77:293|113:316,1,87.5,12|0,0:3|0:0,0:0:0:0:
391,276,32904,2,0,P|427:299|470:302,1,87.5,8|0,0:3|0:0,0:0:0:0:
482,28,33373,6,0,L|460:138,1,87.5,8|2,0:3|0:0,0:0:0:0:
362,90,33725,2,0,L|379:175,1,87.5,0|0,0:0|0:0,0:0:0:0:
278,45,34076,2,0,L|266:104,1,43.75,2|0,0:0|0:0,0:0:0:0:
109,123,34311,6,0,P|139:92|182:83,1,87.5,8|0,0:3|0:0,0:0:0:0:
180,170,34662,1,2,0:0:0:0:
214,249,34779,2,0,L|320:242,1,87.5,8|0,0:3|0:0,0:0:0:0:
389,237,35131,1,2,0:0:0:0:
389,237,35248,6,0,L|381:308,1,43.75,8|0,0:3|0:0,0:0:0:0:
375,366,35482,1,2,0:0:0:0:
476,231,35717,2,0,L|468:302,1,43.75,8|0,0:3|0:0,0:0:0:0:
462,360,35951,1,0,0:0:0:0:
443,72,36186,6,0,L|429:193,1,87.5,14|2,0:3|0:0,0:0:0:0:
107,41,36654,2,0,L|93:162,1,87.5,10|2,0:3|0:0,0:0:0:0:
36,190,37006,2,0,P|53:203|134:205,1,87.5,2|0,0:0|0:0,0:0:0:0:
198,190,37357,2,0,P|154:190|117:211,1,87.5,2|8,0:0|0:3,0:0:0:0:
256,382,37826,1,2,0:0:0:0:
315,189,38061,6,0,P|358:189|395:210,1,87.5,14|2,0:3|0:0,0:0:0:0:
181,2,38529,2,0,P|202:39|202:82,1,87.5,10|2,0:3|0:0,0:0:0:0:
143,142,38881,2,0,P|164:104|202:83,1,87.5,2|0,0:0|0:0,0:0:0:0:
224,166,39232,2,0,L|226:209,1,43.75,2|0,0:0|0:0,0:0:0:0:
112,247,39467,5,8,0:3:0:0:
112,247,39584,2,0,L|190:258,1,43.75,2|0,0:0|0:0,0:0:0:0:
229,297,39818,1,2,0:0:0:0:
204,383,39936,6,0,L|282:372,1,76.5625007301569,12|0,0:3|0:0,0:0:0:0:
401,312,40170,2,0,L|326:302,1,76.5625007301569,8|0,0:0|0:0,0:0:0:0:
258,158,40404,2,0,P|278:191|284:229,1,76.5625007301569,0|0,1:3|0:0,0:0:0:0:
426,99,40639,2,0,P|406:131|400:169,1,76.5625007301569,8|0,0:0|0:0,0:0:0:0:
316,32,40873,6,0,L|327:110,1,76.5625007301569,2|0,1:3|0:0,0:0:0:0:
167,80,41107,1,10,0:0:0:0:
167,80,41225,2,0,L|178:158,1,76.5625007301569,2|0,0:0|1:3,0:0:0:0:
21,17,41459,1,0,0:0:0:0:
21,17,41577,2,0,L|32:95,1,76.5625007301569,8|0,0:0|0:0,0:0:0:0:
51,225,41811,6,0,P|61:188|84:158,1,76.5625007301569,2|0,1:3|0:0,0:0:0:0:
171,297,42045,2,0,P|160:260|137:230,1,76.5625007301569,10|0,0:0|0:0,0:0:0:0:
11,311,42279,2,0,L|100:304,1,76.5625007301569,2|2,1:3|0:0,0:0:0:0:
218,370,42514,1,8,0:0:0:0:
261,292,42631,6,0,P|336:300|396:346,1,153.125001460314,0|0,0:0|0:0,0:0:0:0:
392,176,42982,2,0,P|360:197|324:210,1,76.5625007301569,10|0,0:0|0:0,0:0:0:0:
171,164,43217,2,0,P|205:180|242:187,1,76.5625007301569,0|0,1:3|0:0,0:0:0:0:
301,68,43451,2,0,P|269:89|233:102,1,76.5625007301569,10|0,0:0|0:0,0:0:0:0:
51,107,43686,5,6,0:0:0:0:
28,61,43803,1,0,0:0:0:0:
64,25,43920,1,8,0:0:0:0:
109,48,44037,1,8,0:0:0:0:
100,99,44154,2,0,L|-12:119,1,76.5625007301569,12|0,0:0|0:0,0:0:0:0:
5,233,44389,2,0,L|80:219,1,76.5625007301569,2|0,0:0|0:0,0:0:0:0:
235,209,44623,5,2,0:0:0:0:
196,174,44740,1,0,0:0:0:0:
152,199,44857,1,8,0:0:0:0:
163,250,44974,1,8,0:0:0:0:
214,254,45092,2,0,P|231:288|234:326,1,76.5625007301569,12|0,0:0|0:0,0:0:0:0:
369,208,45326,2,0,P|352:242|349:280,1,76.5625007301569
294,101,45561,6,0,L|278:176,1,76.5625007301569,14|0,0:0|0:0,0:0:0:0:
434,45,45795,2,0,L|450:120,1,76.5625007301569,8|0,0:0|0:0,0:0:0:0:
246,26,46029,2,0,L|279:184,1,153.125001460314
171,77,46381,1,0,0:0:0:0:
163,158,46498,6,0,L|105:167,7,38.2812503650784,14|0|0|0|0|0|0|0,0:0|0:0|0:0|0:0|0:0|0:0|0:0|0:0,0:0:0:0:
163,158,46967,6,0,L|146:281,1,104.999996795654,8|12,0:3|0:3,0:0:0:0:
128,62,47436,6,0,P|171:55|212:71,1,87.5,14|0,0:0|0:0,0:0:0:0:
364,36,47670,2,0,P|324:51|297:85,1,87.5,2|0,0:0|0:0,0:0:0:0:
257,240,47904,2,0,L|244:154,1,87.5,10|0,0:0|0:0,0:0:0:0:
43,128,48139,1,2,0:0:0:0:
128,62,48256,6,0,L|158:256,1,175,2|0,0:0|0:0,0:0:0:0:
66,347,48607,2,0,P|105:329|149:329,1,87.5,2|0,0:0|0:0,0:0:0:0:
257,240,48842,2,0,P|239:279|239:323,1,87.5,10|0,0:0|0:0,0:0:0:0:
346,384,49076,2,0,P|345:340|328:300,1,87.5,2|0,0:0|0:0,0:0:0:0:
325,126,49311,6,0,L|448:149,1,87.5,10|0,0:0|0:0,0:0:0:0:
392,237,49545,2,0,L|515:214,1,87.5
270,46,49779,2,0,P|302:126|299:213,1,175,10|0,0:0|0:0,0:0:0:0:
193,85,50131,1,2,0:0:0:0:
150,160,50248,6,0,P|137:202|137:246,1,87.5,8|0,0:0|0:0,0:0:0:0:
45,86,50482,2,0,P|44:129|57:171,1,87.5,0|0,0:0|0:0,0:0:0:0:
51,262,50717,2,0,L|149:243,1,87.5,10|0,0:0|0:0,0:0:0:0:
290,124,50951,2,0,L|261:206,1,87.5,2|0,0:0|0:0,0:0:0:0:
374,297,51186,6,0,L|472:278,1,87.5,10|0,0:0|0:0,0:0:0:0:
375,107,51420,2,0,L|289:123,1,87.5,2|0,0:0|0:0,0:0:0:0:
153,331,51654,2,0,L|136:245,1,87.5,8|0,0:0|0:0,0:0:0:0:
102,73,51889,1,2,0:0:0:0:
33,175,52006,6,0,L|224:137,1,175,2|0,0:0|0:0,0:0:0:0:
351,68,52357,2,0,P|311:86|288:122,1,87.5,2|0,0:0|0:0,0:0:0:0:
280,288,52592,2,0,P|283:245|264:207,1,87.5,10|0,0:0|0:0,0:0:0:0:
204,141,52826,2,0,P|164:159|141:195,1,87.5,0|0,0:0|0:0,0:0:0:0:
84,319,53061,6,0,L|170:305,1,87.5,10|0,0:0|0:0,0:0:0:0:
294,374,53295,2,0,L|280:288,1,87.5,2|0,0:0|0:0,0:0:0:0:
423,222,53529,2,0,L|437:308,1,87.5,10|0,0:0|0:0,0:0:0:0:
317,125,53764,1,2,0:0:0:0:
317,125,53881,1,2,0:0:0:0:
317,125,53998,2,0,L|331:211,1,87.5,8|0,0:0|0:0,0:0:0:0:
400,107,54232,6,0,P|439:85|481:74,1,87.5,2|0,0:0|0:0,0:0:0:0:
241,58,54467,2,0,P|283:46|321:25,1,87.5,10|0,0:0|0:0,0:0:0:0:
88,165,54701,2,0,P|126:143|168:132,1,87.5,2|0,0:0|0:0,0:0:0:0:
0,45,54936,5,10,0:0:0:0:
243,259,55170,5,2,0:0:0:0:
294,199,55287,1,2,0:0:0:0:
268,124,55404,1,10,0:0:0:0:
241,274,55639,5,2,0:0:0:0:
308,201,55756,1,0,0:0:0:0:
271,110,55873,1,10,0:0:0:0:
238,288,56107,5,2,0:0:0:0:
322,203,56225,1,2,0:0:0:0:
274,96,56342,1,10,0:0:0:0:
75,276,56576,5,2,0:0:0:0:
437,108,56811,1,14,0:0:0:0:
437,108,57045,6,0,P|454:201|454:219,1,87.5,0|0,0:0|0:0,0:0:0:0:
319,310,57279,2,0,P|402:285|489:275,1,175,14|0,0:0|0:0,0:0:0:0:
112,107,57748,1,14,0:0:0:0:
112,107,57982,6,0,P|71:88|28:81,1,87.5,2|0,0:0|0:0,0:0:0:0:
273,25,58217,2,0,P|230:33|190:50,1,87.5,10|0,0:0|0:0,0:0:0:0:
427,136,58451,2,0,P|387:117|344:110,1,87.5,2|0,0:0|0:0,0:0:0:0:
504,9,58686,5,10,0:0:0:0:
218,222,58920,5,2,0:0:0:0:
245,143,59037,1,2,0:0:0:0:
300,207,59154,1,10,0:0:0:0:
203,234,59389,5,2,0:0:0:0:
242,124,59506,1,2,0:0:0:0:
318,214,59623,1,10,0:0:0:0:
188,245,59857,5,2,0:0:0:0:
241,105,59975,1,2,0:0:0:0:
336,222,60092,1,10,0:0:0:0:
172,255,60326,5,2,0:0:0:0:
240,86,60443,1,2,0:0:0:0:
352,230,60561,1,14,0:0:0:0:
18,95,60795,5,0,0:0:0:0:
18,95,60912,1,0,0:0:0:0:
17,95,61029,2,0,P|103:104|172:156,1,175,14|0,0:0|0:0,0:0:0:0:
406,359,61498,6,0,L|492:349,1,87.5,14|0,0:0|0:0,0:0:0:0:
325,225,61732,2,0,L|411:234,1,87.5,2|0,0:0|0:0,0:0:0:0:
147,342,61967,2,0,L|326:322,1,175,10|0,0:0|0:0,0:0:0:0:
162,184,62318,1,0,0:0:0:0:
219,249,62436,6,8,P|242:212|246:169,1,87.5,14|0,0:0|0:0,0:0:0:0:
109,86,62670,1,2,1:3:0:0:
182,38,62787,1,0,0:0:0:0:
257,82,62904,2,0,L|245:176,1,87.5,8|0,0:0|0:0,0:0:0:0:
440,24,63139,2,0,L|428:118,1,87.5,2|0,1:3|0:0,0:0:0:0:
306,228,63373,5,8,0:0:0:0:
370,169,63490,1,2,0:0:0:0:
453,192,63607,1,2,1:3:0:0:
479,276,63725,1,2,0:0:0:0:
419,339,63842,2,0,P|376:349|332:352,1,87.5,8|0,0:0|0:0,0:0:0:0:
234,285,64076,2,0,P|244:328|247:372,1,87.5,2|0,1:3|0:0,0:0:0:0:
61,299,64311,6,0,P|146:283|234:285,1,175,8|2,0:0|1:3,0:0:0:0:
199,111,64662,1,2,0:0:0:0:
199,111,64779,2,0,P|189:154|187:198,1,87.5,8|0,0:0|0:0,0:0:0:0:
358,71,65014,2,0,P|355:114|345:157,1,87.5,2|0,1:3|0:0,0:0:0:0:
142,42,65248,5,8,0:0:0:0:
142,42,65365,1,0,0:0:0:0:
142,42,65482,2,0,L|44:55,1,87.5,2|0,1:3|0:0,0:0:0:0:
18,152,65717,2,0,L|104:140,1,87.5,8|0,0:0|0:0,0:0:0:0:
166,224,65951,2,0,L|68:237,1,87.5,2|0,1:3|0:0,0:0:0:0:
42,334,66186,6,0,P|90:322|227:382,1,175,12|2,0:0|1:3,0:0:0:0:
389,279,66537,1,2,0:0:0:0:
389,279,66654,2,0,P|376:321|376:365,1,87.5,8|0,0:0|0:0,0:0:0:0:
478,219,66889,2,0,P|490:260|491:304,1,87.5,2|0,1:3|0:0,0:0:0:0:
395,187,67123,5,8,0:0:0:0:
415,102,67240,1,2,0:0:0:0:
340,56,67357,1,2,1:3:0:0:
275,115,67475,1,2,0:0:0:0:
197,74,67592,2,0,L|59:75,1,87.5,8|0,0:0|0:0,0:0:0:0:
172,189,67826,2,0,L|85:190,1,87.5,2|0,1:3|0:0,0:0:0:0:
46,359,68061,6,0,P|57:272|84:189,1,175,8|2,0:0|1:3,0:0:0:0:
263,192,68412,1,2,0:0:0:0:
214,263,68529,2,0,P|202:304|203:349,1,87.5,8|0,0:0|0:0,0:0:0:0:
286,374,68764,1,2,1:3:0:0:
345,309,68881,1,2,0:0:0:0:
421,384,68998,6,0,P|424:340|431:297,1,87.5,8|0,0:0|0:0,0:0:0:0:
359,216,69232,2,0,L|447:211,1,87.5,2|0,1:3|0:0,0:0:0:0:
497,139,69467,1,10,0:0:0:0:
485,52,69584,1,0,0:0:0:0:
400,31,69701,1,2,1:3:0:0:
341,95,69818,1,0,0:0:0:0:
255,74,69936,6,0,P|227:110|217:152,1,87.5,14|0,0:0|0:0,0:0:0:0:
62,189,70170,1,2,1:3:0:0:
131,136,70287,1,2,0:0:0:0:
217,150,70404,2,0,P|245:185|254:227,1,87.5,8|0,0:0|0:0,0:0:0:0:
345,254,70639,2,0,P|318:287|308:330,1,87.5,2|0,1:3|0:0,0:0:0:0:
228,365,70873,5,8,0:0:0:0:
190,286,70990,1,2,0:0:0:0:
107,257,71107,1,2,1:3:0:0:
36,310,71225,1,2,0:0:0:0:
26,223,71342,2,0,P|23:179|-1:142,1,87.5,8|0,0:0|0:0,0:0:0:0:
110,40,71576,2,0,P|87:76|84:120,1,87.5,2|0,1:3|0:0,0:0:0:0:
161,162,71811,6,0,L|276:143,1,87.5,8|0,0:0|0:0,0:0:0:0:
231,23,72045,2,0,L|346:42,1,87.5,2|2,1:3|0:0,0:0:0:0:
338,183,72279,2,0,L|453:164,1,87.5,8|0,0:0|0:0,0:0:0:0:
408,44,72513,2,0,L|523:63,1,87.5,2|0,1:3|0:0,0:0:0:0:
497,229,72748,5,8,0:0:0:0:
459,307,72865,1,2,0:0:0:0:
382,348,72982,1,2,1:3:0:0:
299,317,73100,1,2,0:0:0:0:
265,236,73217,2,0,P|308:230|354:250,1,87.5,8|0,0:0|0:0,0:0:0:0:
246,147,73451,2,0,P|203:153|158:134,1,87.5,2|0,1:3|0:0,0:0:0:0:
85,30,73686,6,0,P|114:111|97:196,1,175,12|2,0:0|1:3,0:0:0:0:
46,352,74037,1,2,0:0:0:0:
46,352,74154,2,0,P|89:347|130:363,1,87.5,8|0,0:0|0:0,0:0:0:0:
228,293,74389,2,0,P|212:333|217:376,1,87.5,2|0,1:3|0:0,0:0:0:0:
301,247,74623,5,8,0:0:0:0:
332,165,74740,1,2,0:0:0:0:
406,118,74857,1,2,1:3:0:0:
491,139,74975,1,2,0:0:0:0:
430,202,75092,2,0,L|448:310,1,87.5,8|0,0:0|0:0,0:0:0:0:
301,247,75326,2,0,L|319:355,1,87.5,2|0,1:3|0:0,0:0:0:0:
142,185,75561,6,0,P|215:233|301:247,1,175,8|2,0:0|1:3,0:0:0:0:
142,294,75912,1,2,0:0:0:0:
142,294,76029,2,0,P|158:334|154:377,1,87.5,8|0,0:0|0:0,0:0:0:0:
302,157,76264,1,2,1:3:0:0:
242,94,76381,1,2,0:0:0:0:
157,104,76498,6,0,P|140:144|144:187,1,87.5,8|0,0:0|0:0,0:0:0:0:
25,21,76732,2,0,P|68:17|108:33,1,87.5,2|0,1:3|0:0,0:0:0:0:
266,10,76967,1,8,0:0:0:0:
242,94,77084,1,0,0:0:0:0:
302,157,77201,1,2,1:3:0:0:
278,241,77318,1,0,0:0:0:0:
362,219,77436,6,0,P|457:229|488:320,1,175,12|2,0:0|1:3,0:0:0:0:
403,299,77787,1,2,0:0:0:0:
318,319,77904,2,0,P|281:343|254:378,1,87.5,8|0,0:0|0:0,0:0:0:0:
148,274,78139,2,0,P|150:317|166:357,1,87.5,2|0,1:3|0:0,0:0:0:0:
65,165,78373,5,8,0:0:0:0:
61,77,78490,1,2,0:0:0:0:
143,46,78607,1,2,1:3:0:0:
197,114,78725,1,2,0:0:0:0:
149,188,78842,2,0,P|152:285|166:308,1,87.5,8|0,0:0|0:0,0:0:0:0:
230,384,79076,2,0,P|227:287|213:264,1,87.5,2|2,1:3|0:0,0:0:0:0:
320,195,79311,6,0,P|323:292|337:315,1,87.5,8|0,0:0|0:0,0:0:0:0:
459,336,79545,1,2,1:3:0:0:
406,268,79662,1,2,0:0:0:0:
372,349,79779,2,0,L|251:367,1,87.5,8|0,0:0|0:0,0:0:0:0:
479,168,80014,2,0,L|497:289,1,87.5,2|0,1:3|0:0,0:0:0:0:
318,280,80248,5,8,0:0:0:0:
366,205,80366,1,2,0:0:0:0:
325,126,80483,1,2,1:3:0:0:
236,122,80600,1,2,0:0:0:0:
188,197,80717,1,8,0:0:0:0:
228,276,80835,1,0,0:0:0:0:
165,338,80951,2,0,L|27:354,1,87.5,2|2,1:3|0:0,0:0:0:0:
100,210,81186,6,0,P|97:123|63:29,1,175,12|2,0:0|1:3,0:0:0:0:
213,28,81537,1,0,0:0:0:0:
176,108,81654,2,0,P|216:109|263:102,1,87.5,8|0,0:0|0:0,0:0:0:0:
228,276,81889,2,0,P|221:232|222:189,1,87.5,2|0,1:3|0:0,0:0:0:0:
461,136,82123,5,8,0:0:0:0:
496,216,82240,1,0,0:0:0:0:
447,287,82357,1,2,1:3:0:0:
359,280,82474,1,0,0:0:0:0:
322,201,82592,5,8,0:0:0:0:
365,110,82709,1,0,0:0:0:0:
291,42,82826,1,2,1:3:0:0:
202,91,82943,1,0,0:0:0:0:
222,189,83060,5,12,0:0:0:0:
39,308,83295,1,0,1:0:0:0:
39,308,83412,1,0,1:0:0:0:
39,308,83529,2,0,L|143:291,1,87.5,0|0,1:0|0:0,0:0:0:0:
279,347,83764,1,0,1:0:0:0:
279,347,83881,1,0,0:0:0:0:
279,347,83998,2,0,L|296:243,1,87.5,0|0,1:0|0:0,0:0:0:0:
154,126,84232,1,0,0:0:0:0:
154,126,84349,1,0,0:0:0:0:
154,126,84467,2,0,L|137:230,1,87.5,8|0,0:0|0:0,0:0:0:0:
110,384,84701,2,0,L|214:367,1,87.5,8|0,0:0|0:0,0:0:0:0:
486,233,84936,6,0,P|427:257|408:318,1,131.25000500679,2|0,0:0|0:0,0:0:0:0:
225,107,85404,2,0,P|283:131|302:191,1,131.25000500679,2|0,0:0|0:0,0:0:0:0:
451,26,85795,1,2,0:0:0:0:
152,8,86029,5,0,0:0:0:0:
152,8,86107,1,2,1:2:0:0:
225,107,86264,5,0,0:0:0:0:
225,107,86342,1,8,0:3:0:0:
152,206,86498,5,0,0:0:0:0:
152,206,86576,1,2,0:0:0:0:
225,305,86733,5,0,0:0:0:0:
225,305,86811,1,6,0:0:0:0:
