osu file format v14

[General]
AudioFilename: audio.mp3
AudioLeadIn: 0
PreviewTime: 46850
Countdown: 0
SampleSet: Drum
StackLeniency: 0.5
Mode: 0
LetterboxInBreaks: 0
WidescreenStoryboard: 1

[Editor]
DistanceSpacing: 1
BeatDivisor: 4
GridSize: 32
TimelineZoom: 2.9

[Metadata]
Title:Grandeur (TV Size)
TitleUnicode:Grandeur (TV Size)
Artist:Snow Man
ArtistUnicode:Snow Man
Creator:Monstrata
Version:Advanced
Source:ブラッククローバー
Tags:black clover op opening 13 thirteen anime japanese alternator pop jpop
BeatmapID:2851931
BeatmapSetID:1380176

[Difficulty]
HPDrainRate:3
CircleSize:4
OverallDifficulty:6
ApproachRate:7
SliderMultiplier:1.3
SliderTickRate:1

[Events]
//Background and Video events
0,0,"1114121.jpg",0,0
Video,-775,"black clover.mp4"
//Break Periods
//Storyboard Layer 0 (Background)
//Storyboard Layer 1 (Fail)
//Storyboard Layer 2 (Pass)
//Storyboard Layer 3 (Foreground)
//Storyboard Layer 4 (Overlay)
//Storyboard Sound Samples

[TimingPoints]
2435,468.75,4,2,1,45,1,0
2435,-100,4,2,1,45,0,0
9949,468.75,4,2,1,60,1,0
9949,-100,4,2,1,60,0,0
13699,-100,4,3,1,60,0,0
15574,-100,4,2,1,60,0,0
16863,-100,4,2,1,60,0,0
17436,468.75,4,3,1,60,1,0
17436,-100,4,3,1,60,0,0
30561,-100,4,3,1,70,0,0
32436,-100,4,2,1,60,0,0
39936,-100,4,3,1,60,0,0
46967,-100,4,3,1,80,0,0
47436,-83.3333333333333,4,3,1,80,0,1
62318,-83.3333333333333,4,3,1,80,0,0
62436,-83.3333333333333,4,3,1,80,0,1
84936,-100,4,2,1,60,0,0
86811,-100,4,2,1,60,0,0

[Colours]
Combo1 : 255,255,191
Combo2 : 191,255,191
Combo3 : 255,191,191
Combo4 : 255,223,191

[HitObjects]
87,174,2435,6,0,L|169:164,1,64.9999999999999,2|0,0:2|3:0,0:0:0:0:
233,187,2903,2,0,P|245:235|224:287,2,97.4999999999999,2|2|0,0:2|0:2|0:0,0:0:0:0:
280,116,3841,2,0,L|362:106,1,64.9999999999999,2|0,0:2|0:0,0:0:0:0:
414,155,4310,5,2,3:2:0:0:
379,231,4544,1,0,0:0:0:0:
438,290,4778,2,0,P|419:339|373:365,1,108.333333333333,2|2,3:2|0:0,0:0:0:0:
293,338,5403,6,0,B|271:326|271:326|207:334|207:334|185:326|185:326|132:330|132:330|114:322|114:322|79:326,1,216.666666666666,2|2,0:2|0:2,0:0:0:0:
28,260,6419,1,0,0:0:0:0:
59,180,6653,2,0,P|85:162|117:158,1,64.9999999999999,2|0,0:2|0:2,0:0:0:0:
188,111,7122,2,0,P|211:152|255:170,2,97.4999999999999,2|2|0,0:2|0:2|0:0,0:0:0:0:
229,37,8060,6,0,L|309:28,1,64.9999999999999,0|0,3:2|3:2,0:0:0:0:
366,72,8528,2,0,L|446:63,1,64.9999999999999,0|0,3:2|3:2,0:0:0:0:
491,123,8997,6,0,L|489:207,1,64.9999999999999,10|0,3:3|0:0,0:0:0:0:
464,222,9349,2,0,L|462:306,1,64.9999999999999,10|0,3:3|0:0,0:0:0:0:
462,329,9700,1,10,3:3:0:0:
374,364,9949,6,0,P|344:352|313:346,1,64.9999999999999,6|0,0:0|0:0,0:0:0:0:
245,296,10417,2,0,P|214:308|183:314,1,64.9999999999999,10|0,0:0|0:0,0:0:0:0:
145,294,10769,2,0,L|152:189,1,97.4999999999999,0|0,0:0|0:0,0:0:0:0:
81,148,11355,2,0,L|85:83,1,64.9999999999999,8|0,0:0|0:0,0:0:0:0:
149,28,11824,5,10,0:2:0:0:
298,107,12292,2,0,L|379:96,1,64.9999999999999,10|2,0:0|0:0,0:0:0:0:
446,88,12761,2,0,L|441:181,1,64.9999999999999,10|0,0:0|0:0,0:0:0:0:
466,187,13113,2,0,L|461:280,1,64.9999999999999,10|0,0:0|0:0,0:0:0:0:
461,294,13464,1,10,0:0:0:0:
391,342,13699,5,4,0:0:0:0:
327,286,13933,1,10,0:0:0:0:
252,326,14167,2,0,P|223:338|191:339,1,64.9999999999999,8|2,0:0|0:3,0:0:0:0:
117,297,14636,2,0,P|87:284|55:283,1,64.9999999999999,8|0,0:3|0:3,0:0:0:0:
19,260,14988,2,0,L|38:166,1,64.9999999999999,2|0,0:3|0:0,0:0:0:0:
41,155,15339,1,8,0:3:0:0:
85,81,15574,6,0,L|67:32,2,32.5,6|0|0,0:0|0:0|1:0,0:0:0:0:
145,140,16042,2,0,L|126:189,2,32.5,2|0|0,0:0|0:0|1:0,0:0:0:0:
211,86,16511,2,0,P|257:74|305:80,1,97.4999999999999,2|2,0:2|0:2,0:0:0:0:
473,201,17436,6,0,L|506:186,2,32.5,12|0|2,0:0|0:0|0:0,0:0:0:0:
426,271,17904,2,0,L|459:286,2,32.5,8|0|2,0:0|0:0|0:0,0:0:0:0:
345,242,18373,2,0,P|313:243|283:255,1,64.9999999999999,10|2,0:0|0:0,0:0:0:0:
259,290,18725,2,0,L|175:274,1,64.9999999999999,2|0,0:0|0:0,0:0:0:0:
119,176,19311,6,0,L|108:91,1,64.9999999999999,10|2,0:0|0:0,0:0:0:0:
187,77,19779,2,0,L|195:141,1,64.9999999999999,10|2,0:0|0:0,0:0:0:0:
274,169,20248,2,0,P|300:190|331:195,1,64.9999999999999,10|0,0:0|0:0,0:0:0:0:
367,174,20600,2,0,P|408:147|456:145,1,97.4999999999999,2|2,0:0|0:0,0:0:0:0:
511,209,21186,5,10,0:0:0:0:
474,284,21420,1,2,0:0:0:0:
390,295,21654,2,0,L|379:250,2,32.5,10|0|2,0:0|0:0|0:0,0:0:0:0:
320,343,22123,2,0,L|242:355,1,64.9999999999999,10|0,0:0|0:0,0:0:0:0:
217,331,22475,2,0,P|169:334|125:354,1,97.4999999999999,2|0,0:0|0:0,0:0:0:0:
61,299,23061,5,10,0:0:0:0:
110,230,23295,2,0,L|93:141,2,64.9999999999999,2|8|0,0:0|0:0|0:0,0:0:0:0:
193,243,23998,2,0,L|205:306,1,64.9999999999999,10|2,0:0|0:0,0:0:0:0:
282,342,24467,1,14,0:0:0:0:
340,281,24701,1,0,0:0:0:0:
422,300,24936,6,0,P|453:307|485:305,1,64.9999999999999,14|2,0:0|0:0,0:0:0:0:
507,224,25404,2,0,P|514:192|512:160,1,64.9999999999999,10|2,0:0|0:0,0:0:0:0:
451,99,25873,2,0,P|430:56|428:8,2,97.4999999999999,10|2|0,0:0|0:0|0:0,0:0:0:0:
384,151,26811,6,0,L|347:231,1,64.9999999999999,10|0,0:0|0:0,0:0:0:0:
272,201,27279,2,0,L|249:143,2,32.5,10|0|2,0:0|0:0|0:0,0:0:0:0:
306,277,27748,2,0,P|275:284|209:254,2,97.4999999999999,10|2|0,0:0|0:0|0:0,0:0:0:0:
391,283,28686,6,0,L|405:348,1,64.9999999999999,10|2,0:0|0:0,0:0:0:0:
487,363,29154,2,0,L|501:298,1,64.9999999999999,10|2,0:0|0:0,0:0:0:0:
459,223,29623,2,0,P|449:193|452:161,1,64.9999999999999,8|0,0:0|0:0,0:0:0:0:
427,126,29975,2,0,P|396:136|364:133,1,64.9999999999999,2|2,0:0|0:0,0:0:0:0:
245,88,30561,6,0,L|234:35,2,32.5,14|8|8,0:0|0:0|0:0,0:0:0:0:
180,142,31029,2,0,L|169:195,2,32.5,8|8|8,0:0|0:0|0:0,0:0:0:0:
114,88,31498,1,8,0:0:0:0:
52,146,31732,2,0,P|40:175|39:208,1,64.9999999999999,2|8,0:0|0:0,0:0:0:0:
81,281,32201,1,2,0:0:0:0:
156,318,32436,6,0,L|294:309,1,130,12|8,0:3|0:3,0:0:0:0:
334,147,33373,2,0,L|204:155,1,130,8|8,0:3|0:3,0:0:0:0:
60,65,34311,6,0,P|35:124|37:189,1,130,8|8,0:3|0:3,0:0:0:0:
181,279,35248,2,0,P|205:219|203:154,1,130,8|8,0:3|0:3,0:0:0:0:
303,18,36186,6,0,L|393:22,1,65,14|2,0:3|0:0,0:0:0:0:
445,55,36654,2,0,P|457:101|447:149,2,97.5,10|2|2,0:3|0:0|0:0,0:0:0:0:
285,110,37826,5,2,0:0:0:0:
206,77,38061,2,0,L|132:86,1,65,14|2,0:3|0:0,0:0:0:0:
59,108,38529,2,0,P|32:147|29:195,2,97.5,10|2|2,0:3|0:0|0:0,0:0:0:0:
141,84,39467,2,0,L|163:189,1,97.5,8|2,0:3|0:0,0:0:0:0:
202,191,39936,6,0,L|280:197,1,65,12|8,0:3|0:0,0:0:0:0:
337,150,40404,1,0,1:3:0:0:
311,69,40639,1,8,0:0:0:0:
368,7,40873,2,0,L|446:1,1,65,2|10,1:3|0:0,0:0:0:0:
469,23,41225,2,0,P|489:66|481:113,1,97.5,2|8,0:0|0:0,0:0:0:0:
423,176,41811,6,0,L|429:254,1,65,2|10,1:3|0:0,0:0:0:0:
350,274,42279,2,0,L|345:209,1,65,2|8,1:3|0:0,0:0:0:0:
309,182,42631,2,0,P|262:181|223:209,1,97.5,0|10,0:0|0:0,0:0:0:0:
188,286,43217,1,0,1:3:0:0:
110,252,43451,1,10,0:0:0:0:
37,296,43686,6,0,P|34:328|40:359,1,65,6|8,0:0|0:0,0:0:0:0:
123,375,44154,2,0,L|190:365,1,65,12|2,0:0|0:0,0:0:0:0:
264,329,44623,2,0,P|260:296|266:265,1,65,2|8,0:0|0:0,0:0:0:0:
349,250,45091,2,0,L|416:260,1,65,12|0,0:0|0:0,0:0:0:0:
390,177,45561,5,14,0:0:0:0:
451,119,45795,1,0,0:0:0:0:
403,49,46029,2,0,L|409:4,2,32.5,14|0|0,0:0|0:0|0:0,0:0:0:0:
342,107,46498,2,0,P|278:113|220:85,1,130,14|8,0:0|0:3,0:0:0:0:
155,30,47201,1,12,0:3:0:0:
92,87,47436,6,0,P|111:120|113:159,1,77.999997619629,14|2,0:0|0:0,0:0:0:0:
95,235,47904,2,0,P|133:233|167:214,1,77.999997619629,10|2,0:0|0:0,0:0:0:0:
204,225,48256,2,0,L|194:354,1,116.999996429443,2|2,0:0|0:0,0:0:0:0:
271,326,48842,1,10,0:0:0:0:
343,355,49076,1,2,0:0:0:0:
415,329,49311,6,0,P|441:300|450:262,1,77.999997619629,10|0,0:0|0:0,0:0:0:0:
403,200,49779,2,0,P|377:171|368:133,1,77.999997619629,10|0,0:0|0:0,0:0:0:0:
375,95,50131,2,0,L|505:79,1,116.999996429443,2|0,0:0|0:0,0:0:0:0:
459,9,50717,2,0,L|362:20,1,77.999997619629,10|2,0:0|0:0,0:0:0:0:
304,32,51186,5,10,0:0:0:0:
264,98,51420,1,2,0:0:0:0:
188,79,51654,2,0,P|150:70|111:72,1,77.999997619629,8|2,0:0|0:0,0:0:0:0:
76,89,52006,2,0,L|97:209,1,116.999996429443,2|2,0:0|0:0,0:0:0:0:
168,234,52592,2,0,L|158:325,1,77.999997619629,10|0,0:0|0:0,0:0:0:0:
227,350,53061,5,10,0:0:0:0:
276,289,53295,1,2,0:0:0:0:
353,295,53529,2,0,P|391:300|421:324,1,77.999997619629,10|2,0:0|0:0,0:0:0:0:
436,361,53881,2,0,L|452:235,1,116.999996429443,2|2,0:0|0:0,0:0:0:0:
413,176,54467,1,10,0:0:0:0:
454,110,54701,1,2,0:0:0:0:
397,56,54936,1,10,0:0:0:0:
327,91,55170,6,0,L|315:149,2,38.9999988098145,2|2|10,0:0|0:0|0:0,0:0:0:0:
260,50,55639,2,0,L|248:-8,2,38.9999988098145,2|0|10,0:0|0:0|0:0,0:0:0:0:
200,100,56107,2,0,L|188:158,2,38.9999988098145,2|2|10,0:0|0:0|0:0,0:0:0:0:
134,57,56576,1,2,0:0:0:0:
73,105,56811,6,0,P|61:143|61:181,1,77.999997619629,14|0,0:0|0:0,0:0:0:0:
77,258,57279,2,0,P|88:295|88:333,1,77.999997619629,14|0,0:0|0:0,0:0:0:0:
165,349,57748,6,0,L|279:335,1,77.999997619629,14|2,0:0|0:0,0:0:0:0:
291,278,58217,1,10,0:0:0:0:
353,324,58451,1,2,0:0:0:0:
422,289,58686,5,10,0:0:0:0:
422,211,58920,2,0,L|436:174,2,38.9999988098145,2|2|10,0:0|0:0|0:0,0:0:0:0:
345,195,59389,2,0,L|269:203,2,38.9999988098145,2|2|10,0:0|0:0|0:0,0:0:0:0:
374,122,59857,2,0,L|388:85,2,38.9999988098145,2|2|10,0:0|0:0|0:0,0:0:0:0:
297,106,60326,2,0,L|221:114,1,38.9999988098145,2|2,0:0|0:0,0:0:0:0:
219,114,60561,6,0,P|204:151|201:189,1,77.999997619629,14|0,0:0|0:0,0:0:0:0:
223,264,61029,1,14,0:0:0:0:
371,323,61498,6,0,L|482:310,1,77.999997619629,14|2,0:0|0:0,0:0:0:0:
494,250,61967,2,0,P|508:193|499:136,1,116.999996429443,10|0,0:0|0:0,0:0:0:0:
470,110,62436,6,0,L|392:119,1,77.999997619629,14|2,0:0|1:3,0:0:0:0:
332,169,62904,1,8,0:0:0:0:
278,112,63139,1,2,1:3:0:0:
214,157,63373,2,0,P|197:191|197:230,2,77.999997619629,8|2|8,0:0|1:3|0:0,0:0:0:0:
157,102,64076,1,2,1:3:0:0:
100,47,64311,6,0,L|11:54,1,77.999997619629,8|2,0:0|1:3,0:0:0:0:
6,137,64779,2,0,L|83:130,1,77.999997619629,8|2,0:0|1:3,0:0:0:0:
145,179,65248,2,0,P|167:226|157:274,1,77.999997619629,8|2,0:0|1:3,0:0:0:0:
139,324,65717,1,8,0:0:0:0:
208,359,65951,1,2,1:3:0:0:
233,285,66186,6,0,P|268:267|306:266,1,77.999997619629,12|2,0:0|1:3,0:0:0:0:
379,294,66654,2,0,L|372:373,1,77.999997619629,8|2,0:0|1:3,0:0:0:0:
448,355,67123,1,8,0:0:0:0:
456,277,67357,1,2,1:3:0:0:
463,199,67592,2,0,P|461:160|447:124,1,77.999997619629,8|2,0:0|1:3,0:0:0:0:
371,104,68061,6,0,P|368:142|354:178,1,77.999997619629,8|2,0:0|1:3,0:0:0:0:
297,233,68529,2,0,L|168:228,1,116.999996429443,8|2,0:0|0:0,0:0:0:0:
140,226,68998,6,0,P|126:263|129:302,1,77.999997619629,8|2,0:0|1:3,0:0:0:0:
186,355,69467,2,0,L|315:350,1,116.999996429443,10|0,0:0|0:0,0:0:0:0:
323,316,69936,5,14,0:0:0:0:
394,284,70170,2,0,L|441:293,2,38.9999988098145,2|2|8,1:3|0:0|0:0,0:0:0:0:
333,234,70639,1,2,1:3:0:0:
314,158,70873,2,0,P|315:119|334:85,2,77.999997619629,8|2|8,0:0|1:3|0:0,0:0:0:0:
257,212,71576,1,2,1:3:0:0:
199,265,71811,5,8,0:0:0:0:
227,337,72045,2,0,L|277:336,2,38.9999988098145,2|2|8,1:3|0:0|0:0,0:0:0:0:
163,382,72514,1,2,1:3:0:0:
93,346,72748,2,0,P|64:320|57:282,1,77.999997619629,8|2,0:0|1:3,0:0:0:0:
87,210,73217,1,8,0:0:0:0:
28,158,73451,1,2,1:3:0:0:
83,102,73686,6,0,L|190:93,1,77.999997619629,12|2,0:0|1:3,0:0:0:0:
225,139,74154,1,8,0:0:0:0:
283,86,74389,1,2,1:3:0:0:
350,124,74623,2,0,L|342:220,2,77.999997619629,8|2|8,0:0|1:3|0:0,0:0:0:0:
415,80,75326,1,2,1:3:0:0:
481,120,75561,5,8,0:0:0:0:
463,195,75795,2,0,L|424:195,2,38.9999988098145,2|2|8,1:3|0:0|0:0,0:0:0:0:
489,268,76264,2,0,L|489:306,1,38.9999988098145,2|2,1:3|0:0,0:0:0:0:
493,345,76498,6,0,P|458:327|419:323,1,77.999997619629,8|2,0:0|1:3,0:0:0:0:
352,283,76967,2,0,P|298:306|240:300,1,116.999996429443,8|0,0:0|0:0,0:0:0:0:
208,278,77436,5,12,0:0:0:0:
176,206,77670,2,0,L|188:155,2,38.9999988098145,2|2|8,1:3|0:0|0:0,0:0:0:0:
128,267,78139,1,2,1:3:0:0:
57,299,78373,2,0,L|72:378,2,77.999997619629,8|2|8,0:0|1:3|0:0,0:0:0:0:
12,234,79076,1,2,1:3:0:0:
46,163,79311,5,8,0:0:0:0:
123,174,79545,2,0,L|134:233,2,38.9999988098145,2|2|8,1:3|0:0|0:0,0:0:0:0:
173,114,80014,1,2,1:3:0:0:
236,158,80248,2,0,P|272:170|310:165,2,77.999997619629,8|2|8,0:0|1:3|0:0,0:0:0:0:
173,114,80951,1,2,1:3:0:0:
237,70,81186,6,0,P|273:57|311:62,1,77.999997619629,12|2,0:0|1:3,0:0:0:0:
381,33,81654,2,0,P|368:69|374:108,1,77.999997619629,8|2,0:0|1:3,0:0:0:0:
392,183,82123,5,8,0:0:0:0:
467,159,82357,1,2,1:3:0:0:
512,221,82591,1,8,0:0:0:0:
467,285,82825,1,2,1:3:0:0:
392,260,83061,6,0,P|353:264|319:283,1,77.999997619629,12|0,0:0|1:0,0:0:0:0:
248,315,83529,2,0,P|209:310|175:291,1,77.999997619629,0|0,1:0|1:0,0:0:0:0:
109,250,83998,2,0,L|43:257,2,38.9999988098145,0|0|0,1:0|0:0|0:0,0:0:0:0:
144,180,84467,2,0,P|166:147|166:109,1,77.999997619629,8|8,0:0|0:0,0:0:0:0:
225,59,84936,6,0,L|300:50,1,65,2|0,0:0|0:0,0:0:0:0:
367,53,85404,2,0,B|365:91|338:112|338:112|352:152,1,108.333333333333,2|2,0:0|0:0,0:0:0:0:
388,215,86029,6,0,B|366:227|366:227|302:219|302:219|280:227|280:227|227:223|227:223|209:231|209:231|174:227,1,216.666666666666,0|6,0:0|0:0,0:0:0:0:
