osu file format v14

[General]
AudioFilename: audio.mp3
AudioLeadIn: 0
PreviewTime: 46809
Countdown: 0
SampleSet: Soft
StackLeniency: 0.7
Mode: 0
LetterboxInBreaks: 0
WidescreenStoryboard: 1

[Editor]
DistanceSpacing: 2.6
BeatDivisor: 4
GridSize: 32
TimelineZoom: 2.6

[Metadata]
Title:Grandeur (TV Size)
TitleUnicode:Grandeur (TV Size)
Artist:Snow Man
ArtistUnicode:Snow Man
Creator:HakuYT
Version:Soue's Berserk
Source:ブラッククローバー
Tags:black clover op opening 13 anime japanese asta yami dante vanica zenon yuno noelle pop j-pop jpop paradogi kloster soue
BeatmapID:3305932
BeatmapSetID:1328147

[Difficulty]
HPDrainRate:6
CircleSize:4.2
OverallDifficulty:8.6
ApproachRate:9.2
SliderMultiplier:1.74
SliderTickRate:1

[Events]
//Background and Video events
Video,-970,"black clover.mp4"
0,0,"bcg.jpg",0,0
//Break Periods
//Storyboard Layer 0 (Background)
//Storyboard Layer 1 (Fail)
//Storyboard Layer 2 (Pass)
//Storyboard Layer 3 (Foreground)
//Storyboard Layer 4 (Overlay)
//Storyboard Sound Samples

[TimingPoints]
2273,468.75,4,2,1,45,1,0
2273,-83.3333333333333,4,2,1,45,0,0
9787,468.75,4,2,1,45,1,0
9787,-76.9230769230769,4,2,1,65,0,0
16701,-166.666666666667,4,2,1,65,0,0
17278,468.75,4,2,1,70,1,0
17278,-71.4285714285714,4,2,1,60,0,0
20793,-166.666666666667,4,2,1,60,0,0
20969,-166.666666666667,4,2,1,5,0,0
21028,-71.4285714285714,4,2,1,60,0,0
21203,-71.4285714285714,4,2,1,5,0,0
21262,-71.4285714285714,4,2,1,60,0,0
22492,-71.4285714285714,4,2,1,5,0,0
22551,-125,4,2,1,60,0,0
22903,-71.4285714285714,4,2,1,60,0,0
23078,-71.4285714285714,4,2,1,5,0,0
23137,-71.4285714285714,4,2,1,60,0,0
24016,-71.4285714285714,4,2,1,5,0,0
24074,-71.4285714285714,4,2,1,60,0,0
30403,-62.5,4,2,1,60,0,0
31340,-71.4285714285714,4,2,1,60,0,0
31809,-100,4,2,1,60,0,0
32278,-83.3333333333333,4,2,1,60,0,0
35793,-83.3333333333333,4,2,1,5,0,0
36028,-83.3333333333333,4,2,1,60,0,0
39778,-71.4285714285714,4,2,1,70,0,0
43528,-62.5,4,2,1,70,0,0
45403,-83.3333333333333,4,2,1,40,0,0
45871,-125,4,2,1,40,0,0
46340,-250,4,2,1,60,0,0
46809,-100,4,2,1,70,0,0
47278,-55.5555555555556,4,2,1,80,0,1
49328,-55.5555555555556,4,2,1,5,0,1
49387,-55.5555555555556,4,2,1,80,0,1
50266,-55.5555555555556,4,2,1,5,0,1
50324,-55.5555555555556,4,2,1,80,0,1
53078,-55.5555555555556,4,2,1,5,0,1
53137,-55.5555555555556,4,2,1,80,0,1
54719,-55.5555555555556,4,2,1,5,0,1
54778,-55.5555555555556,4,2,1,80,0,1
56594,-55.5555555555556,4,2,1,5,0,1
56653,-55.5555555555556,4,2,1,80,0,1
57297,-55.5555555555556,4,2,1,5,0,1
57356,-55.5555555555556,4,2,1,80,0,1
57766,-55.5555555555556,4,2,1,5,0,1
57824,-55.5555555555556,4,2,1,80,0,1
58469,-55.5555555555556,4,2,1,5,0,1
58528,-55.5555555555556,4,2,1,80,0,1
60403,-52.6315789473684,4,2,1,80,0,1
60578,-52.6315789473684,4,2,1,5,0,1
60637,-52.6315789473684,4,2,1,80,0,1
61047,-52.6315789473684,4,2,1,5,0,1
61106,-52.6315789473684,4,2,1,80,0,1
61340,-52.6315789473684,4,2,1,70,0,1
61809,-47.6190476190476,4,2,1,70,0,1
62278,-55.5555555555556,4,2,1,80,0,1
62453,-55.5555555555556,4,2,1,5,0,1
62512,-55.5555555555556,4,2,1,80,0,1
62922,-55.5555555555556,4,2,1,5,0,1
62981,-55.5555555555556,4,2,1,80,0,1
63860,-55.5555555555556,4,2,1,5,0,1
63918,-55.5555555555556,4,2,1,80,0,1
65107,-55.5555555555556,4,2,1,80,0,1
66203,-55.5555555555556,4,2,1,5,0,1
66262,-55.5555555555556,4,2,1,80,0,1
66672,-55.5555555555556,4,2,1,5,0,1
66731,-55.5555555555556,4,2,1,80,0,1
67610,-55.5555555555556,4,2,1,5,0,1
67668,-55.5555555555556,4,2,1,80,0,1
68781,-55.5555555555556,4,2,1,5,0,1
68840,-55.5555555555556,4,2,1,80,0,1
69778,-52.6315789473684,4,2,1,80,0,1
69953,-52.6315789473684,4,2,1,5,0,1
70012,-52.6315789473684,4,2,1,80,0,1
70422,-52.6315789473684,4,2,1,5,0,1
70481,-52.6315789473684,4,2,1,80,0,1
71828,-52.6315789473684,4,2,1,5,0,1
71887,-52.6315789473684,4,2,1,80,0,1
72297,-52.6315789473684,4,2,1,5,0,1
72356,-52.6315789473684,4,2,1,80,0,1
74482,-52.6315789473684,4,2,1,80,0,1
76281,-52.6315789473684,4,2,1,5,0,1
76340,-52.6315789473684,4,2,1,80,0,1
77453,-52.6315789473684,4,2,1,5,0,1
77512,-52.6315789473684,4,2,1,80,0,1
77922,-52.6315789473684,4,2,1,5,0,1
77981,-52.6315789473684,4,2,1,80,0,1
81028,-50,4,2,1,80,0,1
83547,-50,4,2,1,5,0,1
83606,-50,4,2,1,80,0,1
84309,-55.5555555555556,4,2,1,80,0,1
84778,-83.3333333333333,4,2,2,55,0,0
85012,-83.3333333333333,4,2,1,55,0,0
85849,-83.3333333333333,4,2,1,70,0,0
90754,-83.3333333333333,4,2,1,5,0,0

[Colours]
Combo1 : 255,255,191
Combo2 : 191,255,191
Combo3 : 255,191,191
Combo4 : 255,223,191

[HitObjects]
32,51,2273,5,8,1:2:0:0:
74,114,2390,1,2,0:2:0:0:
71,139,2507,1,2,0:2:0:0:
68,165,2624,1,2,0:2:0:0:
16,221,2741,2,0,P|55:241|115:225,1,104.399996813965,2|2,0:2|0:2,0:0:0:0:
166,167,3093,1,2,0:2:0:0:
166,167,3327,2,0,P|205:147|265:163,1,104.399996813965,2|2,0:2|0:2,0:0:0:0:
318,218,3679,2,0,L|298:328,1,104.399996813965,2|2,0:2|0:2,0:0:0:0:
321,337,4030,1,2,0:2:0:0:
394,368,4148,6,0,P|443:358|455:308,1,104.399996813965,2|2,0:2|0:2,0:0:0:0:
501,175,4616,2,0,P|486:127|476:69,1,104.399996813965,2|2,0:2|0:2,0:0:0:0:
411,29,4968,1,2,0:2:0:0:
411,29,5241,5,2,0:0:0:0:
393,37,5319,1,2,0:2:0:0:
324,88,5476,5,2,0:0:0:0:
302,78,5554,1,2,0:2:0:0:
231,35,5710,5,2,0:0:0:0:
204,47,5788,1,2,0:2:0:0:
131,100,5944,5,2,0:0:0:0:
93,83,6023,1,2,1:2:0:0:
16,125,6140,5,2,0:2:0:0:
20,150,6257,1,2,0:2:0:0:
25,176,6374,1,2,0:2:0:0:
11,255,6491,2,0,L|115:235,1,104.399996813965,2|2,0:2|0:2,0:0:0:0:
293,250,6960,2,0,P|342:264|382:235,1,104.399996813965,2|2,0:2|0:2,0:0:0:0:
423,169,7312,2,0,B|401:204|401:204|422:268,2,104.399996813965,2|2|2,0:2|0:2|0:2,0:0:0:0:
488,304,7898,6,0,P|447:338|394:335,1,104.399996813965,2|2,0:2|0:2,0:0:0:0:
221,210,8366,2,0,P|180:176|127:179,1,104.399996813965,2|2,0:2|0:2,0:0:0:0:
111,190,8718,1,0,0:2:0:0:
57,253,8835,2,0,B|36:292|36:292|61:361,1,104.399996813965,2|2,0:2|0:2,0:0:0:0:
163,311,9187,2,0,P|157:284|154:320,1,104.399996813965,2|2,0:2|0:2,0:0:0:0:
230,360,9538,1,2,0:2:0:0:
258,368,9655,1,0,0:2:0:0:
286,356,9787,1,8,0:0:0:0:
322,283,9904,5,2,0:2:0:0:
314,255,10021,1,2,0:2:0:0:
307,228,10138,1,2,0:2:0:0:
246,181,10255,2,0,P|303:151|351:168,1,113.099994822693,10|2,0:2|0:2,0:0:0:0:
474,322,10724,5,8,0:2:0:0:
413,273,10841,2,0,L|426:158,1,113.099994822693,2|2,0:2|0:2,0:0:0:0:
488,75,11193,2,0,P|431:45|383:62,1,113.099994822693,10|2,0:2|0:2,0:0:0:0:
377,77,11544,1,2,0:2:0:0:
346,164,11662,6,0,P|289:194|241:177,1,113.099994822693,8|0,0:2|0:2,0:0:0:0:
80,53,12130,2,0,L|99:166,1,113.099994822693,10|2,0:2|0:2,0:0:0:0:
48,241,12482,1,0,0:2:0:0:
48,241,12755,5,2,0:0:0:0:
66,249,12833,1,2,0:2:0:0:
136,301,12990,5,2,0:0:0:0:
158,291,13068,1,10,0:0:0:0:
236,249,13224,5,2,0:0:0:0:
263,261,13302,1,2,0:2:0:0:
337,308,13458,5,2,0:0:0:0:
375,291,13537,1,10,0:2:0:0:
471,284,13654,5,2,0:2:0:0:
464,258,13771,1,2,0:2:0:0:
458,233,13888,1,10,2:1:0:0:
493,165,14005,2,0,L|500:102,1,56.5499974113466,10|0,0:2|0:2,0:0:0:0:
389,141,14240,2,0,P|390:131|392:137,3,28.2749987056733,10|8|8|8,2:1|2:1|2:1|2:1,0:0:0:0:
361,160,14474,5,10,0:2:0:0:
323,153,14591,1,8,2:1:0:0:
286,147,14708,2,0,L|222:163,1,56.5499974113466,10|10,0:2|2:1,0:0:0:0:
39,266,14943,5,8,0:2:0:0:
77,259,15060,1,10,2:1:0:0:
114,253,15177,2,0,L|178:269,1,56.5499974113466,8|10,0:2|2:1,0:0:0:0:
202,81,15412,5,10,0:2:0:0:
165,87,15529,1,8,2:1:0:0:
140,113,15646,2,0,P|130:141|135:169,1,56.5499974113466,8|8,0:2|2:1,0:0:0:0:
297,362,15880,5,8,0:2:0:0:
335,358,15997,1,8,2:1:0:0:
357,333,16115,2,0,P|362:318|359:305,3,28.2749987056733,10|8|8|8,0:2|2:1|2:1|2:1,0:0:0:0:
343,287,16349,6,0,B|308:308|308:308|229:284,1,113.099994822693,10|8,2:1|2:1,0:0:0:0:
169,267,16701,2,0,P|143:263|169:282,1,78.2999976104737,2|2,2:1|0:0,0:0:0:0:
229,111,17278,5,6,1:2:0:0:
239,127,17395,1,2,0:2:0:0:
225,139,17512,2,0,L|211:77,1,60.8999981414796,2|0,0:2|0:2,0:0:0:0:
55,163,17746,5,2,1:2:0:0:
44,179,17863,1,2,0:2:0:0:
59,191,17981,2,0,L|72:129,1,60.8999981414796,2|0,0:2|0:2,0:0:0:0:
297,186,18215,6,0,P|247:225|184:213,1,121.799996282959,2|2,1:2|0:2,0:0:0:0:
60,309,18567,1,2,0:2:0:0:
44,296,18801,2,0,P|103:290|148:328,1,121.799996282959
222,371,19153,6,0,L|282:357,1,60.8999981414796,2|0,1:2|0:0,0:0:0:0:
416,354,19387,1,2,0:2:0:0:
404,369,19621,2,0,L|389:301,1,60.8999981414796,2|2,1:2|0:2,0:0:0:0:
446,247,19856,2,0,L|461:179,1,60.8999981414796,2|2,0:2|0:2,0:0:0:0:
405,98,20090,5,2,1:2:0:0:
338,131,20207,2,0,L|263:114,1,60.8999981414796,2|0,0:2|0:2,0:0:0:0:
227,56,20442,2,0,P|160:50|136:96,1,121.799996282959,2|0,0:2|0:2,0:0:0:0:
156,172,20793,6,0,L|194:183,1,39.1499988052369,2|0,0:2|0:0,0:0:0:0:
220,181,21028,6,0,P|239:232|221:269,1,91.3499972122193,2|0,1:2|0:0,0:0:0:0:
206,281,21262,2,0,L|143:266,1,60.8999981414796,2|0,0:2|0:0,0:0:0:0:
279,378,21496,1,2,1:2:0:0:
303,366,21613,1,2,0:2:0:0:
287,345,21731,2,0,L|350:330,1,60.8999981414796,2|0,0:2|0:2,0:0:0:0:
472,359,21965,6,0,B|444:327|444:327|461:247,1,121.799996282959,2|2,1:2|0:2,0:0:0:0:
407,154,22317,2,0,P|350:142|325:184,1,91.3499972122193,2|0,0:2|0:0,0:0:0:0:
321,184,22551,2,0,L|337:251,1,69.6,2|0,0:2|0:0,0:0:0:0:
287,345,22903,6,0,P|250:354|209:314,1,91.3499972122193,2|0,1:2|0:0,0:0:0:0:
185,321,23137,2,0,L|198:251,1,60.8999981414796,2|0,0:2|0:0,0:0:0:0:
106,140,23371,1,0,1:2:0:0:
75,137,23488,1,0,0:0:0:0:
56,159,23606,2,0,L|69:229,1,60.8999981414796,0|2,0:2|0:2,0:0:0:0:
216,105,23840,6,0,L|314:82,1,91.3499972122193,2|0,1:2|0:0,0:0:0:0:
314,60,24074,2,0,P|348:69|361:92,1,60.8999981414796,2|0,0:2|0:0,0:0:0:0:
462,104,24309,2,0,P|477:165|445:211,1,121.799996282959,2|2,1:2|0:2,0:0:0:0:
359,211,24660,1,2,0:2:0:0:
438,291,24778,6,0,L|456:361,1,60.8999981414796,6|0,1:2|0:2,0:0:0:0:
339,229,25012,2,0,L|323:170,1,60.8999981414796,2|0,0:2|0:2,0:0:0:0:
253,343,25246,2,0,L|194:358,1,60.8999981414796,10|0,1:2|0:2,0:0:0:0:
43,233,25481,2,0,L|101:248,1,60.8999981414796,2|0,0:2|0:2,0:0:0:0:
253,146,25715,5,2,1:2:0:0:
253,146,25832,2,0,L|237:204,1,60.8999981414796,2|0,0:2|0:2,0:0:0:0:
395,367,26067,2,0,L|379:308,1,60.8999981414796,2|8,0:2|1:2,0:0:0:0:
431,242,26301,2,0,P|455:188|428:127,1,121.799996282959,2|2,0:2|0:2,0:0:0:0:
384,26,26653,5,2,1:2:0:0:
307,74,26770,2,0,L|187:53,1,121.799996282959,2|0,0:2|0:2,0:0:0:0:
105,119,27121,1,10,1:2:0:0:
82,109,27356,5,2,0:2:0:0:
72,137,27473,1,0,0:2:0:0:
82,165,27590,2,0,L|202:186,1,121.799996282959,2|2,1:2|0:2,0:0:0:0:
335,270,27942,2,0,L|275:280,1,60.8999981414796,2|8,0:2|1:2,0:0:0:0:
216,347,28176,2,0,P|171:377|101:351,1,121.799996282959,2|2,0:2|0:2,0:0:0:0:
52,279,28528,5,2,1:2:0:0:
62,295,28762,2,0,L|75:234,1,60.8999981414796,2|0,0:2|0:2,0:0:0:0:
136,165,28996,2,0,L|123:104,1,60.8999981414796,10|0,1:2|0:2,0:0:0:0:
32,10,29231,5,2,0:2:0:0:
15,32,29348,1,2,0:2:0:0:
37,48,29465,2,0,L|158:22,1,121.799996282959,2|2,1:2|0:2,0:0:0:0:
228,85,29817,2,0,L|288:97,1,60.8999981414796,2|8,0:2|1:2,0:0:0:0:
365,34,30051,1,2,0:2:0:0:
356,52,30285,1,2,0:2:0:0:
418,152,30403,6,0,B|412:184|412:184|427:197|432:224,1,69.6,8|8,1:2|2:1,0:0:0:0:
342,284,30637,1,2,1:2:0:0:
312,300,30754,1,8,1:1:0:0:
280,290,30871,1,8,0:2:0:0:
259,264,30988,2,0,P|252:253|269:257,4,34.8,8|8|8|8|8,2:1|2:1|2:1|2:1|2:1,0:0:0:0:
159,327,31340,5,8,1:2:0:0:
85,311,31457,1,8,2:1:0:0:
51,244,31574,1,10,2:1:0:0:
84,177,31692,1,8,2:1:0:0:
158,163,31809,5,8,0:2:0:0:
155,184,31926,1,10,2:1:0:0:
152,206,32043,1,8,2:1:0:0:
150,227,32160,1,8,2:1:0:0:
147,249,32278,6,0,L|251:233,1,104.399996813965,14|2,0:2|0:0,0:0:0:0:
433,372,32746,2,0,P|403:341|421:274,1,104.399996813965,10|2,0:2|0:0,0:0:0:0:
489,138,33215,2,0,P|468:82|457:18,1,104.399996813965,10|2,0:2|0:0,0:0:0:0:
385,12,33567,2,0,P|373:62|355:111,1,104.399996813965,2|0,0:0|0:0,0:0:0:0:
293,154,33918,1,2,0:0:0:0:
49,76,34153,6,0,P|72:54|95:52,1,52.1999984069825,10|0,0:2|0:0,0:0:0:0:
150,103,34387,1,2,0:0:0:0:
145,128,34504,1,2,0:0:0:0:
140,154,34621,2,0,L|160:266,1,104.399996813965,10|2,0:2|0:0,0:0:0:0:
95,311,34973,2,0,P|56:295|56:229,1,104.399996813965,2|0,0:0|0:0,0:0:0:0:
27,162,35324,2,0,B|84:137|135:182|106:202|153:249|209:229,1,208.79999362793,2|0,0:0|0:0,0:0:0:0:
396,35,36028,6,0,P|380:75|404:129,1,104.399996813965,10|2,0:2|0:2,0:0:0:0:
287,355,36496,2,0,P|303:315|279:261,1,104.399996813965,10|2,0:2|0:2,0:0:0:0:
206,229,36848,2,0,L|93:249,1,104.399996813965,2|0,0:2|0:2,0:0:0:0:
34,208,37199,2,0,B|0:169|35:137|35:137|50:156,1,104.399996813965,2|8,0:2|0:2,0:0:0:0:
42,374,37668,6,0,P|31:348|39:320,1,52.1999984069825,2|0,0:2|0:0,0:0:0:0:
93,264,37903,2,0,L|206:284,1,104.399996813965,10|2,0:2|0:2,0:0:0:0:
481,331,38371,2,0,L|378:349,1,104.399996813965,10|2,0:2|0:2,0:0:0:0:
308,307,38723,2,0,P|285:269|311:207,1,104.399996813965,2|0,0:2|0:2,0:0:0:0:
370,176,39074,1,2,0:2:0:0:
500,30,39309,5,10,0:2:0:0:
429,73,39426,2,0,L|319:54,1,104.399996813965,2|2,0:2|0:2,0:0:0:0:
242,129,39778,6,0,L|174:140,1,60.8999981414796,10|0,0:2|0:2,0:0:0:0:
96,155,40012,2,0,L|28:166,1,60.8999981414796,10|0,0:2|0:2,0:0:0:0:
246,257,40246,6,0,L|313:268,1,60.8999981414796,10|0,0:2|0:2,0:0:0:0:
392,284,40481,2,0,L|459:295,1,60.8999981414796,10|0,0:2|0:2,0:0:0:0:
184,366,40715,6,0,P|165:341|167:307,1,60.8999981414796,10|0,0:2|0:2,0:0:0:0:
243,288,40949,2,0,P|261:312|259:346,1,60.8999981414796,8|2,0:2|0:2,0:0:0:0:
419,207,41184,6,0,P|437:182|435:148,1,60.8999981414796,10|0,0:2|0:2,0:0:0:0:
360,129,41418,2,0,P|341:153|343:187,1,60.8999981414796,10|0,0:2|0:2,0:0:0:0:
241,19,41653,6,0,L|180:29,1,60.8999981414796,10|0,0:2|0:2,0:0:0:0:
106,81,41887,2,0,L|45:71,1,60.8999981414796,10|0,0:2|0:2,0:0:0:0:
263,193,42121,6,0,L|202:203,1,60.8999981414796,10|0,0:2|0:2,0:0:0:0:
129,254,42356,2,0,L|68:244,1,60.8999981414796,8|2,0:2|0:2,0:0:0:0:
341,355,42590,6,0,P|350:323|341:294,1,60.8999981414796,8|0,0:2|0:2,0:0:0:0:
394,233,42824,2,0,P|367:213|336:212,1,60.8999981414796,10|0,0:2|0:2,0:0:0:0:
123,96,43059,6,0,P|146:119|175:126,1,60.8999981414796,8|0,0:2|0:2,0:0:0:0:
202,202,43293,2,0,P|232:188|248:162,1,60.8999981414796,10|0,0:2|0:2,0:0:0:0:
444,14,43528,5,10,0:2:0:0:
400,27,43645,1,8,0:2:0:0:
376,66,43762,1,8,0:2:0:0:
382,111,43879,1,8,0:2:0:0:
416,142,43996,1,10,0:2:0:0:
463,179,44113,1,8,0:0:0:0:
482,235,44231,1,10,0:2:0:0:
466,293,44348,1,8,0:0:0:0:
422,333,44465,5,10,0:2:0:0:
347,341,44582,1,8,0:2:0:0:
284,301,44699,1,8,0:2:0:0:
260,230,44817,1,8,0:2:0:0:
287,160,44934,1,10,0:2:0:0:
283,81,45051,1,8,0:0:0:0:
229,24,45168,1,8,0:2:0:0:
151,17,45285,1,8,0:0:0:0:
90,70,45403,5,10,0:2:0:0:
97,105,45520,1,8,0:2:0:0:
103,136,45637,1,10,0:2:0:0:
108,163,45754,1,8,0:2:0:0:
112,187,45871,1,10,0:2:0:0:
115,208,45988,1,8,0:2:0:0:
118,226,46106,1,8,0:2:0:0:
121,242,46223,1,10,0:2:0:0:
123,254,46340,6,0,P|126:260|124:253,7,8.7,8|0|8|0|8|8|8|8,0:2|3:2|0:2|3:2|0:2|0:0|0:2|0:0,0:0:0:0:
75,316,46809,6,0,P|97:330|126:336,1,43.5,10|0,0:2|0:0,0:0:0:0:
183,373,47043,2,0,P|206:360|225:338,1,43.5,10|0,0:0|0:0,0:0:0:0:
453,239,47278,6,0,P|468:202|458:161,1,78.2999976104737,6|0,1:2|0:2,0:0:0:0:
259,132,47512,2,0,P|283:163|324:175,1,78.2999976104737,2|0,0:2|0:2,0:0:0:0:
440,12,47746,2,0,P|400:17|369:46,1,78.2999976104737,10|0,0:2|0:0,0:0:0:0:
397,286,47981,1,0,0:2:0:0:
397,286,48098,2,0,B|363:248|377:207|395:218|407:175|382:137,1,156.599995220947,2|0,0:2|0:2,0:0:0:0:
236,34,48449,6,0,L|253:123,1,78.2999976104737,2|0,0:2|0:2,0:0:0:0:
156,273,48684,2,0,L|141:196,1,78.2999976104737,10|0,0:2|0:2,0:0:0:0:
2,71,48918,2,0,L|16:147,1,78.2999976104737,2|0,0:2|0:2,0:0:0:0:
252,300,49153,6,0,P|270:262|239:193,1,117.449996415711,2|0,1:2|0:0,0:0:0:0:
218,182,49387,2,0,L|141:196,1,78.2999976104737,2|0,0:2|0:2,0:0:0:0:
327,357,49621,2,0,B|388:366|388:366|419:352|419:352|482:364,1,156.599995220947,10|2,0:2|0:2,0:0:0:0:
428,188,49973,1,2,0:2:0:0:
428,188,50090,2,0,P|377:190|350:253,1,117.449996415711,2|0,1:2|0:0,0:0:0:0:
364,267,50324,2,0,L|440:281,1,78.2999976104737,0|0,0:2|0:0,0:0:0:0:
284,110,50559,6,0,L|274:33,1,78.2999976104737,10|0,0:2|0:2,0:0:0:0:
166,101,50793,2,0,L|177:179,1,78.2999976104737,2|0,0:2|0:2,0:0:0:0:
50,316,51028,6,0,P|35:279|45:238,1,78.2999976104737,2|0,1:2|0:2,0:0:0:0:
244,209,51262,2,0,P|219:240|178:252,1,78.2999976104737,2|0,0:2|0:2,0:0:0:0:
63,89,51496,2,0,P|102:94|133:123,1,78.2999976104737,10|0,0:2|0:0,0:0:0:0:
121,370,51731,1,2,0:2:0:0:
121,370,51848,2,0,B|145:330|130:287|113:301|97:258|118:218,1,156.599995220947,2|0,0:2|0:2,0:0:0:0:
274,33,52199,6,0,B|288:71|288:71|281:109,1,78.2999976104737,2|0,0:2|0:2,0:0:0:0:
396,276,52434,2,0,B|389:238|389:238|403:200,1,78.2999976104737,10|0,0:2|0:2,0:0:0:0:
494,29,52668,2,0,B|508:67|508:67|501:105,1,78.2999976104737,2|0,0:2|0:2,0:0:0:0:
307,282,52903,6,0,P|275:248|305:185,1,117.449996415711,2|0,1:2|0:0,0:0:0:0:
327,178,53137,2,0,L|407:202,1,78.2999976104737,2|0,0:2|0:2,0:0:0:0:
183,374,53371,2,0,B|177:344|177:344|184:329|184:329|179:298,1,78.2999976104737,10|0,0:2|0:0,0:0:0:0:
31,149,53606,1,2,0:2:0:0:
31,149,53723,2,0,P|0:213|47:279,1,156.599995220947,2|0,0:2|0:0,0:0:0:0:
157,120,54074,6,0,L|141:29,1,78.2999976104737,2|0,0:2|0:2,0:0:0:0:
255,217,54309,2,0,L|268:294,1,78.2999976104737,10|0,0:2|0:2,0:0:0:0:
388,119,54543,2,0,P|401:61|368:18,1,117.449996415711,2|0,0:2|0:0,0:0:0:0:
340,13,54778,6,0,L|262:26,1,78.2999976104737,2|0,1:2|0:2,0:0:0:0:
384,192,55012,1,2,0:2:0:0:
398,203,55129,1,2,0:2:0:0:
410,214,55246,2,0,L|488:227,1,78.2999976104737,10|0,0:2|0:0,0:0:0:0:
279,362,55481,5,2,0:2:0:0:
281,337,55598,1,2,0:2:0:0:
284,315,55715,1,2,1:2:0:0:
291,240,55832,2,0,P|246:247|217:274,1,78.2999976104737,2|0,0:2|0:2,0:0:0:0:
456,323,56067,5,2,0:2:0:0:
391,269,56184,2,0,L|383:190,1,78.2999976104737,10|0,0:2|0:2,0:0:0:0:
476,5,56418,6,0,P|502:63|480:108,1,117.449996415711,2|0,0:2|0:0,0:0:0:0:
454,121,56653,2,0,L|376:108,1,78.2999976104737,2|0,1:2|0:0,0:0:0:0:
264,33,56887,2,0,L|186:46,1,78.2999976104737,2|0,0:2|0:2,0:0:0:0:
29,158,57121,2,0,L|146:177,1,117.449996415711,10|0,0:2|0:0,0:0:0:0:
172,186,57356,2,0,P|162:137|134:134,1,78.2999976104737,0|0,0:2|0:2,0:0:0:0:
140,350,57590,2,0,P|184:365|251:319,1,117.449996415711,2|0,1:2|0:0,0:0:0:0:
257,306,57824,6,0,L|239:215,1,78.2999976104737,2|0,0:2|0:2,0:0:0:0:
409,306,58059,2,0,L|424:382,1,78.2999976104737,10|0,0:2|0:2,0:0:0:0:
494,196,58293,2,0,P|512:145|478:85,1,117.449996415711,2|0,0:2|0:0,0:0:0:0:
461,75,58528,6,0,L|384:90,1,78.2999976104737,2|0,1:2|0:2,0:0:0:0:
265,215,58762,2,0,L|341:230,1,78.2999976104737,2|0,0:2|0:2,0:0:0:0:
209,33,58996,2,0,L|193:109,1,78.2999976104737,10|0,0:2|0:2,0:0:0:0:
41,247,59231,5,2,0:2:0:0:
24,223,59348,1,2,0:2:0:0:
36,194,59465,2,0,L|112:178,1,78.2999976104737,2|0,1:2|0:2,0:0:0:0:
248,377,59699,5,2,0:2:0:0:
265,354,59817,1,2,0:2:0:0:
256,325,59934,2,0,L|179:309,1,78.2999976104737,10|0,0:2|0:2,0:0:0:0:
396,115,60168,5,2,0:2:0:0:
366,97,60285,1,2,0:2:0:0:
338,106,60403,2,0,P|315:164|350:217,1,123.97499668951,10|0,1:2|0:0,0:0:0:0:
370,227,60637,2,0,L|453:216,1,82.649997793007,0|0,1:2|1:2,0:0:0:0:
191,67,60871,6,0,B|138:59|138:59|122:44|122:44|74:39,1,123.97499668951,10|0,0:2|0:0,0:0:0:0:
46,40,61106,2,0,P|27:74|37:114,1,82.649997793007,0|0,1:2|0:2,0:0:0:0:
256,325,61340,6,0,B|267:283|267:283|251:246,1,82.649997793007,10|0,0:2|0:2,0:0:0:0:
101,223,61574,2,0,B|89:264|89:264|105:301,1,82.649997793007,2|0,1:2|0:2,0:0:0:0:
388,157,61809,6,0,B|421:91|365:40|365:40|339:53|328:77,1,182.699994424439,10|8,0:2|0:2,0:0:0:0:
286,182,62160,1,10,0:2:0:0:
376,278,62278,6,0,B|425:269|425:269|441:249|441:249|489:242,1,117.449996415711,6|0,1:2|0:0,0:0:0:0:
511,241,62512,2,0,L|492:322,1,78.2999976104737,0|0,0:2|0:2,0:0:0:0:
297,169,62746,2,0,P|276:122|304:65,1,117.449996415711,10|0,0:2|0:0,0:0:0:0:
333,55,62981,2,0,L|427:73,1,78.2999976104737,0|0,0:2|0:2,0:0:0:0:
306,257,63215,5,10,1:1:0:0:
238,291,63332,1,8,2:1:0:0:
170,259,63449,1,8,2:1:0:0:
153,186,63567,1,8,2:1:0:0:
200,127,63684,2,0,P|218:64|177:12,1,117.449996415711,10|0,0:2|0:0,0:0:0:0:
164,16,63918,2,0,L|87:31,1,78.2999976104737,0|0,0:2|0:2,0:0:0:0:
256,200,64153,6,0,L|333:215,1,78.2999976104737,2|0,1:2|0:2,0:0:0:0:
483,243,64387,1,8,2:1:0:0:
501,313,64504,1,8,2:1:0:0:
443,360,64621,2,0,L|367:345,1,78.2999976104737,10|0,0:2|0:2,0:0:0:0:
234,365,64856,2,0,P|224:327|238:291,1,78.2999976104737,0|0,0:2|0:0,0:0:0:0:
350,95,65090,5,2,1:2:0:0:
414,57,65207,1,8,2:1:0:0:
479,94,65324,1,8,2:1:0:0:
479,169,65442,1,8,2:1:0:0:
414,205,65559,2,0,L|337:190,1,78.2999976104737,10|0,0:2|0:2,0:0:0:0:
185,66,65793,6,0,B|222:47|222:47|255:62,1,78.2999976104737,2|0,0:2|0:2,0:0:0:0:
164,249,66028,6,0,P|114:271|55:238,1,117.449996415711,2|0,1:2|0:0,0:0:0:0:
42,220,66262,2,0,P|35:180|57:143,1,78.2999976104737,0|0,0:0|0:2,0:0:0:0:
263,228,66496,2,0,L|240:347,1,117.449996415711,10|0,0:2|0:0,0:0:0:0:
233,369,66731,2,0,L|314:353,1,78.2999976104737,0|0,0:2|0:2,0:0:0:0:
460,104,66965,5,10,1:1:0:0:
511,159,67082,1,8,2:1:0:0:
486,229,67199,1,8,2:1:0:0:
413,242,67317,1,10,2:1:0:0:
366,184,67434,2,0,B|319:175|319:175|304:159|304:159|255:150,1,117.449996415711,10|0,0:2|0:0,0:0:0:0:
230,130,67668,2,0,P|215:164|229:208,1,78.2999976104737,0|0,0:2|0:2,0:0:0:0:
0,274,67903,6,0,L|83:257,1,78.2999976104737,2|0,1:2|0:2,0:0:0:0:
273,261,68137,1,8,2:1:0:0:
304,327,68254,1,8,2:1:0:0:
252,379,68371,2,0,L|169:362,1,78.2999976104737,10|0,0:2|0:2,0:0:0:0:
0,180,68606,6,0,L|121:155,1,117.449996415711,0|0,0:2|0:0,0:0:0:0:
136,136,68840,2,0,P|155:169|148:210,1,78.2999976104737,2|0,1:2|0:2,0:0:0:0:
0,360,69074,1,10,2:1:0:0:
67,321,69192,1,8,2:1:0:0:
133,282,69309,2,0,L|209:297,1,78.2999976104737,10|0,0:2|0:0,0:0:0:0:
438,356,69543,5,0,3:0:0:0:
438,356,69660,1,0,3:0:0:0:
438,356,69778,2,0,P|464:311|439:240,1,123.97499668951,2|0,1:2|0:0,0:0:0:0:
422,228,70012,2,0,L|339:244,1,82.649997793007,0|0,0:2|0:2,0:0:0:0:
508,69,70246,2,0,L|373:95,1,123.97499668951,10|0,0:2|0:0,0:0:0:0:
373,119,70481,2,0,P|347:90|352:36,1,82.649997793007,0|0,0:2|0:2,0:0:0:0:
273,282,70715,5,2,1:2:0:0:
202,317,70832,1,8,2:1:0:0:
136,274,70949,1,8,2:1:0:0:
138,195,71067,1,8,2:1:0:0:
207,154,71184,2,0,L|297:171,1,82.649997793007,10|0,0:2|0:2,0:0:0:0:
54,22,71418,2,0,P|36:59|51:98,1,82.649997793007,0|0,0:2|0:2,0:0:0:0:
14,298,71653,6,0,L|141:272,1,123.97499668951,2|0,1:2|0:0,0:0:0:0:
166,284,71887,2,0,P|185:321|174:360,1,82.649997793007,0|0,0:2|2:2,0:0:0:0:
11,207,72121,2,0,P|-11:157|32:94,1,123.97499668951,10|0,0:2|0:0,0:0:0:0:
49,96,72356,2,0,L|135:112,1,82.649997793007,0|0,0:2|0:2,0:0:0:0:
361,72,72590,5,2,1:2:0:0:
290,37,72707,1,8,2:1:0:0:
224,80,72824,1,8,2:1:0:0:
226,159,72942,1,8,2:1:0:0:
295,199,73059,2,0,L|385:181,1,82.649997793007,10|0,0:2|0:2,0:0:0:0:
173,359,73293,6,0,B|153:317|153:317|167:279,1,82.649997793007,2|0,0:2|0:2,0:0:0:0:
389,159,73528,6,0,L|372:241,1,82.649997793007,2|0,1:2|0:0,0:0:0:0:
240,315,73762,1,8,2:1:0:0:
303,363,73879,1,8,2:1:0:0:
378,355,73996,2,0,L|459:338,1,82.649997793007,10|0,0:2|0:2,0:0:0:0:
227,233,74231,2,0,L|146:216,1,82.649997793007,0|0,0:2|0:2,0:0:0:0:
389,159,74465,5,8,1:1:0:0:
455,117,74582,1,8,2:1:0:0:
450,39,74699,1,8,2:1:0:0:
379,6,74817,1,8,2:1:0:0:
316,54,74934,2,0,P|282:72|230:65,1,82.649997793007,10|0,0:2|0:2,0:0:0:0:
16,122,75168,2,0,P|56:118|93:137,1,82.649997793007,0|0,0:2|0:2,0:0:0:0:
240,315,75403,6,0,L|229:233,1,82.649997793007,2|0,1:2|0:2,0:0:0:0:
425,95,75637,1,8,2:1:0:0:
462,164,75754,1,8,2:1:0:0:
411,224,75871,2,0,L|329:213,1,82.649997793007,10|0,0:2|0:2,0:0:0:0:
137,201,76106,2,0,P|110:251|136:313,1,123.97499668951,0|0,0:2|0:0,0:0:0:0:
158,325,76340,6,0,L|239:314,1,82.649997793007,2|0,1:2|0:2,0:0:0:0:
500,350,76574,1,10,2:1:0:0:
453,288,76692,1,8,2:1:0:0:
411,224,76809,2,0,L|421:142,1,82.649997793007,10|2,0:2|0:2,0:0:0:0:
304,33,77043,5,0,3:0:0:0:
304,33,77160,1,0,3:2:0:0:
304,33,77278,2,0,P|251:28|224:85,1,123.97499668951,2|0,1:2|0:0,0:0:0:0:
229,109,77512,2,0,L|239:190,1,82.649997793007,0|0,0:2|0:2,0:0:0:0:
88,51,77746,2,0,L|103:172,1,123.97499668951,10|0,0:2|0:0,0:0:0:0:
93,197,77981,2,0,P|47:211|17:187,1,82.649997793007,0|0,0:2|0:2,0:0:0:0:
229,109,78215,5,2,1:2:0:0:
307,102,78332,1,8,2:1:0:0:
352,167,78449,1,8,2:1:0:0:
320,239,78567,1,8,2:1:0:0:
242,251,78684,1,10,0:2:0:0:
163,251,78801,1,8,2:1:0:0:
130,322,78918,1,8,2:1:0:0:
181,382,79035,1,8,2:1:0:0:
256,362,79153,6,0,L|340:372,1,82.649997793007,2|0,1:2|0:2,0:0:0:0:
435,170,79387,1,8,2:1:0:0:
398,239,79504,1,8,2:1:0:0:
449,299,79621,2,0,L|459:383,1,82.649997793007,10|0,0:2|0:2,0:0:0:0:
280,169,79856,2,0,P|263:132|274:94,1,82.649997793007,0|0,0:2|0:2,0:0:0:0:
499,25,80090,5,2,1:2:0:0:
451,88,80207,1,8,2:1:0:0:
372,88,80324,1,8,2:1:0:0:
326,22,80442,1,8,2:1:0:0:
248,5,80559,1,10,0:2:0:0:
185,53,80676,1,8,2:1:0:0:
184,132,80793,1,10,2:1:0:0:
131,190,80910,1,8,2:1:0:0:
57,165,81028,5,2,1:2:0:0:
57,165,81145,1,8,2:1:0:0:
57,165,81262,2,0,P|36:126|48:88,1,87,8|8,2:1|2:1,0:0:0:0:
181,258,81496,5,10,0:2:0:0:
188,338,81613,1,8,2:1:0:0:
118,384,81731,1,8,2:1:0:0:
47,343,81848,1,8,2:1:0:0:
48,261,81965,5,2,1:2:0:0:
48,261,82082,1,8,2:1:0:0:
48,261,82199,2,0,P|76:255|54:266,1,87,8|8,2:1|2:1,0:0:0:0:
191,356,82434,5,10,0:2:0:0:
272,358,82551,1,8,2:1:0:0:
328,297,82668,1,8,2:1:0:0:
322,216,82785,1,8,2:1:0:0:
255,167,82903,5,10,0:2:0:0:
255,167,83020,1,8,2:1:0:0:
255,167,83137,2,0,P|228:158|253:176,1,87,10|0,2:1|0:2,0:0:0:0:
373,62,83371,6,0,B|381:115|381:115|397:132|397:132|405:188,1,130.5,10|0,0:2|0:0,0:0:0:0:
433,193,83606,2,0,L|421:283,1,87,8|0,2:1|0:2,0:0:0:0:
191,356,83840,5,10,0:2:0:0:
113,324,83957,1,8,2:1:0:0:
108,242,84074,1,8,0:2:0:0:
180,202,84192,1,8,2:1:0:0:
248,250,84309,2,0,B|296:269|326:241|311:227|347:196|388:220,1,156.599995220947,8|8,0:2|1:2,0:0:0:0:
42,137,84778,6,0,P|22:83|52:40,1,104.399996813965,6|2,1:2|0:2,0:0:0:0:
157,9,85246,2,0,L|142:128,1,104.399996813965,2|0,0:2|0:2,0:0:0:0:
194,189,85598,1,2,0:2:0:0:
194,189,85871,5,2,0:0:0:0:
212,197,85949,1,10,0:3:0:0:
281,248,86106,5,2,0:0:0:0:
303,238,86184,1,10,0:2:0:0:
374,195,86340,5,2,0:0:0:0:
401,207,86418,1,10,1:3:0:0:
474,260,86574,5,2,0:0:0:0:
512,243,86653,1,6,1:2:0:0:
256,192,86770,12,0,90754,0:0:0:0:
