osu file format v14

[General]
AudioFilename: audio.mp3
AudioLeadIn: 0
PreviewTime: 46809
Countdown: 0
SampleSet: Soft
StackLeniency: 0.2
Mode: 0
LetterboxInBreaks: 0
WidescreenStoryboard: 1

[Editor]
Bookmarks: 43596,46453,65861,77580,81096,90705
DistanceSpacing: 0.3
BeatDivisor: 4
GridSize: 32
TimelineZoom: 2.999999

[Metadata]
Title:Grandeur (TV Size)
TitleUnicode:Grandeur (TV Size)
Artist:Snow Man
ArtistUnicode:Snow Man
Creator:HakuYT
Version:PaRaDogi's Insane
Source:ブラッククローバー
Tags:black clover op opening 13 anime japanese asta yami dante vanica zenon yuno noelle pop j-pop jpop paradogi kloster soue
BeatmapID:2783345
BeatmapSetID:1328147

[Difficulty]
HPDrainRate:5
CircleSize:4.5
OverallDifficulty:8
ApproachRate:9
SliderMultiplier:2.4
SliderTickRate:1

[Events]
//Background and Video events
Video,-970,"black clover.mp4"
0,0,"bcg.jpg",0,0
//Break Periods
//Storyboard Layer 0 (Background)
//Storyboard Layer 1 (Fail)
//Storyboard Layer 2 (Pass)
//Storyboard Layer 3 (Foreground)
//Storyboard Layer 4 (Overlay)
//Storyboard Sound Samples

[TimingPoints]
2273,468.75,4,2,1,45,1,0
2273,-100,4,2,1,40,0,0
9787,468.75,4,2,1,45,1,0
9787,-90.9090909090909,4,2,1,60,0,0
14240,-90.9090909090909,4,2,1,70,0,0
17278,468.75,4,2,1,70,1,0
17278,-100,4,2,1,70,0,0
32278,-133.333333333333,4,2,1,60,0,0
39778,-133.333333333333,4,2,1,70,0,0
45403,-133.333333333333,4,2,1,40,0,0
46453,-133.333333333333,4,2,1,60,0,0
46809,-133.333333333333,4,2,1,70,0,0
47278,-83.3333333333333,4,2,1,80,0,1
62278,-100,4,2,1,80,0,0
81028,-100,4,2,1,80,0,1
84778,-181.818181818181,4,2,2,55,0,0
85246,-181.818181818181,4,2,1,55,0,0
85871,-181.818181818181,4,2,1,70,0,0
90754,-181.818181818181,4,2,1,5,0,0

[Colours]
Combo1 : 255,255,191
Combo2 : 191,255,191
Combo3 : 255,191,191
Combo4 : 255,223,191

[HitObjects]
16,24,2273,5,8,1:2:0:0:
114,96,2507,1,2,0:2:0:0:
107,111,2624,1,2,0:2:0:0:
39,149,2741,2,0,P|79:210|94:257,1,120,2|2,0:2|0:2,0:0:0:0:
90,266,3093,1,2,0:2:0:0:
185,139,3327,2,0,B|212:114|219:90|207:78|210:56|251:37,1,120,2|2,0:2|0:2,0:0:0:0:
246,33,3679,1,2,0:2:0:0:
299,210,3913,2,0,P|266:162|261:129,1,60,2|2,0:2|0:2,0:0:0:0:
206,232,4148,6,0,B|178:263|178:284|186:289|188:316|150:344,2,120,2|2|2,0:2|0:2|0:2,0:0:0:0:
319,104,4851,2,0,P|295:50|284:40,1,60,2|2,0:2|0:2,0:0:0:0:
412,19,5241,5,2,0:0:0:0:
418,38,5320,1,2,0:0:0:0:
505,98,5476,5,2,0:0:0:0:
495,125,5554,1,2,0:0:0:0:
426,202,5710,5,2,0:0:0:0:
441,243,5788,1,2,0:0:0:0:
508,338,5944,5,0,0:0:0:0:
490,378,6023,6,0,P|459:322|439:309,2,60,0|2|2,1:2|0:2|0:2,0:0:0:0:
364,280,6491,2,0,P|350:370|314:392,1,120,2|2,0:2|0:2,0:0:0:0:
283,257,6960,2,0,P|257:200|246:188,1,60,2|0,0:2|0:2,0:0:0:0:
228,326,7195,1,2,0:2:0:0:
218,317,7312,2,0,B|170:317|165:336|164:343|149:366|68:361,1,120,2|2,0:2|0:2,0:0:0:0:
5,283,7781,1,2,0:2:0:0:
20,269,7898,6,0,P|-1:200|-25:151,2,120,2|2|2,0:2|0:2|0:2,0:0:0:0:
74,140,8601,1,2,0:2:0:0:
82,126,8718,1,0,0:2:0:0:
9,73,8835,2,0,P|-25:18|-42:7,1,60,2|0,0:2|0:2,0:0:0:0:
94,38,9070,1,2,0:2:0:0:
107,22,9187,2,0,B|142:31|161:46|161:59|178:80|246:86,1,120,2|2,0:2|0:2,0:0:0:0:
274,29,9538,2,0,P|316:-2|334:-7,1,60,2|0,0:2|0:2,0:0:0:0:
282,107,9787,6,0,P|309:181|310:194,1,66.0000020141602,14|2,0:2|0:2,0:0:0:0:
246,247,10021,1,2,0:2:0:0:
238,231,10138,1,2,0:2:0:0:
325,241,10255,2,0,B|366:236|382:265|380:274|402:298|454:285,1,132.00000402832,10|2,0:2|0:2,0:0:0:0:
286,360,10724,1,8,0:2:0:0:
302,369,10841,2,0,P|370:338|384:338,1,66.0000020141602,2|0,0:2|0:2,0:0:0:0:
201,323,11076,1,2,0:2:0:0:
191,314,11193,2,0,B|155:313|136:329|142:346|119:369|38:375,1,132.00000402832,10|2,0:2|0:2,0:0:0:0:
14,325,11544,1,2,0:2:0:0:
5,311,11662,6,0,L|0:210,1,66.0000020141602,8|0,0:2|0:0,0:0:0:0:
57,189,11896,1,0,0:2:0:0:
3,46,12130,1,10,0:2:0:0:
170,3,12365,2,0,P|140:65|141:92,1,66.0000020141602,2|0,0:2|0:2,0:0:0:0:
146,151,12599,2,0,B|185:147|198:129|193:113|203:95|273:79,1,132.00000402832,10|0,0:2|0:2,0:0:0:0:
296,18,12951,1,2,0:2:0:0:
305,23,13068,1,8,0:0:0:0:
415,68,13302,2,0,P|441:4|447:-2,1,66.0000020141602,2|0,0:2|0:2,0:0:0:0:
336,105,13537,6,0,P|371:188|387:248,1,132.00000402832,8|2,0:2|0:2,0:0:0:0:
352,300,13888,1,10,2:1:0:0:
348,309,14005,1,10,0:2:0:0:
485,378,14240,6,0,L|493:341,4,33.0000010070801,10|8|8|8|10,2:1|2:1|2:1|2:1|0:2,0:0:0:0:
472,204,14591,1,8,2:1:0:0:
458,197,14708,6,0,L|471:267,1,66.0000020141602,10|10,0:2|2:1,0:0:0:0:
504,57,14943,2,0,L|490:131,1,66.0000020141602,8|10,0:2|2:1,0:0:0:0:
426,17,15177,1,8,0:2:0:0:
421,6,15294,1,10,2:1:0:0:
362,59,15412,2,0,B|321:69|294:56|300:28|270:13|188:27,1,132.00000402832,10|8,0:2|0:2,0:0:0:0:
120,78,15763,1,0,0:0:0:0:
112,84,15880,2,0,P|90:20|78:9,1,66.0000020141602,8|8,0:2|2:1,0:0:0:0:
203,101,16115,2,0,L|190:148,3,33.0000010070801,10|0|8|8,0:2|0:0|2:1|2:1,0:0:0:0:
152,156,16349,6,0,L|164:193,10,22.0000006713867,8|0|0|8|0|0|8|0|0|10|0,2:1|0:0|0:0|2:1|0:0|0:0|2:1|0:0|0:0|2:1|0:0,0:0:0:0:
155,193,16818,5,0,0:0:0:0:
26,72,17052,1,2,0:0:0:0:
16,240,17278,5,6,1:2:0:0:
19,255,17395,1,2,0:2:0:0:
81,308,17512,2,0,P|100:252|118:231,1,60,2|0,0:2|0:2,0:0:0:0:
146,362,17746,1,2,1:2:0:0:
162,372,17864,1,2,0:2:0:0:
241,366,17981,2,0,P|292:333|305:331,1,60,2|0,0:2|0:2,0:0:0:0:
317,261,18215,2,0,B|355:278|363:296|358:304|365:326|414:338,1,120,2|2,1:2|0:2,0:0:0:0:
482,330,18567,1,2,0:2:0:0:
486,323,18684,2,0,P|449:255|428:254,1,60,0|0,1:2|0:0,0:0:0:0:
400,151,19036,1,0,0:0:0:0:
408,140,19153,6,0,B|448:142|469:156|460:169|480:192|531:194,1,120,2|2,1:2|0:2,0:0:0:0:
339,77,19621,2,0,P|385:35|392:23,1,60,2|2,1:2|0:2,0:0:0:0:
265,130,19856,1,2,0:2:0:0:
272,142,19973,1,2,0:2:0:0:
217,201,20090,2,0,P|243:102|244:59,1,120,2|0,1:2|0:2,0:0:0:0:
199,25,20442,1,2,0:2:0:0:
188,15,20559,2,0,P|244:-4|259:-11,1,60,2|0,1:2|0:2,0:0:0:0:
76,37,20793,2,0,P|130:69|140:80,1,60,2|0,0:2|0:2,0:0:0:0:
0,0,21028,6,0,P|30:55|48:116,1,120,2|2,1:2|0:2,0:0:0:0:
4,233,21496,1,2,1:2:0:0:
11,246,21614,1,2,0:2:0:0:
70,295,21731,2,0,P|48:357|46:371,1,60,2|0,0:2|0:2,0:0:0:0:
153,258,21965,2,0,B|129:237|132:208|140:202|147:179|116:136,1,120,2|2,1:2|0:2,0:0:0:0:
132,136,22317,1,2,0:2:0:0:
240,260,22551,1,2,0:2:0:0:
307,374,22786,1,2,0:2:0:0:
316,362,22903,6,0,P|377:384|394:393,1,60,2|0,1:2|0:2,0:0:0:0:
332,277,23137,2,0,B|369:277|383:254|377:237|393:219|451:212,2,120,2|0|0,0:2|1:2|0:2,0:0:0:0:
243,226,23723,1,2,0:2:0:0:
228,215,23840,2,0,P|179:256|169:276,1,60,2|0,1:2|0:0,0:0:0:0:
190,137,24075,1,2,0:2:0:0:
185,119,24192,1,0,0:0:0:0:
187,39,24309,2,0,P|248:68|283:73,1,60,2|0,1:2|0:0,0:0:0:0:
339,15,24543,2,0,P|406:-2|423:3,1,60,2|2,0:2|0:2,0:0:0:0:
507,6,24778,6,0,P|468:76|445:124,1,120,6|2,1:2|0:2,0:0:0:0:
345,171,25246,2,0,P|326:111|301:92,1,60,10|0,1:2|0:2,0:0:0:0:
443,212,25481,1,2,0:2:0:0:
433,230,25598,1,0,0:2:0:0:
454,305,25715,2,0,P|393:254|343:248,1,120,2|0,1:2|0:2,0:0:0:0:
295,300,26067,1,2,0:2:0:0:
287,316,26184,1,8,1:2:0:0:
221,375,26301,2,0,P|185:319|163:302,1,60,2|0,0:2|0:2,0:0:0:0:
94,270,26536,1,2,0:2:0:0:
78,261,26653,6,0,B|70:226|90:204|104:206|118:180|112:135,1,120,2|0,1:2|0:0,0:0:0:0:
21,51,27121,1,10,1:2:0:0:
181,4,27239,2,0,P|119:31|101:32,1,60,0|2,0:2|0:2,0:0:0:0:
214,97,27473,1,0,0:2:0:0:
223,85,27590,2,0,P|279:113|342:147,1,120,2|2,1:2|0:2,0:0:0:0:
397,102,27942,1,2,0:2:0:0:
408,96,28059,2,0,P|464:59|478:48,1,60,8|2,1:2|0:2,0:0:0:0:
399,189,28293,2,0,P|454:222|474:238,1,60,0|2,0:2|0:2,0:0:0:0:
324,238,28528,6,0,P|348:324|357:354,1,120,2|2,1:2|0:2,0:0:0:0:
255,186,28996,1,10,1:2:0:0:
209,360,29231,2,0,P|181:313|172:279,1,60,2|2,0:2|0:2,0:0:0:0:
75,367,29465,2,0,P|98:297|112:238,1,120,2|2,1:2|0:2,0:0:0:0:
66,188,29817,1,2,0:2:0:0:
54,179,29934,2,0,P|0:149|-20:148,1,60,8|2,1:2|0:2,0:0:0:0:
167,15,30285,1,0,0:0:0:0:
162,6,30403,5,8,1:2:0:0:
246,24,30520,2,0,P|215:79|195:135,1,120,8|8,2:1|1:1,0:0:0:0:
259,215,30871,2,0,P|248:174|239:164,6,30,8|0|8|8|8|8|8,0:2|0:0|2:1|2:1|2:1|2:1|2:1,0:0:0:0:
310,126,31340,5,8,1:2:0:0:
347,95,31457,1,8,2:1:0:0:
397,98,31575,1,10,2:1:0:0:
438,131,31692,1,8,2:1:0:0:
510,173,31809,5,8,0:2:0:0:
495,191,31926,1,10,2:1:0:0:
487,215,32043,1,10,2:1:0:0:
487,244,32161,1,8,2:1:0:0:
496,270,32278,6,0,L|396:288,2,90.0000034332277,14|2|10,0:2|0:0|0:2,0:0:0:0:
378,358,32981,1,2,0:0:0:0:
283,273,33215,1,10,0:2:0:0:
191,364,33450,1,2,0:0:0:0:
173,358,33567,1,2,0:0:0:0:
154,349,33684,2,0,P|170:301|172:253,1,90.0000034332277,10|2,0:2|0:0,0:0:0:0:
117,182,34153,5,10,0:2:0:0:
28,218,34387,1,2,0:0:0:0:
19,204,34504,1,2,0:0:0:0:
8,192,34621,2,0,P|24:98|22:87,1,90.0000034332277,10|2,0:2|0:0,0:0:0:0:
119,17,35090,2,0,L|25:26,2,90.0000034332277,8|2|8,0:2|0:0|0:2,0:0:0:0:
200,71,35793,1,0,0:0:0:0:
283,9,36028,6,0,P|325:41|377:56,1,90.0000034332277,10|2,0:2|0:2,0:0:0:0:
289,131,36496,2,0,P|328:171|348:207,1,90.0000034332277,10|2,0:2|0:2,0:0:0:0:
325,273,36848,1,2,0:2:0:0:
319,285,36965,2,0,L|305:382,2,90.0000034332277,8|2|8,0:0|0:2|0:2,0:0:0:0:
406,257,37668,1,2,0:2:0:0:
476,355,37903,6,0,P|492:308|517:266,1,90.0000034332277,10|2,0:2|0:2,0:0:0:0:
469,189,38371,2,0,P|452:138|434:103,1,90.0000034332277,10|2,0:2|0:2,0:0:0:0:
337,38,38840,2,0,B|386:0|426:14|433:31|465:44|516:-2,1,180.000006866455,8|10,0:0|0:2,0:0:0:0:
364,152,39543,2,0,P|304:126|283:126,1,45.0000017166138,0|2,0:0|0:2,0:0:0:0:
266,76,39778,5,10,0:0:0:0:
192,104,40012,1,10,0:0:0:0:
294,217,40246,5,10,0:0:0:0:
202,192,40481,1,10,0:0:0:0:
325,302,40715,5,10,0:0:0:0:
199,353,40950,1,10,0:0:0:0:
390,362,41184,5,8,0:0:0:0:
410,284,41418,1,10,0:0:0:0:
134,270,41653,5,10,0:0:0:0:
114,192,41887,1,10,0:0:0:0:
439,203,42121,5,10,0:0:0:0:
459,125,42356,1,8,0:0:0:0:
84,113,42590,5,8,0:0:0:0:
64,35,42825,1,10,0:0:0:0:
261,120,43059,6,0,L|252:181,1,45.0000017166138,8|0,0:0|0:0,0:0:0:0:
215,231,43293,2,0,L|227:285,1,45.0000017166138,10|0,0:0|0:0,0:0:0:0:
263,347,43528,5,10,0:2:0:0:
283,366,43645,1,8,0:2:0:0:
315,373,43762,1,8,0:2:0:0:
341,371,43879,1,8,0:2:0:0:
367,357,43996,2,0,L|378:303,3,45.0000017166138,10|8|10|8,0:0|0:0|0:0|0:0,0:0:0:0:
465,266,44465,5,10,0:2:0:0:
454,219,44582,1,8,0:2:0:0:
445,168,44700,1,8,0:2:0:0:
436,121,44817,1,8,0:2:0:0:
425,73,44934,2,0,L|413:17,3,45.0000017166138,10|8|8|8,0:0|0:0|0:0|0:0,0:0:0:0:
302,5,45403,5,10,0:0:0:0:
228,27,45520,1,8,0:0:0:0:
195,69,45637,1,10,0:0:0:0:
195,108,45754,1,8,0:0:0:0:
217,140,45871,1,10,0:0:0:0:
232,165,45989,1,8,0:0:0:0:
237,191,46106,1,8,0:0:0:0:
230,215,46223,1,10,0:0:0:0:
218,229,46340,6,0,L|188:219,8,22.5000008583069,8|0|8|0|8|8|8|8|10,0:2|3:2|0:0|3:2|0:0|0:0|0:0|0:0|0:0,0:0:0:0:
34,17,47043,5,10,0:0:0:0:
6,191,47278,6,0,P|89:150|106:145,1,71.9999978027344,6|0,1:2|0:2,0:0:0:0:
208,89,47512,2,0,P|175:73|144:55,1,71.9999978027344,2|0,0:2|0:2,0:0:0:0:
143,176,47746,2,0,B|114:212|116:239|135:248|145:277|103:327,1,143.999995605469,10|0,0:2|0:2,0:0:0:0:
182,376,48098,1,2,0:2:0:0:
194,369,48215,1,0,1:2:0:0:
54,258,48450,1,2,0:2:0:0:
223,166,48684,2,0,P|287:89|254:34,1,143.999995605469,10|2,0:2|0:2,0:0:0:0:
331,207,49153,6,0,P|377:271|384:297,1,71.9999978027344,2|0,1:2|0:2,0:0:0:0:
470,109,49387,2,0,P|424:173|417:199,1,71.9999978027344,2|0,0:2|0:2,0:0:0:0:
489,339,49621,2,0,B|446:332|419:343|424:363|402:385|336:375,1,143.999995605469,10|2,0:2|0:2,0:0:0:0:
249,247,50090,1,0,1:2:0:0:
170,313,50325,1,0,0:2:0:0:
162,302,50442,1,0,0:0:0:0:
102,235,50559,2,0,P|66:310|58:323,1,71.9999978027344,10|0,0:2|0:2,0:0:0:0:
11,159,50793,1,2,0:2:0:0:
4,144,50911,1,0,0:2:0:0:
26,69,51028,6,0,B|73:77|93:51|90:37|107:16|194:20,1,143.999995605469,2|2,1:2|0:2,0:0:0:0:
309,110,51496,2,0,P|224:80|212:68,1,71.9999978027344,10|0,0:2|0:0,0:0:0:0:
392,43,51731,1,2,0:2:0:0:
397,30,51848,1,2,0:2:0:0:
463,83,51965,2,0,P|488:157|509:237,1,143.999995605469,2|2,1:2|0:2,0:0:0:0:
400,349,52434,2,0,P|430:274|441:258,1,71.9999978027344,10|0,0:2|0:2,0:0:0:0:
289,243,52668,2,0,P|261:175|248:158,1,71.9999978027344,2|0,0:2|0:2,0:0:0:0:
165,44,52903,6,0,B|222:28|222:28|242:37|242:37|312:20,1,143.999995605469,2|2,1:2|0:2,0:0:0:0:
178,133,53371,1,10,0:2:0:0:
83,20,53606,1,2,0:2:0:0:
68,13,53723,1,2,0:2:0:0:
49,2,53840,2,0,P|79:78|85:97,1,71.9999978027344,0|0,1:2|0:0,0:0:0:0:
39,136,54075,1,2,0:2:0:0:
85,258,54309,2,0,P|155:293|188:320,1,71.9999978027344,10|0,0:2|0:2,0:0:0:0:
185,355,54543,1,2,0:2:0:0:
332,325,54778,6,0,B|364:285|357:257|346:253|338:222|369:175,1,143.999995605469,2|2,1:2|0:2,0:0:0:0:
467,50,55246,2,0,P|486:130|494:160,1,71.9999978027344,10|0,0:2|0:0,0:0:0:0:
348,23,55481,1,2,0:2:0:0:
331,17,55598,1,2,0:2:0:0:
267,61,55715,2,0,P|194:29|155:19,1,71.9999978027344,2|2,1:2|0:2,0:0:0:0:
79,5,55950,1,0,0:2:0:0:
65,10,56067,1,2,0:2:0:0:
4,60,56184,2,0,B|31:83|36:120|15:132|-3:175|54:217,1,143.999995605469,10|2,0:2|0:2,0:0:0:0:
5,343,56653,5,2,1:2:0:0:
148,285,56887,2,0,P|79:256|70:249,1,71.9999978027344,2|0,0:2|0:2,0:0:0:0:
143,377,57121,2,0,P|248:342|326:337,1,143.999995605469,10|0,0:2|0:2,0:0:0:0:
410,255,57590,1,2,1:2:0:0:
471,364,57825,2,0,P|496:289|513:282,1,71.9999978027344,2|0,0:2|0:2,0:0:0:0:
383,176,58059,2,0,P|381:103|314:66,1,143.999995605469,10|2,0:2|0:2,0:0:0:0:
272,9,58411,1,2,0:2:0:0:
261,18,58528,6,0,P|187:62|175:62,1,71.9999978027344,2|0,1:2|0:2,0:0:0:0:
135,27,58762,1,2,0:2:0:0:
125,18,58879,1,0,0:2:0:0:
60,57,58996,2,0,P|79:144|76:162,1,71.9999978027344,10|0,0:2|0:2,0:0:0:0:
13,218,59231,1,2,0:2:0:0:
6,201,59348,1,2,0:2:0:0:
112,208,59465,2,0,P|87:282|86:300,1,71.9999978027344,2|0,1:2|0:2,0:0:0:0:
170,368,59700,1,2,0:2:0:0:
162,351,59817,1,2,0:2:0:0:
222,279,59934,2,0,P|294:303|313:303,1,71.9999978027344,10|0,0:2|0:2,0:0:0:0:
423,370,60168,1,2,0:2:0:0:
430,356,60286,1,2,0:2:0:0:
492,311,60403,5,10,1:2:0:0:
415,174,60637,1,0,1:2:0:0:
409,160,60754,1,0,1:2:0:0:
409,85,60871,2,0,P|484:60|503:51,1,71.9999978027344,10|0,0:2|0:2,0:0:0:0:
273,96,61106,2,0,P|350:134|359:142,1,71.9999978027344,0|0,1:2|0:2,0:0:0:0:
226,25,61340,2,0,B|182:47|183:81|196:96|192:132|136:151,1,143.999995605469,10|2,0:2|1:2,0:0:0:0:
204,290,61809,1,10,0:2:0:0:
111,82,62043,1,8,0:2:0:0:
307,21,62278,6,0,P|377:4|386:-5,1,60,6|0,1:2|0:0,0:0:0:0:
405,76,62512,2,0,P|457:104|472:118,1,60,8|8,2:1|2:1,0:0:0:0:
445,7,62746,1,10,0:2:0:0:
322,101,62981,1,0,0:2:0:0:
492,176,63215,1,10,1:1:0:0:
485,192,63332,1,8,2:1:0:0:
481,209,63450,1,8,2:1:0:0:
479,227,63567,1,8,2:1:0:0:
479,244,63684,2,0,B|435:233|423:247|428:266|405:282|359:271,1,120,10|0,0:2|0:2,0:0:0:0:
278,375,64153,5,2,1:2:0:0:
141,288,64387,1,8,2:1:0:0:
132,272,64504,1,8,2:1:0:0:
124,255,64621,2,0,P|127:191|134:182,1,60,10|0,0:2|0:2,0:0:0:0:
63,364,64856,2,0,P|26:307|1:289,1,60,0|0,0:2|0:2,0:0:0:0:
159,358,65090,1,2,1:2:0:0:
176,354,65207,1,8,2:1:0:0:
193,349,65325,1,8,2:1:0:0:
210,344,65442,1,8,2:1:0:0:
227,340,65559,2,0,L|300:317,1,60,10|0,0:2|0:2,0:0:0:0:
374,258,65793,2,0,P|428:290|447:295,1,60,2|0,0:2|0:2,0:0:0:0:
270,213,66028,5,2,1:2:0:0:
370,351,66262,1,0,0:0:0:0:
386,357,66379,1,0,0:2:0:0:
402,363,66496,1,10,0:2:0:0:
501,251,66731,1,0,0:2:0:0:
405,128,66965,2,0,P|431:196|439:222,1,60,10|8,1:1|2:1,0:0:0:0:
472,58,67200,1,8,2:1:0:0:
481,42,67317,1,10,2:1:0:0:
489,26,67434,2,0,B|437:23|437:23|422:12|422:12|354:4,1,120,10|0,0:2|0:2,0:0:0:0:
252,100,67903,6,0,P|326:78|339:68,1,60,2|0,1:2|0:2,0:0:0:0:
190,38,68137,1,0,0:2:0:0:
172,34,68254,1,0,0:2:0:0:
154,31,68371,2,0,L|168:107,1,60,10|0,0:2|0:2,0:0:0:0:
55,153,68606,2,0,L|72:88,1,60,0|2,0:2|0:2,0:0:0:0:
148,188,68840,1,2,1:2:0:0:
139,203,68957,1,0,0:2:0:0:
134,220,69075,1,2,0:2:0:0:
130,237,69192,1,0,0:2:0:0:
129,254,69309,2,0,P|132:319|140:334,1,60,10|0,0:2|0:0,0:0:0:0:
237,228,69543,2,0,P|254:168|257:151,1,60,0|0,0:2|0:2,0:0:0:0:
299,316,69778,5,2,1:2:0:0:
320,138,70012,1,8,2:1:0:0:
329,122,70129,1,8,2:1:0:0:
337,106,70246,2,0,P|396:91|454:134,1,120,10|0,0:2|0:2,0:0:0:0:
508,243,70715,1,2,1:2:0:0:
503,260,70832,1,8,2:1:0:0:
498,277,70950,1,8,2:1:0:0:
494,294,71067,1,8,2:1:0:0:
489,311,71184,2,0,P|481:379|488:395,1,60,10|0,0:2|0:2,0:0:0:0:
388,170,71418,2,0,P|405:234|404:248,1,60,0|0,0:2|0:2,0:0:0:0:
364,316,71653,5,2,1:2:0:0:
485,178,71887,1,8,2:1:0:0:
490,160,72004,1,8,2:1:0:0:
495,142,72121,1,10,0:2:0:0:
385,23,72356,2,0,P|447:47|472:49,1,60,0|0,0:2|0:2,0:0:0:0:
288,82,72590,1,2,1:2:0:0:
270,80,72707,1,8,2:1:0:0:
252,84,72825,1,8,2:1:0:0:
235,92,72942,1,8,2:1:0:0:
223,105,73059,2,0,B|239:155|239:155|229:179|229:179|250:231,1,120,10|2,0:2|0:2,0:0:0:0:
192,364,73528,5,2,1:2:0:0:
116,312,73762,1,0,0:0:0:0:
99,318,73879,1,0,0:2:0:0:
81,323,73996,2,0,L|4:349,1,60,10|0,0:2|0:2,0:0:0:0:
150,231,74231,2,0,L|90:216,1,60,0|0,0:2|0:2,0:0:0:0:
10,133,74465,1,2,1:2:0:0:
14,115,74582,1,8,2:1:0:0:
21,98,74700,1,8,2:1:0:0:
32,84,74817,1,8,2:1:0:0:
45,71,74934,2,0,B|79:81|95:68|95:53|112:39|179:54,1,120,10|0,0:2|0:2,0:0:0:0:
265,0,75403,5,2,1:2:0:0:
275,14,75520,1,0,0:2:0:0:
281,30,75637,1,0,0:2:0:0:
283,47,75754,1,0,0:2:0:0:
280,64,75871,2,0,P|258:124|244:137,1,60,10|0,0:2|0:2,0:0:0:0:
189,220,76106,2,0,P|158:162|162:144,1,60,0|2,0:2|0:2,0:0:0:0:
290,217,76340,1,2,1:2:0:0:
285,234,76457,1,0,0:2:0:0:
288,251,76575,1,2,0:2:0:0:
294,267,76692,1,0,0:2:0:0:
308,278,76809,1,10,0:2:0:0:
324,285,76926,1,2,0:2:0:0:
341,286,77043,1,0,0:0:0:0:
358,284,77161,1,0,0:2:0:0:
374,276,77278,6,0,P|399:220|381:192,1,60,2|0,1:2|0:2,0:0:0:0:
486,150,77512,1,8,2:1:0:0:
483,132,77629,1,8,2:1:0:0:
479,114,77746,1,10,0:2:0:0:
494,241,77981,1,0,0:2:0:0:
369,114,78215,1,2,1:2:0:0:
381,101,78332,1,8,2:1:0:0:
387,84,78450,1,8,2:1:0:0:
386,66,78567,1,8,2:1:0:0:
376,50,78684,2,0,L|313:34,3,60,10|8|8|8,0:2|2:1|2:1|2:1,0:0:0:0:
250,2,79153,5,2,1:2:0:0:
149,98,79387,1,8,2:1:0:0:
159,112,79504,1,8,2:1:0:0:
161,129,79621,2,0,P|144:198|134:204,1,60,10|0,0:2|0:2,0:0:0:0:
41,101,79856,2,0,P|24:40|12:24,1,60,0|0,0:2|0:2,0:0:0:0:
67,202,80090,1,2,1:2:0:0:
77,216,80207,1,8,2:1:0:0:
85,231,80325,1,8,2:1:0:0:
93,246,80442,1,8,2:1:0:0:
96,263,80559,2,0,P|99:329|92:340,3,60,10|8|2|0,0:2|2:1|0:2|0:2,0:0:0:0:
210,225,81028,5,2,1:2:0:0:
227,219,81145,1,0,0:0:0:0:
244,220,81262,1,8,2:1:0:0:
261,223,81379,1,8,2:1:0:0:
275,233,81496,2,0,P|305:297|299:315,1,60,10|8,0:2|2:1,0:0:0:0:
389,150,81731,2,0,P|352:202|354:214,1,60,8|8,2:1|2:1,0:0:0:0:
316,102,81965,2,0,P|283:53|261:49,1,60,2|8,1:2|2:1,0:0:0:0:
172,4,82200,1,8,2:1:0:0:
168,19,82317,1,8,2:1:0:0:
160,37,82434,2,0,L|182:111,1,60,10|8,0:2|2:1,0:0:0:0:
79,168,82668,2,0,L|94:105,1,60,8|8,2:1|2:1,0:0:0:0:
168,224,82903,6,0,P|106:260|121:309,1,120,10|2,0:2|0:2,0:0:0:0:
270,173,83371,2,0,L|300:55,1,120,10|0,0:2|0:2,0:0:0:0:
327,262,83840,2,0,P|351:329|308:357,1,120,10|8,0:2|0:2,0:0:0:0:
270,173,84309,5,8,0:2:0:0:
203,360,84543,1,8,1:2:0:0:
112,298,84778,6,0,L|40:317,1,66.0000020141602,6|2,1:2|0:2,0:0:0:0:
139,219,85246,2,0,B|178:235|178:235|186:234|186:234|259:264,1,110.000003356934,2|2,0:2|0:0,0:0:0:0:
253,253,85715,1,0,0:0:0:0:
358,186,85871,5,2,0:0:0:0:
365,204,85950,1,10,0:3:0:0:
450,132,86106,5,2,0:0:0:0:
441,169,86184,1,10,0:2:0:0:
338,47,86340,5,2,0:0:0:0:
357,101,86418,1,10,1:3:0:0:
512,0,86574,5,2,0:0:0:0:
490,70,86653,1,6,1:2:0:0:
256,192,86770,12,0,90754,0:2:0:0:
