osu file format v14

[General]
AudioFilename: audio.mp3
AudioLeadIn: 0
PreviewTime: 46809
Countdown: 0
SampleSet: Soft
StackLeniency: 0.5
Mode: 0
LetterboxInBreaks: 0
WidescreenStoryboard: 1

[Editor]
DistanceSpacing: 1
BeatDivisor: 4
GridSize: 4
TimelineZoom: 1.3

[Metadata]
Title:Grandeur (TV Size)
TitleUnicode:Grandeur (TV Size)
Artist:Snow Man
ArtistUnicode:Snow Man
Creator:HakuYT
Version:Normal
Source:ブラッククローバー
Tags:black clover op opening 13 anime japanese asta yami dante vanica zenon yuno noelle pop j-pop jpop paradogi kloster soue
BeatmapID:2751352
BeatmapSetID:1328147

[Difficulty]
HPDrainRate:3
CircleSize:3.5
OverallDifficulty:4
ApproachRate:5.2
SliderMultiplier:1.3
SliderTickRate:1

[Events]
//Background and Video events
Video,-970,"black clover.mp4"
0,0,"bcg.jpg",0,0
//Break Periods
2,2473,8439
//Storyboard Layer 0 (Background)
//Storyboard Layer 1 (Fail)
//Storyboard Layer 2 (Pass)
//Storyboard Layer 3 (Foreground)
//Storyboard Layer 4 (Overlay)
//Storyboard Sound Samples

[TimingPoints]
2273,468.75,4,2,1,45,1,0
2273,-125,4,2,1,40,0,0
9787,468.75,4,2,1,45,1,0
9787,-125,4,2,1,60,0,0
17278,468.75,4,2,1,70,1,0
17278,-100,4,2,1,70,0,0
32278,-125,4,2,1,60,0,0
39778,-100,4,2,1,70,0,0
43528,-100,4,2,1,70,0,0
45403,-100,4,2,1,40,0,0
46340,-100,4,2,1,60,0,0
46809,-100,4,2,1,70,0,0
47278,-100,4,2,1,80,0,1
61340,-100,4,2,1,80,0,0
62278,-100,4,2,1,80,0,1
76340,-100,4,2,1,80,0,1
84778,-100,4,2,2,55,0,0
85246,-100,4,2,1,55,0,0
85945,-100,4,2,1,70,0,0
86062,-100,4,2,1,70,0,0
90750,-100,4,2,1,5,0,0

[Colours]
Combo1 : 255,255,191
Combo2 : 191,255,191
Combo3 : 255,191,191
Combo4 : 255,223,191

[HitObjects]
224,32,2273,5,8,1:2:0:0:
231,70,9787,6,0,L|241:152,1,52,14|2,0:2|0:2,0:0:0:0:
254,170,10255,2,0,L|243:314,1,104,10|8,0:2|0:2,0:0:0:0:
185,358,11193,2,0,L|112:348,1,52,10|2,0:2|0:2,0:0:0:0:
81,345,11662,2,0,P|55:301|76:226,1,104,8|10,0:2|0:2,0:0:0:0:
75,200,12365,1,2,0:2:0:0:
107,159,12599,2,0,L|247:146,1,104,10|8,0:2|0:0,0:0:0:0:
275,67,13537,6,0,L|370:76,1,52,8|2,0:2|0:2,0:0:0:0:
378,77,14005,2,0,P|389:111|392:156,1,52,10|10,0:2|2:1,0:0:0:0:
386,178,14474,1,10,0:2:0:0:
420,217,14708,1,10,0:2:0:0:
401,265,14943,2,0,L|411:331,1,52,8|8,0:2|0:2,0:0:0:0:
399,367,15412,2,0,L|268:349,1,104,10|8,0:2|0:2,0:0:0:0:
213,289,16349,2,0,L|79:306,1,104,8|0,2:1|0:0,0:0:0:0:
22,209,17278,6,2,L|11:131,1,65,6|2,1:2|0:2,0:0:0:0:
27,81,17746,2,0,P|62:69|95:68,1,65,2|2,1:2|0:2,0:0:0:0:
154,61,18215,1,2,1:2:0:0:
211,91,18449,2,0,P|246:103|279:104,1,65,2|0,0:2|1:2,0:0:0:0:
377,25,19153,2,0,L|453:19,1,65,2|2,1:2|0:2,0:0:0:0:
488,63,19621,1,2,1:2:0:0:
469,125,19856,1,2,0:2:0:0:
447,186,20090,2,0,L|465:259,1,65,2|0,1:2|0:2,0:0:0:0:
453,313,20559,1,2,1:2:0:0:
336,370,21028,6,0,L|309:226,1,130,2|2,1:2|1:2,0:0:0:0:
261,201,21731,1,2,0:2:0:0:
203,230,21965,2,0,L|215:313,1,65,2|2,1:2|0:2,0:0:0:0:
177,349,22434,2,0,P|147:361|101:357,1,65,0|0,1:2|0:2,0:0:0:0:
58,328,22903,1,2,1:2:0:0:
58,328,23137,2,0,L|33:162,1,130,2|0,0:2|0:2,0:0:0:0:
43,138,23840,1,2,1:2:0:0:
43,138,24074,2,0,B|88:112|88:112|217:135,1,130,2|2,0:2|0:2,0:0:0:0:
213,169,24778,5,6,1:2:0:0:
291,65,25246,2,0,L|305:136,1,65,10|2,1:2|0:2,0:0:0:0:
328,189,25715,2,0,L|314:260,1,65,2|0,1:2|0:2,0:0:0:0:
298,315,26184,1,8,1:2:0:0:
419,361,26653,1,2,1:2:0:0:
457,237,27121,2,0,L|448:140,1,65,10|2,1:2|0:2,0:0:0:0:
443,107,27590,1,2,1:2:0:0:
326,48,28059,1,8,1:2:0:0:
290,167,28528,6,0,L|153:145,1,130,2|10,1:2|1:2,0:0:0:0:
98,130,29231,1,2,0:2:0:0:
42,164,29465,2,0,L|34:248,1,65,2|2,1:2|0:2,0:0:0:0:
31,293,29934,1,8,1:2:0:0:
135,370,30403,2,0,L|224:360,1,65,8|2,1:2|1:2,0:0:0:0:
257,332,30871,2,0,L|346:342,1,65,8|8,0:2|2:1,0:0:0:0:
384,356,31340,1,8,1:2:0:0:
474,262,31809,1,8,0:2:0:0:
344,256,32278,6,0,L|205:244,1,104,14|10,0:2|0:2,0:0:0:0:
171,168,33215,2,0,L|306:154,1,104,10|10,0:2|0:2,0:0:0:0:
352,87,34153,2,0,P|354:143|417:202,1,104,10|10,0:2|0:2,0:0:0:0:
300,248,35090,2,0,P|295:294|238:362,1,104,8|8,0:2|0:2,0:0:0:0:
164,314,36028,6,0,L|98:309,1,52,10|2,0:2|0:2,0:0:0:0:
66,285,36496,2,0,P|59:253|69:218,1,52,10|2,0:2|0:2,0:0:0:0:
62,182,36965,1,8,0:0:0:0:
31,82,37434,1,8,0:2:0:0:
112,19,37903,2,0,L|212:29,1,52,10|2,0:2|0:2,0:0:0:0:
211,44,38371,2,0,L|311:34,1,52,10|2,0:2|0:2,0:0:0:0:
314,30,38840,1,8,0:0:0:0:
402,85,39309,1,10,0:2:0:0:
498,171,39778,6,0,L|485:243,1,65,10|10,0:0|0:0,0:0:0:0:
429,266,40246,2,0,L|442:338,1,65,10|10,0:0|0:0,0:0:0:0:
396,377,40715,2,0,L|259:364,1,130,10|8,0:0|0:0,0:0:0:0:
201,359,41418,1,10,0:0:0:0:
201,359,41653,2,0,L|190:275,1,65,10|10,0:0|0:0,0:0:0:0:
183,230,42121,1,10,0:0:0:0:
114,327,42590,2,0,L|48:336,1,65,8|10,0:0|0:0,0:0:0:0:
16,279,43059,2,0,P|1:242|7:207,1,65,8|10,0:0|0:0,0:0:0:0:
15,153,43528,6,0,B|60:130|60:130|155:153,1,130,10|10,0:2|0:0,0:0:0:0:
200,163,44231,1,10,0:0:0:0:
200,163,44465,2,0,L|230:21,1,130,10|10,0:2|0:0,0:0:0:0:
354,8,45403,2,0,L|342:83,1,65,10|10,0:0|0:0,0:0:0:0:
333,136,45871,1,10,0:0:0:0:
458,168,46340,1,8,0:2:0:0:
341,226,46809,1,10,0:0:0:0:
467,254,47278,6,0,L|459:336,1,65,6|2,1:2|0:2,0:0:0:0:
454,383,47746,1,10,0:2:0:0:
335,348,48215,2,0,L|254:360,1,65,0|2,1:2|0:2,0:0:0:0:
206,369,48684,2,0,L|125:357,1,65,10|2,0:2|0:2,0:0:0:0:
78,343,49153,2,0,L|68:263,1,65,2|2,1:2|0:2,0:0:0:0:
62,214,49621,2,0,P|116:182|193:197,1,130,10|0,0:2|1:2,0:0:0:0:
269,278,50559,2,0,L|347:270,1,65,10|2,0:2|0:2,0:0:0:0:
359,211,51028,6,0,L|437:219,1,65,2|2,1:2|0:2,0:0:0:0:
488,219,51496,1,10,0:2:0:0:
507,156,51731,1,2,0:2:0:0:
477,98,51965,2,0,L|340:81,1,130,2|10,1:2|0:2,0:0:0:0:
223,30,52903,1,2,1:2:0:0:
223,30,53137,2,0,L|138:39,1,65,2|10,0:2|0:2,0:0:0:0:
93,43,53606,1,2,0:2:0:0:
53,94,53840,2,0,B|37:137|37:137|61:249,1,130,0|10,1:2|0:2,0:0:0:0:
20,345,54778,6,0,L|117:338,1,65,2|2,1:2|0:2,0:0:0:0:
149,348,55246,2,0,L|246:341,1,65,10|2,0:2|0:2,0:0:0:0:
278,340,55715,1,2,1:2:0:0:
402,376,56184,1,10,0:2:0:0:
491,281,56653,2,0,L|502:204,1,65,2|2,1:2|0:2,0:0:0:0:
473,157,57121,2,0,P|409:152|349:200,1,130,10|2,0:2|1:2,0:0:0:0:
313,237,57824,1,2,0:2:0:0:
262,278,58059,2,0,L|175:275,1,65,10|2,0:2|0:2,0:0:0:0:
142,240,58528,6,0,P|129:205|134:160,1,65,2|2,1:2|0:2,0:0:0:0:
140,113,58996,1,10,0:2:0:0:
241,32,59465,2,0,L|330:23,1,65,2|2,1:2|0:2,0:0:0:0:
368,8,59934,2,0,L|457:17,1,65,10|2,0:2|0:2,0:0:0:0:
467,69,60403,2,0,B|481:116|481:116|448:214,1,130,10|10,1:2|0:2,0:0:0:0:
474,321,61340,1,10,0:2:0:0:
474,321,61574,2,0,L|396:331,1,65,2|10,1:2|0:2,0:0:0:0:
287,374,62278,6,0,L|153:361,1,130,6|10,1:2|0:2,0:0:0:0:
92,355,62981,1,0,0:2:0:0:
42,312,63215,2,0,L|36:235,1,65,10|8,1:1|2:1,0:0:0:0:
68,190,63684,2,0,L|74:113,1,65,10|0,0:2|0:2,0:0:0:0:
75,60,64153,1,2,1:2:0:0:
196,14,64621,2,0,L|203:103,1,65,10|0,0:2|0:2,0:0:0:0:
260,105,65090,2,0,L|254:169,1,65,2|8,1:2|2:1,0:0:0:0:
250,234,65559,1,10,0:2:0:0:
282,290,65793,1,2,0:2:0:0:
346,301,66028,6,0,L|491:288,1,130,2|10,1:2|0:2,0:0:0:0:
505,162,66965,2,0,L|420:156,1,65,10|8,1:1|2:1,0:0:0:0:
375,154,67434,1,10,0:2:0:0:
291,53,67903,2,0,P|274:85|267:130,1,65,2|0,1:2|0:2,0:0:0:0:
270,177,68371,2,0,P|262:208|246:236,1,65,10|0,0:2|0:2,0:0:0:0:
214,293,68840,1,2,1:2:0:0:
155,321,69074,1,2,0:2:0:0:
91,307,69309,2,0,L|25:292,1,65,10|0,0:2|0:2,0:0:0:0:
15,228,69778,6,0,B|5:145|5:145|38:81,1,130,2|10,1:2|0:2,0:0:0:0:
115,9,70715,2,0,L|195:24,1,65,2|8,1:2|2:1,0:0:0:0:
234,55,71184,2,0,P|253:85|247:154,1,65,10|0,0:2|0:2,0:0:0:0:
232,173,71653,2,0,B|215:221|215:221|258:303,1,130,2|10,1:2|0:2,0:0:0:0:
330,187,72590,2,0,P|389:145|461:153,1,130,2|8,1:2|0:2,0:0:0:0:
502,175,73293,1,2,0:2:0:0:
490,239,73528,6,0,L|464:379,1,130,2|10,1:2|0:2,0:0:0:0:
343,382,74465,2,0,L|332:308,1,65,2|8,1:2|2:1,0:0:0:0:
326,252,74934,1,10,0:2:0:0:
238,340,75403,2,0,P|209:352|139:345,1,65,2|0,1:2|0:2,0:0:0:0:
112,369,75871,2,0,P|79:366|49:354,1,65,10|0,0:2|0:2,0:0:0:0:
22,294,76340,1,2,1:2:0:0:
57,239,76574,1,2,0:2:0:0:
121,249,76809,2,0,L|207:238,1,65,10|0,0:2|0:0,0:0:0:0:
228,191,77278,6,0,L|255:54,1,130,2|10,1:2|0:2,0:0:0:0:
134,9,78215,2,0,L|50:1,1,65,2|8,1:2|2:1,0:0:0:0:
19,44,78684,2,0,P|8:80|7:124,1,65,10|8,0:2|2:1,0:0:0:0:
16,171,79153,1,2,1:2:0:0:
130,109,79621,2,0,L|140:183,1,65,10|0,0:2|0:2,0:0:0:0:
136,238,80090,2,0,L|147:321,1,65,2|8,1:2|2:1,0:0:0:0:
153,366,80559,1,10,0:2:0:0:
217,366,80793,1,2,0:2:0:0:
282,369,81028,6,0,L|424:356,1,130,2|10,1:2|0:2,0:0:0:0:
472,241,81965,2,0,L|484:159,2,65,2|8|10,1:2|2:1|0:2,0:0:0:0:
412,267,82668,1,8,2:1:0:0:
346,265,82903,2,0,L|272:256,1,65,10|2,0:2|0:2,0:0:0:0:
240,207,83371,2,0,L|166:216,1,65,10|0,0:2|0:2,0:0:0:0:
115,188,83840,2,0,P|105:154|111:119,1,65,10|8,0:2|0:2,0:0:0:0:
130,63,84309,1,8,0:2:0:0:
252,19,84778,6,0,L|327:24,1,65,6|2,1:2|0:2,0:0:0:0:
379,43,85246,2,0,P|404:98|386:152,1,65,2|2,0:2|0:2,0:0:0:0:
307,188,85949,1,10,0:3:0:0:
307,188,86184,2,0,L|317:281,1,65,10|10,0:2|1:3,0:0:0:0:
322,317,86653,1,6,1:2:0:0:
