osu file format v14

[General]
AudioFilename: audio.mp3
AudioLeadIn: 0
PreviewTime: 46809
Countdown: 0
SampleSet: Soft
StackLeniency: 0.2
Mode: 0
LetterboxInBreaks: 0
WidescreenStoryboard: 1

[Editor]
DistanceSpacing: 0.25
BeatDivisor: 4
GridSize: 8
TimelineZoom: 3.3

[Metadata]
Title:Grandeur (TV Size)
TitleUnicode:Grandeur (TV Size)
Artist:Snow Man
ArtistUnicode:Snow Man
Creator:HakuYT
Version:Kloster's Insane
Source:ブラッククローバー
Tags:black clover op opening 13 anime japanese asta yami dante vanica zenon yuno noelle pop j-pop jpop paradogi kloster soue
BeatmapID:3305931
BeatmapSetID:1328147

[Difficulty]
HPDrainRate:5
CircleSize:3.8
OverallDifficulty:8
ApproachRate:9
SliderMultiplier:2.5
SliderTickRate:1

[Events]
//Background and Video events
Video,-970,"black clover.mp4"
0,0,"bcg.jpg",0,0
//Break Periods
//Storyboard Layer 0 (Background)
//Storyboard Layer 1 (Fail)
//Storyboard Layer 2 (Pass)
//Storyboard Layer 3 (Foreground)
//Storyboard Layer 4 (Overlay)
//Storyboard Sound Samples

[TimingPoints]
2273,468.75,4,2,1,45,1,0
2273,-142.857142857143,4,2,1,45,0,0
8835,-117.647058823529,4,2,1,45,0,0
9187,-100,4,2,1,45,0,0
9538,-142.857142857143,4,2,1,45,0,0
9787,468.75,4,2,1,45,1,0
9787,-111.111111111111,4,2,1,65,0,0
12599,-100,4,2,1,65,0,0
12951,-90.9090909090909,4,2,1,65,0,0
13302,-111.111111111111,4,2,1,65,0,0
13771,-100,4,2,1,65,0,0
14240,-117.647058823529,4,2,1,65,0,0
14474,-100,4,2,1,65,0,0
16115,-90.9090909090909,4,2,1,65,0,0
16349,-83.3333333333333,4,2,1,65,0,0
16701,-399.999967848162,4,2,1,65,0,0
17052,-100,4,2,1,65,0,0
17111,-100,4,2,1,5,0,0
17278,468.75,4,2,1,70,1,0
17512,-117.647058823529,4,2,1,60,0,0
24778,-105.263157894737,4,2,1,60,0,0
32278,-133.333333333333,4,2,1,60,0,0
39426,-100,4,2,1,60,0,0
39484,-100,4,2,1,5,0,0
39660,-100,4,2,1,60,0,0
39778,-133.333333333333,4,2,1,70,0,0
39836,-133.333333333333,4,2,1,5,0,0
40012,-111.111111111111,4,2,1,70,0,0
43996,-125,4,2,1,70,0,0
44934,-111.111111111111,4,2,1,70,0,0
45403,-111.111111111111,4,2,1,60,0,0
45637,-111.111111111111,4,2,1,50,0,0
45871,-111.111111111111,4,2,1,40,0,0
46340,-111.111111111111,4,2,1,50,0,0
46809,-142.857142857143,4,2,1,70,0,0
47278,-86.9565217391304,4,2,1,80,0,1
50559,-95.2380952380952,4,2,1,80,0,1
50793,-105.263157894737,4,2,1,80,0,1
51028,-86.9565217391304,4,2,1,80,0,1
60403,-83.3333333333333,4,2,1,80,0,1
60871,-74.0740740740741,4,2,1,80,0,1
61340,-95.2380952380952,4,2,1,70,0,1
61574,-105.263157894737,4,2,1,70,0,1
61809,-76.9230769230769,4,2,1,70,0,0
62278,-86.9565217391304,4,2,1,80,0,1
66028,-76.9230769230769,4,2,1,80,0,1
66496,-86.9565217391304,4,2,1,80,0,1
73528,-76.9230769230769,4,2,1,80,0,1
73996,-86.9565217391304,4,2,1,80,0,1
82903,-68.9655172413793,4,2,1,80,0,1
83137,-104.166666666667,4,2,1,80,0,1
83371,-74.0740740740741,4,2,1,80,0,1
83606,-95.2380952380952,4,2,1,80,0,1
84309,-76.9230769230769,4,2,1,80,0,1
84660,-76.9230769230769,4,2,1,5,0,1
84778,-142.857142857143,4,2,2,55,0,0
85832,-142.857142857143,4,2,2,70,0,0
85949,-142.857142857143,4,2,1,70,0,0
90754,-142.857142857143,4,2,1,5,0,0

[Colours]
Combo1 : 255,255,191
Combo2 : 191,255,191
Combo3 : 255,191,191
Combo4 : 255,223,191

[HitObjects]
256,192,632,12,0,2155,2:0:0:0:
42,337,2273,6,0,P|79:344|116:365,1,43.75,8|2,1:2|2:0,2:0:0:0:
117,271,2507,2,0,P|154:264|191:243,1,43.75,2|2,2:0|2:0,2:0:0:0:
282,337,2741,2,0,P|245:280|266:258,1,87.4999999999999,2|2,2:0|2:0,2:0:0:0:
248,273,3093,1,2,2:0:0:0:
363,369,3327,2,0,P|406:362|449:357,1,87.4999999999999,2|2,2:0|2:0,2:0:0:0:
449,357,3679,1,2,2:0:0:0:
488,232,3913,2,0,P|477:261|468:288,1,43.75,2|2,2:0|2:0,2:0:0:0:
417,173,4148,6,0,P|401:213|386:255,1,87.4999999999999,2|2,2:0|2:0,2:0:0:0:
260,80,4616,2,0,P|275:120|290:162,1,87.4999999999999,2|2,2:0|2:0,2:0:0:0:
290,162,4968,1,2,2:0:0:0:
371,51,5241,69,2,2:0:0:0:
394,42,5319,1,2,2:0:0:0:
478,61,5476,5,2,2:0:0:0:
489,75,5554,1,2,2:0:0:0:
497,160,5710,69,2,2:0:0:0:
490,169,5788,1,2,2:0:0:0:
411,203,5944,5,2,2:0:0:0:
405,201,6023,2,0,P|377:186|371:163,1,43.75,0|2,1:2|2:0,2:0:0:0:
286,180,6257,2,0,P|284:148|301:131,1,43.75,2|2,2:0|2:0,2:0:0:0:
358,61,6491,2,0,P|285:55|248:47,1,87.4999999999999,2|2,2:0|2:0,2:0:0:0:
154,0,6960,2,0,P|181:37|164:98,1,87.4999999999999,2|2,2:0|2:0,2:0:0:0:
178,76,7312,1,2,2:0:0:0:
134,183,7546,1,2,2:0:0:0:
10,67,7780,69,2,2:0:0:0:
5,78,7898,2,0,P|48:71|91:69,1,87.4999999999999,2|2,2:0|2:0,2:0:0:0:
216,159,8366,1,2,2:0:0:0:
307,44,8601,2,0,L|297:-12,1,43.75,2|0,2:0|2:0,2:0:0:0:
396,34,8835,22,0,L|377:138,1,106.25,2|2,2:0|2:0,2:0:0:0:
414,218,9187,2,0,B|421:193|421:193|362:157|324:241,1,125,2|2,2:0|2:0,2:0:0:0:
310,296,9538,2,0,L|317:339,1,43.75,2|0,2:0|2:0,2:0:0:0:
195,352,9787,6,0,P|213:373|241:379,1,56.2500000000001,14|2,2:0|2:0,2:0:0:0:
167,274,10021,2,0,P|139:280|121:301,1,56.2500000000001,2|2,2:0|2:0,2:0:0:0:
52,368,10255,2,0,P|43:340|34:294,1,56.2500000000001,10|0,2:0|2:0,2:0:0:0:
0,224,10490,1,2,2:0:0:0:
6,235,10607,2,0,P|15:207|24:161,1,56.2500000000001,2|8,2:0|2:0,2:0:0:0:
0,99,10841,1,2,2:0:0:0:
114,208,11076,5,2,2:0:0:0:
107,199,11193,2,0,P|134:200|157:184,1,56.2500000000001,10|0,2:0|2:0,2:0:0:0:
230,224,11427,2,0,P|257:222|280:238,1,56.2500000000001,2|2,2:0|2:0,2:0:0:0:
257,333,11662,2,0,P|306:316|374:310,1,112.5,8|0,2:0|2:0,2:0:0:0:
503,383,12130,6,0,P|516:341|490:308,1,56.2500000000001,10|0,2:0|2:0,2:0:0:0:
447,273,12365,2,0,P|433:248|437:221,1,56.2500000000001,2|0,2:0|2:0,2:0:0:0:
512,145,12599,2,0,P|449:139|389:118,1,125,10|0,2:0|2:0,2:0:0:0:
339,29,12951,2,0,P|367:80|305:104,1,137.5,2|0,2:0|2:0,2:0:0:0:
198,51,13302,6,0,P|247:42|272:35,1,56.2500000000001,2|0,2:0|2:0,2:0:0:0:
139,127,13537,2,0,P|188:136|213:143,1,56.2500000000001,8|2,2:0|2:0,2:0:0:0:
77,28,13771,38,0,P|60:75|94:121,1,62.5,2|10,2:0|2:1,2:0:0:0:
0,141,14005,2,0,P|39:171|93:153,1,62.5,10|0,2:0|2:0,2:0:0:0:
113,233,14240,2,0,P|112:247|110:260,3,26.5625000000001,10|8|8|8,2:1|2:1|2:1|2:1,2:0:0:0:
123,224,14474,6,0,P|120:256|107:307,1,62.5,10|8,2:0|2:1,2:0:0:0:
181,356,14708,1,10,2:0:0:0:
190,365,14826,2,0,P|193:333|206:282,1,62.5,10|8,2:1|2:0,2:0:0:0:
282,245,15060,1,10,2:1:0:0:
269,247,15177,2,0,P|274:264|324:278,1,62.5,8|10,2:0|2:1,2:0:0:0:
412,353,15412,5,10,2:0:0:0:
430,340,15529,1,8,2:1:0:0:
444,309,15646,1,8,2:0:0:0:
433,262,15763,1,8,2:1:0:0:
388,232,15880,1,8,2:0:0:0:
359,177,15997,1,8,2:1:0:0:
396,123,16115,6,0,P|434:127|479:140,1,68.75,10|8,2:0|2:1,2:0:0:0:
349,53,16349,2,0,P|311:60|274:63,1,75,10|8,2:1|2:1,2:0:0:0:
425,1,16583,69,8,2:1:0:0:
438,0,16701,2,0,L|468:8,1,31.2500025118625,2|0,2:1|2:0,2:0:0:0:
482,88,17052,6,0,L|512:80,1,31.25,2|0,2:0|2:0,2:0:0:0:
259,35,17278,37,6,1:2:0:0:
240,34,17395,1,2,2:0:0:0:
230,46,17512,2,0,P|240:87|247:130,1,53.1250000000002,2|0,2:0|2:0,2:0:0:0:
123,78,17746,1,2,1:2:0:0:
142,77,17863,1,2,2:0:0:0:
152,89,17981,2,0,P|142:130|135:173,1,53.1250000000002,2|0,2:0|2:0,2:0:0:0:
67,189,18215,6,0,P|75:211|131:200,1,53.1250000000002,2|2,1:2|2:0,2:0:0:0:
142,305,18449,1,2,2:0:0:0:
131,298,18567,2,0,P|155:296|162:240,1,53.1250000000002,2|0,2:0|1:2,2:0:0:0:
254,260,18801,1,0,2:0:0:0:
272,127,19035,69,0,2:0:0:0:
267,139,19153,2,0,P|293:133|318:126,1,53.1250000000002,2|0,1:2|2:0,2:0:0:0:
389,172,19387,2,0,P|415:177|440:184,1,53.1250000000002,2|0,2:0|2:0,2:0:0:0:
512,305,19621,5,2,1:2:0:0:
499,304,19738,1,2,2:0:0:0:
491,292,19856,2,0,P|501:247|539:228,1,53.1250000000002,2|2,2:0|2:0,2:0:0:0:
350,296,20090,1,2,1:2:0:0:
356,283,20207,2,0,P|399:270|435:293,1,53.1250000000002,2|0,2:0|2:0,2:0:0:0:
369,384,20442,2,0,P|300:372|232:369,1,106.25,2|0,2:0|2:0,2:0:0:0:
181,262,20793,6,0,L|188:323,1,53.1250000000002,2|0,2:0|2:0,2:0:0:0:
96,248,21028,2,0,L|108:356,1,106.25,2|2,1:2|2:0,2:0:0:0:
136,174,21496,54,0,P|102:158|72:190,1,53.1250000000002,2|2,1:2|2:0,2:0:0:0:
2,60,21731,1,2,2:0:0:0:
0,78,21848,1,0,2:0:0:0:
5,93,21965,2,0,P|31:97|52:81,1,53.1250000000002,2|0,1:2|2:0,2:0:0:0:
112,0,22199,5,2,2:0:0:0:
107,14,22317,2,0,P|141:8|187:-6,1,53.1250000000002,2|0,2:0|1:2,2:0:0:0:
229,51,22551,2,0,P|290:61|350:76,1,106.25,2|2,2:0|2:0,2:0:0:0:
457,142,22903,6,0,P|439:105|443:73,1,53.1250000000002,2|0,1:2|2:0,2:0:0:0:
371,173,23137,1,2,2:0:0:0:
375,186,23254,2,0,P|349:181|327:166,1,53.1250000000002,0|0,2:0|1:2,2:0:0:0:
352,268,23488,1,0,2:0:0:0:
365,274,23606,2,0,P|343:289|317:295,1,53.1250000000002,0|2,2:0|2:0,2:0:0:0:
460,361,23840,6,0,L|452:280,1,53.1250000000002,2|0,1:2|2:0,2:0:0:0:
512,226,24074,1,2,2:0:0:0:
503,236,24192,1,0,2:0:0:0:
490,229,24309,2,0,L|499:123,1,106.25,2|2,1:2|2:0,2:0:0:0:
417,21,24778,38,0,P|409:77|452:103,1,59.3749999999999,6|0,1:2|2:0,2:0:0:0:
403,165,25012,2,0,P|372:161|350:140,1,59.3749999999999,2|0,2:0|2:0,2:0:0:0:
317,60,25246,2,0,P|288:65|239:71,1,59.3749999999999,10|0,1:2|2:0,2:0:0:0:
196,129,25481,2,0,P|167:124|118:118,1,59.3749999999999,2|0,2:0|2:0,2:0:0:0:
47,43,25715,5,2,1:2:0:0:
58,37,25832,2,0,P|61:61|22:92,1,59.3749999999999,2|0,2:0|2:0,2:0:0:0:
0,185,26067,2,0,P|29:180|78:174,1,59.3749999999999,2|8,2:0|1:2,2:0:0:0:
76,262,26301,2,0,P|45:266|14:271,1,59.3749999999999,2|0,2:0|2:0,2:0:0:0:
119,343,26535,69,2,2:0:0:0:
124,361,26653,1,2,1:2:0:0:
138,369,26770,2,0,P|185:324|118:292,1,118.75,2|0,2:0|2:0,2:0:0:0:
244,168,27121,1,10,1:2:0:0:
232,156,27238,1,0,2:0:0:0:
216,159,27356,2,0,P|191:193|221:231,1,59.3749999999999,2|0,2:0|2:0,2:0:0:0:
265,267,27590,6,0,P|310:242|361:249,1,59.3749999999999,2|0,1:2|2:0,2:0:0:0:
383,167,27824,1,2,2:0:0:0:
381,182,27942,2,0,P|336:157|285:164,1,59.3749999999999,2|8,2:0|1:2,2:0:0:0:
452,106,28176,2,0,P|466:132|471:162,1,59.3749999999999,2|0,2:0|2:0,2:0:0:0:
471,13,28410,1,2,2:0:0:0:
478,26,28528,2,0,B|406:1|439:66|320:11,1,118.75,2|2,1:2|2:0,2:0:0:0:
209,28,28996,69,10,1:2:0:0:
197,19,29113,1,0,2:0:0:0:
199,2,29231,2,0,P|247:-3|273:12,1,59.3749999999999,2|2,2:0|2:0,2:0:0:0:
294,78,29465,6,0,P|289:129|287:167,1,59.3749999999999,2|0,1:2|2:0,2:0:0:0:
189,167,29699,1,2,2:0:0:0:
198,158,29817,2,0,P|203:209|205:247,1,59.3749999999999,2|8,2:0|1:2,2:0:0:0:
313,312,30051,2,0,P|334:257|286:228,1,118.75,2|2,2:0|2:0,2:0:0:0:
166,371,30403,5,8,1:2:0:0:
243,367,30520,2,0,L|184:358,1,59.3749999999999,8|2,2:1|1:2,2:0:0:0:
14,219,30754,5,8,1:0:0:0:
0,235,30871,1,8,2:0:0:0:
0,254,30988,2,0,P|13:270|43:270,4,29.6875,8|8|8|8|8,2:1|2:1|2:1|2:1|2:1,2:0:0:0:
37,356,31340,69,8,1:2:0:0:
91,329,31457,1,8,2:1:0:0:
109,274,31574,1,10,2:1:0:0:
91,227,31692,1,8,2:1:0:0:
60,193,31809,1,8,2:0:0:0:
62,162,31926,1,10,2:1:0:0:
81,138,32043,1,8,2:1:0:0:
99,133,32160,1,8,2:1:0:0:
109,138,32278,54,0,P|49:132|-11:120,1,93.7500000000002,14|2,2:0|2:0,2:0:0:0:
28,40,32746,2,0,P|74:47|120:51,1,93.7500000000002,10|2,2:0|2:0,2:0:0:0:
221,0,33215,6,0,P|209:43|241:74,1,93.7500000000002,10|2,2:0|2:0,2:0:0:0:
317,108,33567,2,0,P|328:151|296:182,1,93.7500000000002,2|0,2:0|2:0,2:0:0:0:
216,224,33918,1,2,2:0:0:0:
216,224,34153,70,0,P|226:276|231:340,1,93.7500000000002,10|2,2:0|2:0,2:0:0:0:
322,373,34504,1,2,2:0:0:0:
311,382,34621,2,0,P|315:335|325:289,1,93.7500000000002,10|2,2:0|2:0,2:0:0:0:
345,207,34973,2,0,P|389:215|402:258,1,93.7500000000002,2|0,2:0|2:0,2:0:0:0:
325,289,35324,1,2,2:0:0:0:
421,364,35559,2,0,P|460:350|534:342,1,93.7500000000002,8|0,2:0|2:0,2:0:0:0:
512,135,36028,6,0,P|459:155|462:210,1,93.7500000000002,10|2,2:0|2:0,2:0:0:0:
394,96,36496,2,0,P|341:76|344:21,1,93.7500000000002,10|2,2:0|2:0,2:0:0:0:
415,16,36848,2,0,P|437:8|460:5,1,46.8750000000001,2|8,2:0|2:0,2:0:0:0:
289,147,37199,2,0,P|244:131|198:125,1,93.7500000000002,2|8,2:0|2:0,2:0:0:0:
66,23,37668,69,2,2:0:0:0:
66,23,37903,2,0,P|95:67|91:134,1,93.7500000000002,10|2,2:0|2:0,2:0:0:0:
198,125,38371,2,0,P|169:169|173:236,1,93.7500000000002,10|2,2:0|2:0,2:0:0:0:
99,264,38723,2,0,P|77:256|54:253,1,46.8750000000001,2|8,2:0|2:0,2:0:0:0:
252,196,39074,1,2,2:0:0:0:
361,333,39309,21,10,2:0:0:0:
359,354,39426,2,0,L|376:404,1,31.25,2|0,2:0|2:0,2:0:0:0:
240,281,39660,5,2,2:0:0:0:
242,302,39778,2,0,L|227:343,1,23.4375000000001,10|0,2:0|2:0,2:0:0:0:
348,244,40012,38,0,P|375:240|401:252,1,56.2500000000001,10|0,2:0|2:0,2:0:0:0:
482,213,40246,2,0,P|494:237|491:265,1,56.2500000000001,10|0,2:0|2:0,2:0:0:0:
411,164,40481,2,0,P|415:132|417:105,1,56.2500000000001,10|0,2:0|2:0,2:0:0:0:
316,5,40715,2,0,P|324:60|328:116,1,112.5,10|8,2:0|2:0,2:0:0:0:
303,222,41067,1,2,2:0:0:0:
287,232,41184,2,0,P|265:213|284:179,1,56.2500000000001,10|0,2:0|2:0,2:0:0:0:
203,137,41418,2,0,P|213:110|252:118,1,56.2500000000001,10|0,2:0|2:0,2:0:0:0:
111,180,41653,6,0,P|55:174|-1:165,1,112.5,10|10,2:0|2:0,2:0:0:0:
17,68,42004,1,0,2:0:0:0:
9,78,42121,2,0,P|64:86|120:92,1,112.5,10|8,2:0|2:0,2:0:0:0:
241,7,42473,1,2,2:0:0:0:
254,6,42590,2,0,P|288:24|285:81,1,56.2500000000001,8|0,2:0|2:0,2:0:0:0:
243,174,42824,2,0,P|202:127|242:87,1,112.5,10|8,2:0|2:0,2:0:0:0:
375,26,43293,69,10,2:0:0:0:
512,193,43528,21,10,2:0:0:0:
504,166,43645,1,8,2:0:0:0:
482,149,43762,1,8,2:0:0:0:
455,148,43879,1,8,2:0:0:0:
433,166,43996,2,0,P|430:194|426:221,3,50,8|8|10|8,2:0|2:0|2:0|2:0,2:0:0:0:
249,109,44465,5,10,2:0:0:0:
259,73,44582,1,8,2:0:0:0:
287,51,44699,1,8,2:0:0:0:
323,50,44817,1,8,2:0:0:0:
351,73,44934,2,0,P|354:109|359:145,3,56.2500000000001,10|8|8|8,2:0|2:0|2:0|2:0,2:0:0:0:
480,183,45403,69,10,2:0:0:0:
436,137,45520,1,8,2:0:0:0:
377,141,45637,1,10,2:0:0:0:
342,178,45754,1,8,2:0:0:0:
318,218,45871,1,10,2:0:0:0:
286,229,45988,1,8,2:0:0:0:
255,218,46106,1,8,2:0:0:0:
247,202,46223,1,10,2:0:0:0:
251,192,46340,2,0,L|278:188,6,28.125,8|0|8|0|8|0|8,2:0|2:0|2:0|2:0|2:0|2:0|2:0,2:0:0:0:
163,127,46809,70,0,P|168:163|201:183,1,43.75,10|0,2:0|2:0,2:0:0:0:
145,246,47043,2,0,P|181:251|210:227,1,43.75,10|0,2:0|2:0,2:0:0:0:
343,330,47278,22,0,P|337:296|326:223,1,71.875,6|0,1:2|2:0,2:0:0:0:
415,243,47512,2,0,P|420:278|426:313,1,71.875,2|0,2:0|2:0,2:0:0:0:
266,205,47746,2,0,P|294:171|343:198,1,71.875,10|0,2:0|2:0,2:0:0:0:
256,322,47981,1,2,2:0:0:0:
190,375,48098,2,0,P|124:365|5:357,1,143.75,2|0,2:0|2:0,2:0:0:0:
37,214,48449,70,0,P|11:252|28:299,1,71.875,2|0,2:0|2:0,2:0:0:0:
144,255,48684,2,0,P|146:219|127:190,1,71.875,10|0,2:0|2:0,2:0:0:0:
17,215,48918,2,0,P|-4:256|17:301,1,71.875,2|0,2:0|2:0,2:0:0:0:
107,349,49153,102,0,P|143:345|179:340,1,71.875,2|0,1:2|2:0,2:0:0:0:
303,271,49387,2,0,P|267:267|231:262,1,71.875,2|0,2:0|2:0,2:0:0:0:
162,106,49621,2,0,P|198:95|218:190,1,143.75,10|2,2:0|2:0,2:0:0:0:
269,25,49973,1,2,2:0:0:0:
254,18,50090,2,0,B|290:-1|322:28|322:28|357:60|403:29,1,143.75,0|0,1:2|2:0,2:0:0:0:
441,203,50442,69,0,2:0:0:0:
426,201,50559,2,0,P|448:181|432:120,1,65.625,10|0,2:0|2:0,2:0:0:0:
512,79,50793,2,0,P|500:51|437:48,1,59.3749999999999,2|0,2:0|2:0,2:0:0:0:
291,141,51028,102,0,P|323:135|420:131,1,71.875,2|0,1:2|2:0,2:0:0:0:
207,42,51262,2,0,P|239:48|336:52,1,71.875,2|0,2:0|2:0,2:0:0:0:
172,185,51496,2,0,P|199:157|167:98,1,71.875,10|0,2:0|2:0,2:0:0:0:
82,32,51731,1,2,2:0:0:0:
7,69,51848,2,0,P|34:123|114:112,1,143.75,2|0,2:0|2:0,2:0:0:0:
0,208,52199,70,0,P|14:246|29:316,1,71.875,2|0,2:0|2:0,2:0:0:0:
119,242,52434,2,0,P|112:283|90:350,1,71.875,10|0,2:0|2:0,2:0:0:0:
205,331,52668,2,0,P|178:363|125:410,1,71.875,2|0,2:0|2:0,2:0:0:0:
209,222,52903,102,0,P|244:219|271:241,1,71.875,2|0,1:2|2:0,2:0:0:0:
360,346,53137,2,0,P|395:348|422:326,1,71.875,2|0,2:0|2:0,2:0:0:0:
353,189,53371,2,0,P|359:224|363:260,1,71.875,10|0,2:0|2:0,2:0:0:0:
508,137,53606,1,2,2:0:0:0:
466,64,53723,2,0,P|453:134|444:206,1,143.75,2|0,2:0|2:0,2:0:0:0:
289,32,54074,70,0,P|324:24|359:21,1,71.875,2|0,2:0|2:0,2:0:0:0:
375,106,54309,2,0,P|345:108|282:123,1,71.875,10|0,2:0|2:0,2:0:0:0:
103,126,54543,102,0,P|138:133|173:136,1,71.875,2|0,2:0|2:0,2:0:0:0:
189,52,54778,2,0,P|159:50|96:35,1,71.875,2|0,1:2|2:0,2:0:0:0:
18,185,55012,69,2,2:0:0:0:
8,203,55129,1,2,2:0:0:0:
0,220,55246,2,0,P|11:270|19:321,1,71.875,10|0,2:0|2:0,2:0:0:0:
118,238,55481,5,2,2:0:0:0:
128,259,55598,1,2,2:0:0:0:
139,279,55715,2,0,P|129:321|121:363,1,71.875,2|2,1:2|2:0,2:0:0:0:
275,265,55949,69,0,2:0:0:0:
261,289,56067,1,2,2:0:0:0:
249,314,56184,2,0,P|258:355|267:398,1,71.875,10|0,2:0|2:0,2:0:0:0:
425,286,56418,6,0,P|397:262|362:266,1,71.875,2|0,2:0|2:0,2:0:0:0:
425,369,56653,2,0,P|459:371|486:347,1,71.875,2|0,1:2|2:0,2:0:0:0:
501,166,56887,70,0,P|505:202|509:238,1,71.875,2|0,2:0|2:0,2:0:0:0:
409,143,57121,2,0,P|419:214|424:286,1,143.75,10|0,2:0|2:0,2:0:0:0:
258,213,57473,1,0,2:0:0:0:
324,172,57590,2,0,P|289:169|262:193,1,71.875,2|0,1:2|2:0,2:0:0:0:
125,384,57824,6,0,P|118:328|98:259,1,71.875,2|0,2:0|2:0,2:0:0:0:
210,368,58059,2,0,P|203:312|183:243,1,71.875,10|0,2:0|2:0,2:0:0:0:
0,207,58293,70,0,P|3:171|10:135,1,71.875,2|2,2:0|2:0,2:0:0:0:
85,223,58528,2,0,P|88:187|95:151,1,71.875,2|0,1:2|2:0,2:0:0:0:
235,20,58762,5,2,2:0:0:0:
249,9,58879,1,0,2:0:0:0:
266,13,58996,2,0,P|287:45|263:93,1,71.875,10|0,2:0|2:0,2:0:0:0:
208,231,59231,69,2,2:0:0:0:
189,221,59348,1,2,2:0:0:0:
183,201,59465,2,0,P|200:162|239:147,1,71.875,2|0,1:2|2:0,2:0:0:0:
398,118,59699,5,2,2:0:0:0:
399,146,59817,1,2,2:0:0:0:
382,166,59934,2,0,P|340:173|302:153,1,71.875,10|0,2:0|2:0,2:0:0:0:
512,35,60168,69,2,2:0:0:0:
504,71,60285,1,2,2:0:0:0:
497,105,60403,2,0,P|483:173|473:286,1,150,10|0,1:2|1:2,2:0:0:0:
325,384,60754,1,0,1:2:0:0:
411,366,60871,2,0,P|395:299|293:319,1,168.75,10|0,2:0|1:2,2:0:0:0:
215,230,61223,5,0,2:0:0:0:
228,220,61340,2,0,P|217:263|233:312,1,65.625,10|0,2:0|2:0,2:0:0:0:
131,308,61574,2,0,P|150:348|194:375,1,59.3749999999999,2|0,1:2|2:0,2:0:0:0:
28,185,61809,38,0,B|75:117|184:139|184:139|139:167|140:235,1,243.75,10|10,2:0|2:0,2:0:0:0:
144,194,62278,22,0,B|131:163|150:131|150:131|179:98|155:47,1,143.75,6|8,1:2|2:1,2:0:0:0:
15,17,62629,1,8,2:1:0:0:
17,0,62746,2,0,P|55:33|93:23,1,71.875,10|0,2:0|2:0,2:0:0:0:
159,57,62981,2,0,P|197:24|235:34,1,71.875,0|0,2:0|2:0,2:0:0:0:
394,113,63215,5,10,1:0:0:0:
394,64,63332,1,8,2:1:0:0:
356,33,63449,1,8,2:1:0:0:
309,45,63567,1,8,2:1:0:0:
288,89,63684,2,0,P|304:127|311:189,1,71.875,10|0,2:0|2:0,2:0:0:0:
439,195,63918,2,0,P|424:227|417:262,1,71.875,0|0,2:0|2:0,2:0:0:0:
494,333,64153,70,0,P|404:315|338:315,1,143.75,2|8,1:2|2:1,2:0:0:0:
263,379,64504,1,8,2:1:0:0:
276,370,64621,2,0,P|256:367|268:296,1,71.875,10|0,2:0|2:0,2:0:0:0:
145,301,64856,2,0,P|142:282|213:271,1,71.875,0|0,2:0|2:0,2:0:0:0:
312,138,65090,5,2,1:2:0:0:
352,166,65207,1,8,2:1:0:0:
357,214,65324,1,8,2:1:0:0:
328,245,65442,1,8,2:1:0:0:
293,251,65559,1,10,2:0:0:0:
268,264,65676,1,0,2:0:0:0:
261,284,65793,1,2,2:0:0:0:
266,296,65910,1,0,2:0:0:0:
273,298,66028,70,0,B|289:258|289:258|215:211|147:293,1,162.5,2|0,1:2|2:0,2:0:0:0:
82,356,66379,1,0,2:0:0:0:
95,365,66496,2,0,P|91:329|89:293,1,71.875,10|0,2:0|2:0,2:0:0:0:
11,246,66731,2,0,P|15:210|17:174,1,71.875,0|0,2:0|2:0,2:0:0:0:
155,72,66965,5,10,1:0:0:0:
126,109,67082,1,8,2:1:0:0:
78,110,67199,1,8,2:1:0:0:
49,69,67317,1,10,2:1:0:0:
65,25,67434,2,0,P|114:24|130:68,1,71.875,10|0,2:0|2:0,2:0:0:0:
205,140,67668,2,0,P|239:147|266:126,1,71.875,0|0,2:0|2:0,2:0:0:0:
370,0,67903,70,0,P|357:101|352:185,1,143.75,2|0,1:2|2:0,2:0:0:0:
437,204,68254,1,0,2:0:0:0:
450,198,68371,2,0,P|385:177|393:253,1,143.75,10|0,2:0|2:0,2:0:0:0:
329,384,68723,5,2,2:0:0:0:
342,375,68840,2,0,P|306:369|271:360,1,71.875,2|0,1:2|2:0,2:0:0:0:
412,321,69074,2,0,P|446:312|482:306,1,71.875,2|0,2:0|2:0,2:0:0:0:
259,212,69309,69,10,2:0:0:0:
300,185,69426,1,0,2:0:0:0:
345,203,69543,1,0,2:0:0:0:
358,248,69660,1,0,2:0:0:0:
345,257,69778,6,0,B|365:222|337:189|337:189|311:154|337:103,1,143.75,2|8,1:2|2:1,2:0:0:0:
448,51,70129,1,8,2:1:0:0:
435,63,70246,2,0,P|469:74|504:81,1,71.875,10|0,2:0|2:0,2:0:0:0:
481,161,70481,2,0,P|445:153|411:142,1,71.875,0|0,2:0|2:0,2:0:0:0:
292,18,70715,69,2,1:2:0:0:
244,31,70832,1,8,2:1:0:0:
224,76,70949,1,8,2:1:0:0:
248,118,71067,1,8,2:1:0:0:
296,127,71184,2,0,P|335:99|327:65,1,71.875,10|0,2:0|2:0,2:0:0:0:
419,62,71418,2,0,P|405:16|370:13,1,71.875,0|0,2:0|2:0,2:0:0:0:
179,2,71653,6,0,P|191:72|202:200,1,143.75,2|8,1:2|2:1,2:0:0:0:
163,237,72004,1,8,2:1:0:0:
167,226,72121,2,0,P|130:249|99:190,1,71.875,10|0,2:0|2:0,2:0:0:0:
73,119,72356,2,0,P|105:130|115:163,1,71.875,0|0,2:0|2:0,2:0:0:0:
172,326,72590,69,2,1:2:0:0:
211,356,72707,1,8,2:1:0:0:
261,353,72824,1,8,2:1:0:0:
288,319,72942,1,8,2:1:0:0:
312,292,73059,1,10,2:0:0:0:
339,284,73176,1,8,2:1:0:0:
357,294,73293,1,2,2:0:0:0:
364,306,73410,1,0,2:0:0:0:
363,314,73528,6,0,B|314:266|366:206|366:206|382:233|433:245,1,162.5,2|0,1:2|2:0,2:0:0:0:
505,160,73879,1,0,2:0:0:0:
512,172,73996,2,0,P|478:169|429:154,1,71.875,10|0,2:0|2:0,2:0:0:0:
468,57,74231,2,0,P|437:71|387:82,1,71.875,0|0,2:0|2:0,2:0:0:0:
250,0,74465,69,2,1:2:0:0:
299,3,74582,1,8,2:1:0:0:
323,45,74699,1,8,2:1:0:0:
301,89,74817,1,8,2:1:0:0:
254,96,74934,2,0,P|223:82|173:71,1,71.875,10|0,2:0|2:0,2:0:0:0:
127,11,75168,2,0,P|93:14|44:29,1,71.875,0|0,2:0|2:0,2:0:0:0:
115,185,75403,6,0,P|129:142|41:173,1,143.75,2|0,1:2|2:0,2:0:0:0:
21,212,75754,1,0,2:0:0:0:
28,202,75871,2,0,P|44:244|64:368,1,143.75,10|0,2:0|2:0,2:0:0:0:
187,384,76223,69,2,2:0:0:0:
172,383,76340,2,0,P|198:363|151:308,1,71.875,2|0,1:2|2:0,2:0:0:0:
231,248,76574,2,0,P|264:257|277:290,1,71.875,2|0,2:0|2:0,2:0:0:0:
477,366,76809,5,10,2:0:0:0:
431,384,76926,1,2,2:0:0:0:
389,359,77043,1,0,2:0:0:0:
384,311,77160,1,0,2:0:0:0:
394,321,77278,70,0,B|373:324|356:337|356:337|367:289|386:191,1,143.75,2|8,1:2|2:1,2:0:0:0:
500,191,77629,1,8,2:1:0:0:
506,204,77746,2,0,P|474:211|444:167,1,71.875,10|0,2:0|2:0,2:0:0:0:
300,198,77981,2,0,P|283:167|297:135,1,71.875,0|0,2:0|2:0,2:0:0:0:
425,22,78215,5,2,1:2:0:0:
457,53,78332,1,8,2:1:0:0:
446,101,78449,1,8,2:1:0:0:
399,114,78567,1,8,2:1:0:0:
363,80,78684,1,10,2:0:0:0:
329,47,78801,1,8,2:1:0:0:
282,62,78918,1,8,2:1:0:0:
271,108,79035,1,8,2:1:0:0:
306,142,79153,70,0,P|313:77|328:-12,1,143.75,2|8,1:2|2:1,2:0:0:0:
218,32,79504,1,8,2:1:0:0:
230,24,79621,2,0,P|224:60|221:96,1,71.875,10|0,2:0|2:0,2:0:0:0:
128,93,79856,2,0,P|140:127|156:159,1,71.875,0|0,2:0|2:0,2:0:0:0:
318,315,80090,5,2,1:2:0:0:
305,264,80207,1,8,2:1:0:0:
261,238,80324,1,8,2:1:0:0:
221,254,80442,1,8,2:1:0:0:
195,279,80559,1,10,2:0:0:0:
168,288,80676,1,8,2:1:0:0:
150,276,80793,1,2,2:0:0:0:
143,262,80910,1,0,2:0:0:0:
142,254,81028,70,0,P|188:244|241:226,1,71.875,2|0,1:2|2:0,2:0:0:0:
98,179,81262,2,0,P|62:171|28:161,1,71.875,8|8,2:1|2:1,2:0:0:0:
127,38,81496,1,10,2:0:0:0:
137,44,81613,1,8,2:1:0:0:
146,55,81731,1,8,2:1:0:0:
151,68,81848,1,8,2:1:0:0:
148,109,81965,5,2,1:2:0:0:
183,75,82082,1,8,2:1:0:0:
231,73,82199,1,8,2:1:0:0:
269,105,82317,1,8,2:1:0:0:
277,153,82434,1,10,2:0:0:0:
284,203,82551,1,8,2:1:0:0:
321,234,82668,1,8,2:1:0:0:
370,232,82785,1,8,2:1:0:0:
406,198,82903,38,0,P|397:153|391:78,1,90.625,10|0,2:0|2:0,2:0:0:0:
479,17,83137,2,0,P|473:46|469:76,1,59.9999999999998,2|0,2:0|2:0,2:0:0:0:
284,162,83371,6,0,P|246:166|219:96,1,84.375,10|0,2:0|2:0,2:0:0:0:
209,54,83606,2,0,P|230:30|262:33,1,65.625,0|0,2:0|2:0,2:0:0:0:
111,167,83840,69,10,2:0:0:0:
61,172,83957,1,0,2:0:0:0:
29,148,84074,1,8,2:0:0:0:
26,121,84192,1,8,2:1:0:0:
34,102,84309,6,0,B|55:74|55:43|55:43|118:67|145:168|21:244,1,243.75,8|0,2:0|2:0,2:0:0:0:
80,193,84778,54,0,P|139:205|184:224,1,87.4999999999999,6|2,1:2|2:0,2:0:0:0:
298,98,85246,2,0,P|239:110|194:129,1,87.4999999999999,2|0,2:0|2:0,2:0:0:0:
213,119,85598,1,2,2:0:0:0:
244,277,85871,69,2,2:0:0:0:
253,300,85949,1,10,2:3:0:0:
356,325,86106,5,2,2:0:0:0:
370,314,86184,1,10,2:0:0:0:
399,225,86340,69,2,2:0:0:0:
390,218,86418,1,10,1:3:0:0:
304,199,86574,5,2,2:0:0:0:
303,206,86653,1,6,1:2:0:0:
256,192,86770,12,0,90754,2:0:0:0:
