osu file format v14

[General]
AudioFilename: audio.mp3
AudioLeadIn: 0
PreviewTime: 46809
Countdown: 0
SampleSet: Soft
StackLeniency: 0.5
Mode: 0
LetterboxInBreaks: 0
WidescreenStoryboard: 0

[Editor]
Bookmarks: 77580
DistanceSpacing: 0.8
BeatDivisor: 4
GridSize: 4
TimelineZoom: 3.899999

[Metadata]
Title:Grandeur (TV Size)
TitleUnicode:Grandeur (TV Size)
Artist:Snow Man
ArtistUnicode:Snow Man
Creator:HakuYT
Version:Expert
Source:ブラッククローバー
Tags:black clover op opening 13 anime japanese asta yami dante vanica zenon yuno noelle pop j-pop jpop paradogi kloster soue
BeatmapID:2751349
BeatmapSetID:1328147

[Difficulty]
HPDrainRate:6
CircleSize:4
OverallDifficulty:8.5
ApproachRate:9
SliderMultiplier:2.6
SliderTickRate:1

[Events]
//Background and Video events
Video,-970,"black clover.mp4"
0,0,"bcg.jpg",0,0
//Break Periods
//Storyboard Layer 0 (Background)
//Storyboard Layer 1 (Fail)
//Storyboard Layer 2 (Pass)
//Storyboard Layer 3 (Foreground)
//Storyboard Layer 4 (Overlay)
//Storyboard Sound Samples

[TimingPoints]
2273,468.75,4,2,1,45,1,0
2273,-133.333333333333,4,2,1,45,0,0
9787,468.75,4,2,1,45,1,0
9787,-117.647058823529,4,2,1,60,0,0
13537,-117.647058823529,4,2,1,70,0,0
17169,-117.647058823529,4,2,1,5,0,0
17278,468.75,4,2,1,70,1,0
17278,-100,4,2,1,70,0,0
30403,-66.6666666666667,4,2,1,70,0,0
31340,-133.333333333333,4,2,1,70,0,0
32278,-133.333333333333,4,2,1,60,0,0
39778,-125,4,2,1,70,0,0
43528,-111.111111111111,4,2,1,70,0,0
43996,-100,4,2,1,70,0,0
44465,-111.111111111111,4,2,1,70,0,0
44934,-100,4,2,1,70,0,0
45403,-166.666666666667,4,2,1,40,0,0
45871,-166.666666666667,4,2,1,40,0,0
46340,-166.666666666667,4,2,1,60,0,0
46809,-100,4,2,1,70,0,0
47278,-83.3333333333333,4,2,1,80,0,1
61457,-83.3333333333333,4,2,1,80,0,0
62278,-100,4,2,1,80,0,1
65793,-66.6666666666667,4,2,1,80,0,1
66496,-100,4,2,1,80,0,1
68840,-66.6666666666667,4,2,1,80,0,1
69778,-100,4,2,1,80,0,1
73293,-66.6666666666667,4,2,1,80,0,1
73996,-100,4,2,1,80,0,1
76340,-66.6666666666667,4,2,1,80,0,1
77278,-100,4,2,1,80,0,1
80793,-66.6666666666667,4,2,1,80,0,1
81496,-100,4,2,1,80,0,1
81965,-90.9090909090909,4,2,1,80,0,1
82903,-76.9230769230769,4,2,1,80,0,1
84778,-133.333333333333,4,2,2,55,0,0
85012,-133.333333333333,4,2,1,55,0,0
85871,-133.333333333333,4,2,1,70,0,0
90754,-133.333333333333,4,2,1,5,0,0

[Colours]
Combo1 : 255,255,191
Combo2 : 191,255,191
Combo3 : 255,191,191
Combo4 : 255,223,191

[HitObjects]
76,82,2273,5,8,1:2:0:0:
76,82,2390,2,0,L|85:154,1,48.750001859665,2|2,0:2|0:2,0:2:0:0:
157,191,2624,1,2,0:2:0:0:
157,191,2741,2,0,L|137:320,1,97.50000371933,2|2,0:2|0:2,0:2:0:0:
187,359,3093,6,0,L|243:351,1,48.750001859665,2|0,0:2|0:2,0:2:0:0:
300,261,3327,2,0,L|244:253,1,48.750001859665,2|0,0:2|0:2,0:2:0:0:
366,203,3562,1,2,0:2:0:0:
366,203,3679,2,0,P|382:232|387:264,1,48.750001859665,2|0,0:2|0:2,0:2:0:0:
439,357,3913,1,2,0:2:0:0:
455,311,4030,1,2,0:2:0:0:
495,285,4148,5,2,0:2:0:0:
352,318,4382,1,2,0:2:0:0:
463,174,4616,1,2,0:2:0:0:
300,261,4851,1,2,0:2:0:0:
300,261,4968,1,2,0:2:0:0:
328,96,5241,5,2,0:0:0:0:
334,121,5319,1,2,0:0:0:0:
252,182,5476,5,2,0:0:0:0:
258,157,5554,1,2,0:0:0:0:
167,96,5710,5,2,0:0:0:0:
173,121,5788,1,2,0:0:0:0:
97,190,5944,5,2,0:0:0:0:
103,165,6022,1,2,1:2:0:0:
178,212,6140,6,0,L|190:277,1,48.750001859665,2|2,0:2|0:2,0:2:0:0:
116,342,6374,1,2,0:2:0:0:
116,342,6491,2,0,B|160:338|160:338|173:346|173:346|239:339,1,97.50000371933,2|2,0:2|0:2,0:2:0:0:
307,212,6960,6,0,L|297:279,1,48.750001859665,2|0,0:2|0:2,0:2:0:0:
419,302,7194,1,2,0:2:0:0:
419,302,7312,2,0,L|409:235,1,48.750001859665,2|0,0:2|0:2,0:2:0:0:
360,149,7546,2,0,P|304:131|283:132,1,48.750001859665,2|0,0:2|0:2,0:2:0:0:
199,56,7780,1,2,0:2:0:0:
199,56,7898,6,0,L|321:43,1,97.50000371933,2|2,0:2|0:2,0:2:0:0:
211,194,8366,2,0,L|89:207,1,97.50000371933,2|2,0:2|0:2,0:2:0:0:
73,292,8718,1,0,0:2:0:0:
73,292,8835,6,0,L|152:301,1,48.750001859665,2|0,0:2|0:2,0:2:0:0:
226,375,9069,1,2,0:2:0:0:
226,375,9187,2,0,L|234:320,1,48.750001859665,2|0,0:2|0:2,0:2:0:0:
320,242,9421,1,2,0:2:0:0:
320,242,9538,2,0,P|352:230|394:230,1,48.750001859665,2|0,0:2|0:2,0:2:0:0:
487,361,9787,5,14,0:2:0:0:
441,354,9904,1,2,0:2:0:0:
395,348,10021,1,2,0:2:0:0:
349,342,10138,1,2,0:2:0:0:
304,339,10255,2,0,L|245:350,1,55.2500010538101,10|0,0:2|0:2,0:2:0:0:
65,289,10490,1,2,0:2:0:0:
65,289,10607,2,0,L|124:300,1,55.2500010538101,2|8,0:2|0:2,0:2:0:0:
242,200,10841,6,0,P|255:171|257:136,1,55.2500010538101,2|0,0:2|0:2,0:2:0:0:
134,24,11076,1,2,0:2:0:0:
134,24,11193,2,0,P|121:53|119:88,1,55.2500010538101,10|0,0:2|0:2,0:2:0:0:
242,200,11427,1,2,0:2:0:0:
282,215,11544,1,2,0:2:0:0:
326,210,11662,5,8,0:2:0:0:
448,81,11896,1,0,0:2:0:0:
420,235,12130,2,0,L|435:299,1,55.2500010538101,10|0,0:2|0:2,0:2:0:0:
338,156,12365,2,0,L|323:220,1,55.2500010538101,2|0,0:2|0:2,0:2:0:0:
212,348,12599,6,0,B|172:342|172:342|142:356|142:356|75:349,1,110.50000210762,10|0,0:2|0:2,0:2:0:0:
12,230,12951,2,0,B|52:224|52:224|82:238|82:238|149:231,1,110.50000210762,2|0,0:2|0:2,0:2:0:0:
214,131,13302,2,0,L|227:61,1,55.2500010538101,2|0,0:2|0:2,0:2:0:0:
75,0,13537,5,8,0:2:0:0:
81,54,13654,1,2,0:2:0:0:
89,108,13771,2,0,L|102:172,1,55.2500010538101,2|10,0:2|2:1,0:2:0:0:
248,213,14005,2,0,L|235:277,1,55.2500010538101,10|0,0:2|0:2,0:2:0:0:
93,302,14240,2,8,L|102:341,3,27.6250005269051,10|8|8|8,2:1|2:1|2:1|2:1,2:1:0:0:
104,359,14474,6,0,L|172:347,1,55.2500010538101,10|8,0:2|2:1,0:2:0:0:
347,284,14708,1,10,0:2:0:0:
351,288,14826,2,0,L|433:296,1,55.2500010538101,10|8,2:1|0:2,0:2:0:0:
268,125,15060,2,0,L|213:130,1,55.2500010538101,10|8,2:1|0:2,0:2:0:0:
428,45,15294,1,10,2:1:0:0:
428,45,15412,6,0,L|444:124,1,55.2500010538101,10|8,0:2|2:1,0:2:0:0:
274,262,15646,2,0,L|263:207,1,55.2500010538101,8|8,0:2|2:1,0:0:0:0:
117,22,15880,2,0,L|133:101,1,55.2500010538101,8|8,0:2|2:1,0:0:0:0:
108,217,16115,1,10,0:2:0:0:
37,94,16232,6,0,L|30:60,1,27.6250005269051,8|8,2:1|2:1,0:0:0:0:
60,117,16349,2,0,L|70:175,1,55.2500010538101,8|8,2:1|2:1,0:0:0:0:
8,259,16583,5,8,2:1:0:0:
8,259,16642,1,8,2:1:0:0:
8,259,16701,2,0,B|128:237|128:237|154:300|249:288,1,221.000004215241,10|0,2:1|0:2,0:2:0:0:
379,381,17278,5,6,1:2:0:0:
374,329,17395,1,2,0:2:0:0:
369,277,17512,2,0,L|382:208,1,65,2|0,0:2|0:2,0:2:0:0:
284,17,17746,5,2,1:2:0:0:
289,69,17863,1,2,0:2:0:0:
294,121,17981,2,0,L|281:190,1,65,2|0,0:2|0:2,0:2:0:0:
192,326,18215,5,2,1:2:0:0:
144,344,18332,1,2,0:2:0:0:
94,333,18449,1,2,0:2:0:0:
49,360,18567,2,0,P|16:271|102:221,1,195,2|0,0:2|0:2,0:2:0:0:
254,267,19153,5,2,1:2:0:0:
114,136,19387,1,2,0:2:0:0:
243,190,19621,5,2,1:2:0:0:
281,184,19738,1,2,0:2:0:0:
338,118,19856,1,2,0:2:0:0:
376,112,19973,1,2,0:2:0:0:
470,172,20090,1,2,1:2:0:0:
470,172,20207,6,0,B|483:207|483:207|466:245,1,65,2|0,0:2|0:2,0:2:0:0:
385,348,20442,1,2,0:2:0:0:
385,348,20559,2,0,L|396:266,1,65,2|0,1:2|0:2,0:2:0:0:
231,384,20793,2,0,B|225:345|220:302,1,65,2|0,0:2|0:2,0:2:0:0:
55,380,21028,6,0,L|77:211,1,130,2|2,1:2|0:2,0:2:0:0:
110,107,21496,1,2,1:2:0:0:
141,74,21613,1,2,0:2:0:0:
182,56,21731,2,0,L|254:69,1,65,2|0,0:2|0:2,0:2:0:0:
335,18,21965,6,0,L|487:39,1,130,2|2,1:2|0:2,0:2:0:0:
484,159,22317,2,0,P|458:132|423:122,1,65,2|0,0:2|1:2,0:2:0:0:
258,150,22551,2,0,P|287:137|309:113,1,65,2|0,0:2|0:2,0:2:0:0:
377,205,22785,1,2,0:2:0:0:
377,205,22903,6,0,L|390:293,1,65,2|0,1:2|0:2,0:2:0:0:
273,365,23137,2,0,B|333:346|333:346|419:379,2,130,2|0|0,0:2|1:2|0:2,0:2:0:0:
264,274,23723,1,2,0:2:0:0:
264,274,23840,2,0,B|204:293|204:293|118:260,2,130,2|2|2,1:2|0:2|1:2,0:2:0:0:
219,102,24543,5,2,0:2:0:0:
213,147,24660,1,2,0:2:0:0:
208,192,24778,2,0,L|108:181,1,65,6|0,1:2|0:2,0:2:0:0:
37,68,25012,2,0,L|101:75,1,65,2|0,0:2|0:2,0:2:0:0:
299,109,25246,2,0,P|294:73|267:32,1,65,10|0,1:2|0:2,0:2:0:0:
403,188,25481,2,0,P|406:155|420:126,1,65,2|0,0:2|0:2,0:2:0:0:
304,215,25715,5,2,1:2:0:0:
304,215,25832,2,0,L|294:290,1,65,2|0,0:2|0:2,0:2:0:0:
414,368,26067,2,0,L|405:303,1,65,2|8,0:2|1:2,0:2:0:0:
256,373,26301,2,0,L|321:359,1,65,2|0,0:2|0:2,0:2:0:0:
195,271,26535,5,2,0:2:0:0:
171,309,26653,1,2,1:2:0:0:
143,347,26770,2,0,L|13:321,1,130,2|0,0:2|0:2,0:2:0:0:
39,174,27121,2,0,L|54:260,1,65,10|0,1:2|0:2,0:2:0:0:
143,78,27356,2,0,L|128:164,1,65,2|0,0:2|0:2,0:2:0:0:
228,31,27590,6,0,B|279:28|279:28|309:45|309:45|381:39,1,130,2|2,1:2|0:2,0:2:0:0:
259,111,27942,2,0,P|289:120|322:122,1,65,2|8,0:2|1:2,0:2:0:0:
481,89,28176,2,0,P|448:91|417:100,1,65,2|0,0:2|0:2,0:2:0:0:
396,242,28410,1,2,0:2:0:0:
396,242,28528,2,0,L|383:159,1,65,2|0,1:2|0:2,0:2:0:0:
227,297,28762,6,0,L|305:327,1,65,2|0,0:2|0:2,0:2:0:0:
179,176,28996,2,0,L|118:199,1,65,10|0,1:2|0:2,0:2:0:0:
272,202,29231,1,2,0:2:0:0:
265,156,29348,1,2,0:2:0:0:
259,111,29465,6,0,L|247:39,1,65,2|0,1:2|0:2,0:2:0:0:
87,6,29699,1,2,0:2:0:0:
87,6,29817,2,0,L|99:103,1,65,2|8,0:2|1:2,0:2:0:0:
0,198,30051,2,0,P|35:217|84:216,1,65,2|0,0:2|0:2,0:2:0:0:
179,176,30285,1,2,0:2:0:0:
239,378,30403,6,0,L|257:275,1,97.50000371933,8|8,1:2|2:1,0:2:0:0:
275,14,30637,2,0,L|257:117,1,97.50000371933,2|8,1:2|1:1,0:2:0:0:
419,196,30871,1,8,0:2:0:0:
446,36,30988,2,8,L|499:26,4,48.750001859665,8|8|8|8|8,2:1|2:1|2:1|2:1|2:1,2:1:0:0:
354,156,31340,5,8,1:2:0:0:
339,186,31457,1,8,2:1:0:0:
337,220,31574,1,10,2:1:0:0:
348,252,31692,1,8,2:1:0:0:
371,277,31809,5,8,0:2:0:0:
399,270,31926,1,10,2:1:0:0:
427,276,32043,1,8,2:1:0:0:
449,295,32160,1,8,2:1:0:0:
459,322,32278,5,14,0:2:0:0:
355,378,32746,5,10,0:2:0:0:
262,304,33215,5,10,0:2:0:0:
157,370,33684,5,10,0:2:0:0:
74,268,34153,5,10,0:2:0:0:
179,196,34621,5,10,0:2:0:0:
262,304,35090,5,8,0:2:0:0:
179,196,35559,5,8,0:2:0:0:
64,58,36028,6,0,L|50:169,1,97.50000371933,10|2,0:2|0:2,0:2:0:0:
206,17,36496,2,0,L|220:128,1,97.50000371933,10|2,0:2|0:2,0:2:0:0:
283,190,36848,2,0,P|332:212|388:198,1,97.50000371933,2|0,0:2|0:2,0:2:0:0:
471,79,37199,2,0,P|449:128|463:184,1,97.50000371933,2|8,0:2|0:2,0:2:0:0:
497,309,37668,1,2,0:2:0:0:
360,367,37903,6,0,B|320:334|262:352,1,97.50000371933,10|2,0:2|0:2,0:2:0:0:
189,243,38371,2,0,B|229:276|281:259,1,97.50000371933,10|2,0:2|0:2,0:2:0:0:
347,199,38723,2,0,L|365:97,1,97.50000371933,2|0,0:2|0:2,0:2:0:0:
292,37,39074,1,2,0:2:0:0:
179,110,39309,1,10,0:2:0:0:
171,138,39426,1,2,0:2:0:0:
61,53,39660,1,2,0:2:0:0:
69,81,39778,6,0,L|56:143,1,52,10|0,0:0|0:0,0:0:0:0:
96,206,40012,2,0,L|83:268,1,52,10|0,0:0|0:0,0:0:0:0:
269,208,40246,6,0,L|282:270,1,52,10|0,0:0|0:0,0:0:0:0:
242,333,40481,2,0,L|255:395,1,52,10|0,0:0|0:0,0:0:0:0:
414,335,40715,6,0,P|436:324|481:317,1,52,10|0,0:0|0:0,0:0:0:0:
439,233,40949,2,0,P|415:244|390:250,1,52,10|2,0:0|0:0,0:0:0:0:
194,223,41184,6,0,P|216:212|261:205,1,52,8|0,0:0|0:0,0:0:0:0:
219,121,41418,2,0,P|195:132|170:138,1,52,10|0,0:0|0:0,0:0:0:0:
321,6,41653,6,0,L|337:74,1,52,10|0,0:0|0:0,0:0:0:0:
422,81,41887,2,0,L|410:30,1,52,10|0,0:0|0:0,0:0:0:0:
332,181,42121,6,0,L|316:249,1,52,10|0,0:0|0:0,0:0:0:0:
231,256,42356,2,0,L|242:205,1,52,8|2,0:0|0:0,0:0:0:0:
210,363,42590,6,0,P|187:351|151:304,1,52,8|0,0:0|0:0,0:0:0:0:
90,304,42824,2,0,P|101:281|148:245,1,52,10|0,0:0|0:0,0:0:0:0:
342,320,43059,6,0,P|364:308|400:261,1,52,8|0,0:0|0:0,0:0:0:0:
462,261,43293,2,0,P|450:238|403:202,1,52,10|0,0:0|0:0,0:0:0:0:
479,90,43528,5,10,0:2:0:0:
455,53,43645,1,8,0:2:0:0:
418,33,43762,1,8,0:2:0:0:
376,36,43879,1,8,0:2:0:0:
342,50,43996,2,8,L|273:57,3,65,10|8|10|8,0:0|0:0|0:0|0:0,0:0:0:0:
129,213,44465,5,10,0:2:0:0:
155,172,44582,1,8,0:2:0:0:
196,150,44699,1,8,0:2:0:0:
243,154,44817,1,8,0:2:0:0:
281,169,44934,2,8,L|355:177,3,65,10|8|8|8,0:0|0:0|0:0|0:0,0:0:0:0:
227,372,45403,5,10,0:0:0:0:
223,337,45520,1,8,0:0:0:0:
220,302,45637,1,10,0:0:0:0:
217,267,45754,1,8,0:0:0:0:
188,234,45871,5,10,0:0:0:0:
192,206,45988,1,8,0:0:0:0:
194,178,46106,1,8,0:0:0:0:
196,150,46223,1,10,0:0:0:0:
200,122,46340,6,0,L|203:91,7,19.4999994049072,8|0|8|0|8|8|8|8,0:2|3:2|0:0|3:2|0:0|0:0|0:0|0:0,0:0:0:0:
211,23,46809,5,10,0:0:0:0:
102,217,47043,1,10,0:0:0:0:
294,75,47278,6,0,L|304:167,1,77.999997619629,6|0,1:2|0:2,0:2:0:0:
327,366,47512,2,0,L|318:288,1,77.999997619629,2|0,0:2|0:2,0:2:0:0:
201,102,47746,1,10,0:2:0:0:
18,324,47981,1,0,0:2:0:0:
55,317,48098,1,2,0:2:0:0:
91,309,48215,6,0,L|179:296,1,77.999997619629,0|0,1:2|0:2,0:2:0:0:
363,186,48449,2,0,L|451:199,1,77.999997619629,2|0,0:2|0:2,0:2:0:0:
280,52,48684,2,0,P|274:90|249:118,1,77.999997619629,10|0,0:2|0:2,0:2:0:0:
313,343,48918,2,0,P|319:304|344:276,1,77.999997619629,2|0,0:2|0:2,0:2:0:0:
157,208,49153,6,0,L|56:221,1,77.999997619629,2|0,1:2|0:2,0:2:0:0:
9,39,49387,2,0,L|110:52,1,77.999997619629,2|0,0:2|0:2,0:2:0:0:
349,124,49621,2,0,B|355:187|355:187|339:215|339:215|347:318,1,155.999995239258,10|2,0:2|0:2,0:2:0:0:
507,345,49973,2,0,B|501:282|501:282|517:254|517:254|509:151,1,155.999995239258,2|0,0:2|0:2,0:2:0:0:
444,25,50324,1,0,0:2:0:0:
277,154,50559,6,0,L|187:165,1,77.999997619629,10|0,0:2|0:2,0:2:0:0:
150,362,50793,2,0,L|139:272,1,77.999997619629,2|0,0:2|0:2,0:2:0:0:
160,88,51028,2,0,P|134:108|124:177,1,77.999997619629,2|0,1:2|0:2,0:2:0:0:
282,330,51262,2,0,P|270:293|240:268,1,77.999997619629,2|0,0:2|0:2,0:2:0:0:
24,235,51496,1,10,0:2:0:0:
199,163,51731,1,2,0:2:0:0:
226,160,51848,1,2,0:2:0:0:
258,156,51965,6,0,L|350:144,1,77.999997619629,2|0,1:2|0:2,0:2:0:0:
501,318,52199,2,0,L|409:306,1,77.999997619629,2|0,0:2|0:2,0:2:0:0:
468,98,52434,2,0,L|452:201,1,77.999997619629,10|0,0:2|0:2,0:2:0:0:
318,355,52668,2,0,L|302:252,1,77.999997619629,2|0,0:2|0:2,0:2:0:0:
120,372,52903,6,0,P|157:355|209:356,1,77.999997619629,2|0,1:2|0:2,0:2:0:0:
24,235,53137,2,0,P|62:237|97:254,1,77.999997619629,2|0,0:2|0:2,0:2:0:0:
258,156,53371,1,10,0:2:0:0:
53,34,53606,1,2,0:2:0:0:
47,70,53723,1,2,0:2:0:0:
40,105,53840,1,0,1:2:0:0:
197,37,54074,6,0,L|274:48,1,77.999997619629,2|0,0:2|0:2,0:2:0:0:
483,77,54309,2,0,L|388:91,1,77.999997619629,10|0,0:2|0:2,0:2:0:0:
183,115,54543,2,0,L|260:126,1,77.999997619629,2|0,0:2|0:2,0:2:0:0:
486,183,54778,6,0,P|481:217|452:251,1,77.999997619629,2|0,1:2|0:2,0:2:0:0:
295,319,55012,1,2,0:2:0:0:
374,269,55129,1,2,0:2:0:0:
439,340,55246,1,10,0:2:0:0:
347,163,55481,5,2,0:2:0:0:
279,232,55598,1,2,0:2:0:0:
203,184,55715,1,2,1:2:0:0:
203,184,55832,6,0,L|227:94,1,77.999997619629,2|0,0:2|0:2,0:2:0:0:
40,10,56067,1,2,0:2:0:0:
40,10,56184,2,0,L|64:100,1,77.999997619629,10|0,0:2|0:2,0:2:0:0:
6,304,56418,2,0,L|27:228,1,77.999997619629,2|0,0:2|0:2,0:2:0:0:
161,38,56653,1,2,1:2:0:0:
310,174,56887,6,0,L|409:163,1,77.999997619629,2|0,0:2|0:2,0:2:0:0:
206,342,57121,2,0,B|268:333|268:333|296:350|296:350|391:341,1,155.999995239258,10|0,0:2|0:2,0:2:0:0:
494,264,57473,1,0,0:2:0:0:
494,264,57590,2,0,L|392:256,1,77.999997619629,2|0,1:2|0:2,0:2:0:0:
243,228,57824,6,0,P|224:196|236:135,1,77.999997619629,2|0,0:2|0:2,0:2:0:0:
349,12,58059,2,0,P|350:50|330:83,1,77.999997619629,10|0,0:2|0:2,0:2:0:0:
139,63,58293,1,2,0:2:0:0:
92,53,58410,1,2,0:2:0:0:
45,44,58528,6,0,B|26:82|26:82|37:119,1,77.999997619629,2|0,1:2|0:2,0:2:0:0:
134,279,58762,2,0,B|110:243|110:243|73:234,1,77.999997619629,2|0,0:2|0:2,0:2:0:0:
285,112,58996,2,0,L|302:205,1,77.999997619629,10|0,0:2|0:2,0:2:0:0:
392,344,59231,1,2,0:2:0:0:
438,351,59348,1,2,0:2:0:0:
484,359,59465,6,0,L|502:269,1,77.999997619629,2|0,1:2|0:2,0:2:0:0:
266,361,59699,1,2,0:2:0:0:
220,368,59817,1,2,0:2:0:0:
174,376,59934,2,0,L|156:286,1,77.999997619629,10|0,0:2|0:2,0:2:0:0:
376,184,60168,1,2,0:2:0:0:
422,191,60285,1,2,0:2:0:0:
468,199,60403,6,0,L|486:109,1,77.999997619629,10|0,1:2|0:2,0:2:0:0:
272,34,60637,1,0,1:2:0:0:
272,34,60754,1,0,1:2:0:0:
272,34,60871,2,0,P|262:68|260:130,1,77.999997619629,10|0,0:2|0:2,0:2:0:0:
5,187,61106,1,0,1:2:0:0:
5,187,61223,1,0,0:2:0:0:
5,187,61340,6,0,P|40:177|101:175,1,77.999997619629,10|0,0:2|0:2,0:2:0:0:
247,382,61574,2,0,P|257:347|259:286,1,77.999997619629,2|0,1:2|0:2,0:2:0:0:
507,150,61809,2,0,P|472:140|411:138,1,77.999997619629,10|0,0:2|0:2,0:2:0:0:
170,182,62043,5,8,0:2:0:0:
247,172,62160,1,10,0:2:0:0:
324,162,62278,6,0,B|365:215|365:215|335:286,1,130,6|8,1:2|2:1,0:2:0:0:
185,330,62629,1,8,2:1:0:0:
185,330,62746,2,0,L|101:319,1,65,10|0,0:2|0:2,0:2:0:0:
13,208,62981,2,0,L|77:216,1,65,0|0,0:2|0:2,0:2:0:0:
152,48,63215,6,0,P|133:80|120:124,1,65,10|8,1:1|2:1,0:2:0:0:
274,229,63449,2,0,P|262:198|245:170,1,65,8|8,2:1|2:1,0:2:0:0:
343,24,63684,2,0,L|354:112,1,65,10|0,0:2|0:2,0:2:0:0:
457,246,63918,2,0,L|468:158,1,65,0|0,0:2|0:2,0:2:0:0:
333,313,64153,6,0,P|360:331|404:341,1,65,2|0,1:2|0:2,0:2:0:0:
246,171,64387,2,0,P|214:180|187:198,1,65,8|8,2:1|2:1,0:2:0:0:
38,372,64621,2,0,B|28:341|28:341|42:278,1,65,10|0,0:2|0:2,0:2:0:0:
242,371,64856,2,0,B|252:340|252:340|238:277,1,65,0|0,0:2|0:2,0:2:0:0:
19,201,65090,6,0,L|103:192,1,65,2|8,1:2|2:1,0:2:0:0:
210,79,65324,2,0,L|274:72,1,65,8|8,2:1|2:1,0:2:0:0:
466,181,65559,2,0,L|402:188,1,65,10|0,0:2|0:2,0:2:0:0:
161,164,65793,6,0,P|168:194|185:285,1,97.50000371933,2|0,0:2|0:2,0:2:0:0:
483,277,66028,2,0,P|324:197|412:67,1,292.50001115799,2|0,1:2|0:2,0:2:0:0:
235,329,66496,6,0,P|259:299|260:241,1,65,10|0,0:2|0:2,0:2:0:0:
81,373,66731,2,0,P|64:343|63:285,1,65,0|0,0:2|0:2,0:2:0:0:
131,109,66965,2,0,P|139:139|161:164,1,65,10|8,1:1|2:1,0:2:0:0:
303,12,67199,2,0,P|294:42|272:67,1,65,8|10,2:1|2:1,0:2:0:0:
402,188,67434,6,0,L|481:183,1,65,10|0,0:2|0:2,0:2:0:0:
361,360,67668,2,0,L|356:281,1,65,0|0,0:2|0:2,0:2:0:0:
165,263,67903,5,2,1:2:0:0:
107,271,68020,1,0,0:2:0:0:
49,280,68137,2,0,P|33:249|39:200,1,65,0|0,0:2|0:2,0:2:0:0:
139,23,68371,5,10,0:2:0:0:
197,15,68488,1,0,0:2:0:0:
255,6,68606,2,0,P|271:37|265:86,1,65,0|2,0:2|0:2,0:2:0:0:
264,286,68840,6,0,L|288:189,1,97.50000371933,2|0,1:2|0:2,0:2:0:0:
502,9,69074,2,0,L|478:103,1,97.50000371933,2|0,0:2|0:2,0:2:0:0:
394,355,69309,2,0,B|321:347|321:347|275:366|275:366|169:352,1,195.00000743866,10|0,0:2|0:2,0:2:0:0:
43,283,69660,1,0,0:2:0:0:
43,283,69778,6,0,L|110:273,1,65,2|0,1:2|0:2,0:2:0:0:
287,191,70012,1,8,2:1:0:0:
298,136,70129,1,8,2:1:0:0:
255,100,70246,2,0,L|176:88,1,65,10|0,0:2|0:2,0:2:0:0:
341,254,70481,2,0,P|360:221|367:186,1,65,0|0,0:2|0:2,0:2:0:0:
439,28,70715,6,0,P|447:59|464:86,1,65,2|8,1:2|2:1,0:2:0:0:
287,191,70949,1,8,2:1:0:0:
235,187,71067,1,8,2:1:0:0:
183,183,71184,2,0,L|172:261,1,65,10|0,0:2|0:2,0:2:0:0:
379,383,71418,2,0,L|388:318,1,65,0|0,0:2|0:2,0:2:0:0:
119,307,71653,6,0,P|150:327|195:332,1,65,2|0,1:2|0:2,0:2:0:0:
401,236,71887,2,0,P|368:238|339:254,1,65,8|8,2:1|2:1,0:2:0:0:
100,195,72121,2,0,B|93:162|93:162|108:121,1,65,10|0,0:2|0:2,0:2:0:0:
362,115,72356,2,0,B|369:82|369:82|354:41,1,65,0|0,0:2|0:2,0:2:0:0:
107,34,72590,5,2,1:2:0:0:
145,40,72707,1,8,2:1:0:0:
183,47,72824,1,8,2:1:0:0:
222,54,72942,1,8,2:1:0:0:
260,60,73059,1,10,0:2:0:0:
268,105,73176,1,8,2:1:0:0:
272,153,73293,6,0,L|284:266,1,97.50000371933,2|0,0:2|0:2,0:2:0:0:
72,301,73528,2,0,B|249:251|142:411|371:345,1,292.50001115799,2|0,1:2|0:2,0:2:0:0:
494,283,73996,6,0,P|475:303|416:319,1,65,10|0,0:2|0:2,0:2:0:0:
229,214,74231,2,0,P|258:226|281:249,1,65,0|0,0:2|0:2,0:2:0:0:
473,181,74465,2,0,L|486:99,1,65,2|8,1:2|2:1,0:2:0:0:
271,15,74699,2,0,L|260:79,1,65,8|8,2:1|2:1,0:2:0:0:
97,165,74934,2,0,L|6:155,1,65,10|0,0:2|0:2,0:2:0:0:
281,249,75168,2,0,L|345:241,1,65,0|0,0:2|0:2,0:2:0:0:
101,345,75403,5,2,1:2:0:0:
93,287,75520,1,0,0:2:0:0:
84,229,75637,2,0,L|102:142,1,65,0|0,0:2|0:2,0:2:0:0:
309,0,75871,5,10,0:2:0:0:
317,58,75988,1,0,0:2:0:0:
326,116,76106,2,0,L|312:179,1,65,0|2,0:2|0:2,0:2:0:0:
397,354,76340,6,0,P|448:358|497:318,1,97.50000371933,2|0,1:2|0:2,0:2:0:0:
286,262,76574,2,0,P|238:257|196:281,1,97.50000371933,2|0,0:2|0:2,0:2:0:0:
0,173,76809,1,10,0:2:0:0:
0,173,76926,2,0,B|121:209|65:104|186:132,1,195.00000743866,2|2,0:0|0:0,0:0:0:0:
260,31,77278,6,0,P|233:11|181:10,1,65,2|0,1:2|0:2,0:2:0:0:
100,251,77512,2,0,P|130:237|157:193,1,65,8|8,2:1|2:1,0:2:0:0:
326,116,77746,2,0,L|413:130,1,65,10|0,0:2|0:2,0:2:0:0:
485,334,77981,2,0,L|420:323,1,65,0|0,0:2|0:2,0:2:0:0:
244,155,78215,5,2,1:2:0:0:
262,195,78332,1,8,2:1:0:0:
269,240,78449,1,8,2:1:0:0:
258,284,78567,1,8,2:1:0:0:
234,322,78684,2,0,L|149:337,1,65,10|8,0:2|2:1,0:2:0:0:
32,233,78918,2,0,P|22:199|43:147,1,65,8|8,2:1|2:1,0:2:0:0:
169,50,79153,6,0,L|234:62,1,65,2|0,1:2|0:2,0:2:0:0:
111,246,79387,2,0,L|122:181,1,65,8|8,2:1|2:1,0:2:0:0:
326,116,79621,2,0,L|337:180,1,65,10|0,0:2|0:2,0:2:0:0:
234,322,79856,6,0,P|262:345|328:347,1,65,0|0,0:2|0:2,0:2:0:0:
474,269,80090,2,0,P|443:278|418:299,1,65,2|8,1:2|2:1,0:2:0:0:
213,209,80324,2,0,P|241:232|307:234,1,65,8|8,2:1|2:1,0:2:0:0:
495,156,80559,2,0,P|464:165|439:186,1,65,10|8,0:2|2:1,0:2:0:0:
305,20,80793,6,0,L|336:164,1,97.50000371933,2|0,0:2|0:2,0:2:0:0:
43,116,81028,2,0,B|102:113|127:64|127:64|170:112|232:85,1,195.00000743866,2|8,1:2|2:1,0:2:0:0:
57,205,81379,5,8,2:1:0:0:
57,205,81496,2,0,L|43:296,1,65,10|8,0:2|2:1,0:2:0:0:
258,175,81731,2,0,L|272:266,1,65,8|8,2:1|2:1,0:2:0:0:
12,375,81965,2,0,L|107:361,1,71.5000021820069,2|8,1:2|2:1,0:2:0:0:
313,332,82199,2,0,L|218:318,1,71.5000021820069,8|8,2:1|2:1,0:2:0:0:
141,164,82434,5,10,0:2:0:0:
155,116,82551,1,8,2:1:0:0:
189,80,82668,1,8,2:1:0:0:
235,62,82785,1,8,2:1:0:0:
284,67,82903,6,0,L|396:90,1,84.4999961318971,10|0,0:2|0:2,0:2:0:0:
446,350,83137,1,2,0:2:0:0:
446,350,83254,1,0,0:2:0:0:
446,350,83371,2,0,L|440:247,1,84.4999961318971,10|0,0:2|0:2,0:2:0:0:
483,16,83606,1,0,0:2:0:0:
483,16,83723,1,0,0:2:0:0:
483,16,83840,2,0,L|489:119,1,84.4999961318971,10|0,0:2|0:2,0:2:0:0:
288,273,84074,5,8,0:2:0:0:
206,269,84192,1,8,2:1:0:0:
164,198,84309,2,0,L|153:108,1,84.4999961318971,8|0,0:2|0:2,0:2:0:0:
24,365,84543,2,0,L|35:275,1,84.4999961318971,8|0,1:2|0:2,0:2:0:0:
55,67,84778,5,6,1:2:0:0:
65,176,85012,1,2,0:2:0:0:
153,114,85246,2,0,B|204:95|204:95|252:111,1,97.50000371933,2|0,0:2|0:2,0:2:0:0:
311,168,85598,1,2,0:2:0:0:
149,329,85871,5,2,0:2:0:0:
142,303,85949,1,10,0:3:0:0:
256,356,86106,5,2,0:2:0:0:
263,330,86184,1,10,0:2:0:0:
379,324,86340,5,2,0:2:0:0:
372,298,86418,1,10,1:3:0:0:
471,359,86574,5,2,0:2:0:0:
495,278,86653,1,6,1:2:0:0:
256,192,86770,12,0,90754,0:2:0:0:
