osu file format v14

[General]
AudioFilename: audio.mp3
AudioLeadIn: 0
PreviewTime: 22469
Countdown: 0
SampleSet: Soft
StackLeniency: 0.7
Mode: 0
LetterboxInBreaks: 0
WidescreenStoryboard: 1

[Editor]
Bookmarks: 116,705,1293,1881,2469,3058,3646,41293,78940,107175,107469,107763,108058,108352,108646,108940,109234,109528,109822,110116,110410,110705,110999,111293,140116,158940,177763,196587,215410,234234,253057,267175,285999,314234,342469
DistanceSpacing: 2.2
BeatDivisor: 12
GridSize: 32
TimelineZoom: 1.5

[Metadata]
Title:Riders on the Storm (Fredwreck Remix)
TitleUnicode:Riders on the Storm (Fredwreck Remix)
Artist:Snoop Dogg feat. The Doors
ArtistUnicode:Snoop Dogg feat. The Doors
Creator:Myahkey
Version:Bayview Collab
Source:Need for Speed: Underground 2
Tags:astrolis riffy bakari esutarosa clubber - -_clubber_- myah venerablenyanta nyanta hip hop hip-hop english doggy marathon nfsu2 nfs:u2
BeatmapID:3542132
BeatmapSetID:1732972

[Difficulty]
HPDrainRate:5
CircleSize:4
OverallDifficulty:7.3
ApproachRate:8.3
SliderMultiplier:1.8
SliderTickRate:1

[Events]
//Background and Video events
0,0,"nfsu2.jpg",0,0
//Break Periods
//Storyboard Layer 0 (Background)
//Storyboard Layer 1 (Fail)
//Storyboard Layer 2 (Pass)
//Storyboard Layer 3 (Foreground)
//Storyboard Layer 4 (Overlay)
//Storyboard Sound Samples

[TimingPoints]
130,588.235294117647,4,2,1,5,1,0
718,-100,4,2,1,10,0,0
1306,-100,4,2,1,15,0,0
1894,-100,4,2,1,20,0,0
2482,-100,4,2,1,25,0,0
3660,588.235294117647,4,2,1,50,1,0
22483,-66.6666666666667,4,2,1,60,0,0
31895,-66.6666666666667,4,2,1,60,0,1
36601,-66.6666666666667,4,2,1,60,0,0
41307,-66.6666666666667,4,2,1,70,0,1
46012,-66.6666666666667,4,2,1,70,0,0
60130,-66.6666666666667,4,2,1,70,0,1
64836,-66.6666666666667,4,2,1,70,0,0
69542,-66.6666666666667,4,2,1,70,0,1
74248,-66.6666666666667,4,2,1,70,0,0
78954,-66.6666666666667,4,2,1,60,0,0
140130,-66.6666666666667,4,2,1,70,0,1
144836,-66.6666666666667,4,2,1,70,0,0
158954,-60.6060606060606,4,2,1,70,0,1
163659,-60.6060606060606,4,2,1,70,0,0
168365,-60.6060606060606,4,2,1,70,0,1
173071,-60.6060606060606,4,2,1,70,0,0
177777,-66.6666666666667,4,2,1,60,0,0
178365,-100,4,2,1,60,0,0
187189,-66.6666666666667,4,2,1,70,0,0
194836,-33.3333333333333,4,2,1,70,0,0
196601,-66.6666666666667,4,2,1,60,0,0
215424,-60.6060606060606,4,2,1,70,0,1
216601,-58.8235294117647,4,2,1,70,0,1
217483,-60.6060606060606,4,2,1,70,0,1
217777,-57.1428571428571,4,2,1,70,0,1
218659,-60.6060606060606,4,2,1,70,0,1
220130,-60.6060606060606,4,2,1,60,0,0
224836,-60.6060606060606,4,2,1,70,0,1
225718,-60.6060606060606,4,2,1,70,0,1
226012,-58.8235294117647,4,2,1,70,0,1
226895,-60.6060606060606,4,2,1,70,0,1
227189,-57.1428571428571,4,2,1,70,0,1
227777,-60.6060606060606,4,2,1,70,0,1
229542,-60.6060606060606,4,2,1,70,0,0
243659,-60.6060606060606,4,2,1,70,0,1
248365,-60.6060606060606,4,2,1,70,0,0
253071,-60.6060606060606,4,2,1,75,0,1
257777,-60.6060606060606,4,2,1,75,0,0
267189,-60.6060606060606,4,2,1,80,0,1
269836,-60.6060606060606,4,2,1,80,0,0
271895,-60.6060606060606,4,2,1,80,0,1
274542,-60.6060606060606,4,2,1,80,0,0
276601,-60.6060606060606,4,2,1,80,0,1
279248,-60.6060606060606,4,2,1,80,0,0
281307,-60.6060606060606,4,2,1,80,0,1
283954,-60.6060606060606,4,2,1,80,0,0
285130,-54.054054054054,4,2,1,80,0,1
285424,-48.780487804878,4,2,1,80,0,1
285718,-44.4444444444445,4,2,1,80,0,1
286012,-66.6666666666667,4,2,1,70,0,0
290718,-66.6666666666667,4,2,1,60,0,0
297777,-66.6666666666667,4,2,1,70,0,0
300130,-66.6666666666667,4,2,1,60,0,0
327262,-66.6666666666667,4,2,1,30,0,0
327777,-66.6666666666667,4,2,1,60,0,0
327851,-66.6666666666667,4,2,1,30,0,0
328365,-60.6060606060606,4,2,1,60,0,0
328439,-60.6060606060606,4,2,1,30,0,0
328954,-57.1428571428571,4,2,1,60,0,0
329027,-57.1428571428571,4,2,1,30,0,0
329542,-66.6666666666667,4,2,1,60,0,0
335424,-66.6666666666667,4,2,1,70,0,0
340130,-66.6666666666667,4,2,1,60,0,0
341968,-66.6666666666667,4,2,1,30,0,0
342189,-66.6666666666667,4,2,1,60,0,0
342262,-66.6666666666667,4,2,1,30,0,0
342483,-125,4,2,1,40,0,0
342777,-125,4,2,2,40,0,0
345424,-125,4,2,2,5,0,0
345816,-125,4,2,2,30,0,0
345865,731.707317073171,4,2,2,30,1,0
346108,681.818181818182,4,2,2,30,1,0
348437,857.142857142857,4,2,2,30,1,0
348721,689.655172413793,4,2,2,30,1,0
349985,612.244897959184,4,2,2,30,1,0
351209,714.285714285714,4,2,2,30,1,0
352875,666.666666666667,4,2,2,30,1,0
354097,681.818181818182,4,2,2,30,1,0
356483,666.666666666667,4,2,2,30,1,0
356816,714.285714285714,4,2,2,30,1,0
358006,659.340659340659,4,2,2,30,1,0
359434,588.235294117647,4,2,2,30,1,0
359836,-125,4,2,2,5,0,0

[Colours]
Combo1 : 211,211,44
Combo2 : 196,87,87
Combo3 : 66,172,122
Combo4 : 189,103,201
SliderBorder : 145,255,145 RidersOnYourMom :
164,164,164

[HitObjects]
256,192,130,12,0,3365,0:0:0:0:
9,156,3659,6,0,P|34:128|63:81,1,90,4|0,1:2|0:2,0:0:0:0:
74,295,4248,1,8,0:2:0:0:
63,271,4542,1,0,0:2:0:0:
161,227,4836,1,0,1:2:0:0:
208,323,5130,1,0,1:2:0:0:
327,182,5425,2,0,P|313:235|301:317,1,135,8|0,0:2|0:0,0:0:0:0:
299,327,6013,6,0,B|351:340|311:356|385:369,1,90,0|0,1:2|0:2,0:0:0:0:
495,188,6601,1,8,0:2:0:0:
487,217,6895,1,0,0:2:0:0:
417,117,7189,2,0,P|450:100|507:87,1,90,0|0,1:2|0:2,0:0:0:0:
321,32,7777,2,0,P|287:17|231:7,1,90,8|0,0:2|0:2,0:0:0:0:
327,150,8366,5,0,1:2:0:0:
239,211,8660,1,0,0:2:0:0:
222,195,8807,1,0,0:0:0:0:
209,175,8954,2,0,L|231:81,1,90,8|0,0:2|0:2,0:0:0:0:
117,173,9542,2,0,P|108:159|87:132,1,45,0|0,1:2|0:0,0:0:0:0:
0,136,9836,2,0,P|8:122|32:96,1,45,0|0,1:2|0:0,0:0:0:0:
33,301,10130,2,0,P|67:281|115:261,1,90,8|0,0:2|0:2,0:0:0:0:
188,303,10572,1,0,0:0:0:0:
188,303,10719,6,0,P|220:310|276:328,1,90,0|0,1:2|0:2,0:0:0:0:
348,304,11160,1,0,0:0:0:0:
322,233,11307,2,0,P|330:200|371:156,1,90,8|0,0:2|0:2,0:0:0:0:
470,218,11895,1,0,1:2:0:0:
457,241,12189,1,0,0:2:0:0:
421,71,12483,1,8,0:2:0:0:
434,99,12777,1,0,0:2:0:0:
328,23,13072,5,0,1:2:0:0:
254,96,13366,2,0,P|246:83|221:63,1,45,0|0,0:2|0:0,0:0:0:0:
260,108,13660,2,0,B|202:111|220:129|162:132,1,90,8|0,0:2|0:2,0:0:0:0:
79,60,14248,1,0,1:2:0:0:
163,147,14542,1,0,1:2:0:0:
49,334,14836,2,0,B|27:242|24:308|-3:202,1,135,8|0,0:2|0:0,0:0:0:0:
4,196,15424,6,0,P|32:175|86:159,1,90,0|0,1:2|0:2,0:0:0:0:
13,8,16013,1,8,0:2:0:0:
3,35,16160,1,0,0:0:0:0:
5,63,16307,2,0,P|22:73|39:94,1,45,0|0,0:2|0:0,0:0:0:0:
135,47,16601,1,0,1:2:0:0:
152,24,16748,1,0,0:0:0:0:
177,11,16895,2,0,P|177:34|192:65,1,45,0|0,0:2|0:0,0:0:0:0:
254,169,17189,2,0,P|263:137|301:82,2,90,8|0|0,0:2|0:2|1:2,0:0:0:0:
343,237,18072,5,0,0:2:0:0:
470,93,18366,2,0,B|483:147|483:147|496:167|496:167|516:244,1,135,8|0,0:2|0:0,0:0:0:0:
512,233,18954,1,0,1:2:0:0:
469,328,19248,1,0,1:2:0:0:
469,328,19395,1,0,0:0:0:0:
469,328,19542,2,0,B|378:325|437:362|335:358,1,135,8|0,0:2|0:0,0:0:0:0:
338,372,20130,6,0,B|242:375|301:338|210:341,1,135,0|0,1:2|0:0,0:0:0:0:
206,351,20719,1,8,0:2:0:0:
152,259,21013,2,0,L|132:202,1,45,0|0,0:2|0:0,0:0:0:0:
144,276,21307,1,0,1:2:0:0:
84,369,21601,2,0,P|66:345|-3:328,1,90,0|8,0:2|0:2,0:0:0:0:
27,226,22189,2,0,L|16:183,1,45,0|0,0:2|0:0,0:0:0:0:
41,237,22483,6,0,P|66:180|125:108,1,135.000005149842,4|0,1:2|0:2,0:0:0:0:
269,13,23072,2,0,B|239:94|282:68|244:161,1,135.000005149842,8|0,0:2|0:2,0:0:0:0:
201,270,23660,1,0,1:2:0:0:
320,319,23954,1,0,1:2:0:0:
506,171,24248,2,0,P|435:153|384:260,1,202.500007724762,8|0,0:2|0:0,0:0:0:0:
455,229,24836,6,0,P|475:249|488:295,3,67.5000025749208,0|0|0|0,1:2|0:0|0:2|0:0,0:0:0:0:
416,370,25424,2,0,P|359:330|286:313,1,135.000005149842,8|0,0:2|0:2,0:0:0:0:
171,261,26013,2,0,P|205:313|220:383,1,135.000005149842,0|0,1:2|0:2,0:0:0:0:
272,215,26601,2,0,P|198:167|75:116,1,202.500007724762,8|0,0:2|0:0,0:0:0:0:
55,186,27189,6,0,P|41:119|-13:37,1,135.000005149842,4|0,1:2|0:2,0:0:0:0:
194,13,27777,1,8,0:2:0:0:
163,26,28072,1,0,0:2:0:0:
260,120,28366,1,0,1:2:0:0:
345,20,28660,1,0,1:2:0:0:
401,252,28954,2,0,P|441:173|515:82,1,202.500007724762,8|0,0:2|0:0,0:0:0:0:
471,16,29542,6,0,P|440:39|412:75,3,67.5000025749208,0|0|0|0,1:2|0:0|0:2|0:0,0:0:0:0:
424,146,30130,2,0,P|397:93|340:14,1,135.000005149842,8|0,0:2|0:2,0:0:0:0:
255,147,30719,1,0,1:2:0:0:
269,120,31013,1,0,0:2:0:0:
340,310,31307,2,0,B|310:280|259:279,1,67.5000025749208,8|0,0:2|0:0,0:0:0:0:
182,355,31601,2,0,L|195:288,1,67.5000025749208
13,354,31895,6,0,P|35:296|98:304,1,135.000005149842,4|0,1:2|0:2,0:0:0:0:
49,144,32483,2,0,L|56:211,1,67.5000025749208,8|0,0:2|0:0,0:0:0:0:
74,143,32777,2,0,L|81:210,1,67.5000025749208,0|0,0:2|0:0,0:0:0:0:
169,146,33072,1,0,1:2:0:0:
256,251,33366,1,0,1:2:0:0:
451,159,33660,2,0,P|386:84|346:-20,1,202.500007724762,8|0,0:2|0:0,0:0:0:0:
453,0,34248,5,0,1:2:0:0:
442,29,34542,1,0,0:2:0:0:
205,35,34836,2,0,P|262:57|314:118,1,135.000005149842,8|0,0:2|0:2,0:0:0:0:
224,218,35425,1,0,1:2:0:0:
307,120,35719,1,0,0:2:0:0:
97,183,36013,2,0,P|79:123|19:52,1,135.000005149842,8|0,0:2|0:2,0:0:0:0:
196,5,36601,6,0,L|95:111,1,135.000005149842,4|0,1:2|0:2,0:0:0:0:
225,287,37189,2,0,P|232:254|254:207,1,67.5000025749208,8|0,0:2|0:0,0:0:0:0:
211,319,37483,2,0,P|204:286|182:239,1,67.5000025749208,0|0,0:2|0:0,0:0:0:0:
99,278,37777,1,0,1:2:0:0:
8,178,38072,1,0,1:2:0:0:
157,47,38366,2,0,B|239:74|168:105|261:129,1,135.000005149842,8|0,0:2|0:2,0:0:0:0:
379,196,38954,6,0,L|357:129,3,67.5000025749208,0|0|0|0,1:2|0:0|0:2|0:0,0:0:0:0:
305,57,39542,2,0,P|358:25|439:2,1,135.000005149842,8|0,0:2|0:2,0:0:0:0:
507,113,40130,1,0,1:2:0:0:
492,140,40425,1,0,0:2:0:0:
275,172,40719,1,8,0:2:0:0:
348,287,41013,1,0,0:2:0:0:
171,364,41307,5,4,1:2:0:0:
143,332,41601,1,0,0:2:0:0:
321,221,41895,2,0,P|405:186|477:224,1,135.000005149842,8|0,0:2|0:2,0:0:0:0:
173,135,42483,1,0,1:2:0:0:
79,101,42777,1,0,1:2:0:0:
303,137,43072,2,0,B|319:59|259:91|280:-1,1,135.000005149842,8|0,0:2|0:2,0:0:0:0:
225,222,43660,5,4,1:2:0:0:
287,317,43954,1,0,0:2:0:0:
270,334,44101,1,0,0:0:0:0:
261,354,44248,2,0,P|344:359|381:306,1,135.000005149842,8|0,0:2|0:2,0:0:0:0:
221,238,44836,2,0,B|104:212|151:303|17:268,1,202.500007724762,0|0,1:2|0:0,0:0:0:0:
6,190,45425,1,8,0:2:0:0:
81,145,45719,1,0,0:2:0:0:
12,23,46013,6,0,P|81:13|127:58,1,135.000005149842,4|0,1:2|0:2,0:0:0:0:
288,8,46601,1,8,0:2:0:0:
379,151,46895,1,0,0:2:0:0:
414,153,47042,1,0,0:0:0:0:
422,131,47189,1,0,1:2:0:0:
352,56,47483,1,0,1:2:0:0:
272,185,47777,2,0,B|246:310|327:247|293:381,1,202.500007724762,8|0,0:2|0:0,0:0:0:0:
179,369,48366,5,0,1:2:0:0:
195,346,48513,1,0,0:0:0:0:
205,318,48660,2,0,P|176:282|146:287,1,67.5000025749208,0|0,0:2|0:0,0:0:0:0:
52,285,48954,2,0,P|76:355|78:371,1,67.5000025749208,8|0,0:2|0:0,0:0:0:0:
106,181,49248,1,0,0:2:0:0:
26,9,49542,2,0,B|169:21|62:97|213:105,1,202.500007724762,0|0,1:2|0:0,0:0:0:0:
266,61,50130,1,8,0:2:0:0:
297,65,50277,1,0,0:0:0:0:
324,94,50424,1,0,0:2:0:0:
503,74,50719,6,0,P|431:20|374:52,1,135.000005149842,4|0,1:2|0:2,0:0:0:0:
258,164,51307,1,8,0:2:0:0:
384,232,51601,2,0,P|417:222|450:233,1,67.5000025749208,0|0,0:2|0:0,0:0:0:0:
487,303,51895,1,0,1:2:0:0:
358,325,52189,1,0,1:2:0:0:
228,246,52483,2,0,P|171:276|172:341,1,135.000005149842,8|0,0:2|0:2,0:0:0:0:
76,170,53072,5,0,1:2:0:0:
60,153,53219,1,0,0:0:0:0:
32,149,53366,2,0,P|14:171|17:221,1,67.5000025749208,0|0,0:2|0:0,0:0:0:0:
72,256,53660,1,8,0:2:0:0:
155,163,53954,1,0,0:2:0:0:
67,45,54248,2,0,P|133:25|179:67,1,135.000005149842,0|0,1:2|0:2,0:0:0:0:
300,131,54836,1,8,0:2:0:0:
365,65,55130,1,0,0:2:0:0:
498,142,55424,5,4,1:2:0:0:
443,27,55719,1,0,0:2:0:0:
346,194,56013,2,0,P|330:253|371:317,1,135.000005149842,8|0,0:2|0:2,0:0:0:0:
437,358,56454,1,0,0:0:0:0:
448,363,56601,1,0,1:2:0:0:
422,239,56895,1,0,1:2:0:0:
228,353,57189,2,0,P|138:332|26:307,1,202.500007724762,8|0,0:2|0:0,0:0:0:0:
37,234,57777,6,0,P|46:216|106:211,3,67.5000025749208,0|0|0|0,1:2|0:0|0:2|0:0,0:0:0:0:
169,240,58366,1,8,0:2:0:0:
127,100,58660,2,0,P|108:55|110:17,1,67.5000025749208,0|0,0:2|0:0,0:0:0:0:
218,99,58954,2,0,P|264:48|326:7,1,135.000005149842,0|0,1:2|0:2,0:0:0:0:
485,85,59542,1,8,0:2:0:0:
441,118,59836,1,0,0:2:0:0:
415,325,60130,6,0,P|390:262|363:200,1,135.000005149842,4|0,1:2|0:2,0:0:0:0:
492,266,60719,1,8,0:2:0:0:
353,376,61013,1,0,0:2:0:0:
167,299,61307,1,0,1:2:0:0:
63,374,61601,2,0,P|51:290|17:96,1,270.000010299683,0|0,1:2|0:2,0:0:0:0:
117,12,62483,5,0,1:2:0:0:
174,93,62777,1,0,0:2:0:0:
47,131,63072,1,8,0:2:0:0:
0,47,63366,1,0,0:2:0:0:
24,38,63513,1,0,0:0:0:0:
48,39,63660,1,0,1:2:0:0:
133,170,63954,1,0,0:2:0:0:
291,103,64248,2,0,P|356:92|434:81,1,135.000005149842,8|0,0:2|0:2,0:0:0:0:
201,22,64836,5,4,1:2:0:0:
285,112,65130,1,0,0:2:0:0:
105,251,65424,2,0,P|92:311|141:377,1,135.000005149842,8|0,0:2|0:2,0:0:0:0:
317,287,66013,1,0,1:2:0:0:
400,378,66307,1,0,1:2:0:0:
498,227,66601,2,0,P|438:230|405:299,1,135.000005149842,8|0,0:2|0:2,0:0:0:0:
419,299,67042,1,0,0:0:0:0:
437,298,67189,5,0,1:2:0:0:
326,222,67483,1,0,0:2:0:0:
196,350,67777,1,8,0:2:0:0:
320,312,68072,1,0,0:2:0:0:
181,193,68366,2,0,B|55:207|160:264|7:282,1,202.500007724762,0|0,1:2|0:0,0:0:0:0:
12,201,68954,1,8,0:2:0:0:
74,346,69248,1,0,0:2:0:0:
211,272,69542,6,0,P|294:253|329:315,1,135.000005149842,4|0,1:2|0:2,0:0:0:0:
438,364,70130,1,8,0:2:0:0:
502,286,70425,1,0,0:2:0:0:
390,194,70719,1,0,1:2:0:0:
442,56,71013,1,0,1:2:0:0:
435,35,71160,1,0,0:0:0:0:
413,21,71307,2,0,P|352:51|352:119,1,135.000005149842,8|0,0:2|0:2,0:0:0:0:
165,41,71895,5,4,1:2:0:0:
100,92,72189,1,0,0:2:0:0:
0,14,72483,1,8,0:2:0:0:
0,166,72777,1,0,0:2:0:0:
3,192,72924,1,0,0:0:0:0:
20,205,73072,2,0,P|103:175|292:133,1,270.000010299683,0|8,1:2|0:2,0:0:0:0:
358,194,74248,6,0,P|308:247|255:220,1,135.000005149842,4|0,1:2|0:2,0:0:0:0:
108,30,74836,1,8,0:2:0:0:
186,105,75130,1,0,0:2:0:0:
202,134,75277,1,0,0:0:0:0:
182,156,75424,2,0,B|44:115|129:240|-27:189,1,202.500007724762,0|0,1:2|0:0,0:0:0:0:
22,106,76013,2,0,P|59:53|141:66,1,135.000005149842,8|0,0:2|0:2,0:0:0:0:
208,77,76454,1,0,0:0:0:0:
224,69,76601,6,0,P|288:41|370:17,1,135.000005149842,0|0,1:2|0:2,0:0:0:0:
485,105,77189,1,8,0:2:0:0:
404,168,77483,1,0,0:2:0:0:
481,296,77777,2,0,P|438:364|375:339,1,135.000005149842,0|0,1:2|0:2,0:0:0:0:
270,351,78366,2,0,P|258:341|202:326,2,67.5000025749208,8|0|0,0:2|0:0|0:2,0:0:0:0:
271,336,78954,6,0,P|210:344|120:361,1,135.000005149842,4|0,1:2|0:2,0:0:0:0:
182,174,79444,1,0,0:0:0:0:
188,186,79542,2,0,P|184:216|126:263,1,90.0000034332277,8|0,0:2|0:0,0:0:0:0:
134,266,79836,2,0,P|89:250|26:263,1,90.0000034332277,0|0,0:2|0:0,0:0:0:0:
0,319,80130,1,0,1:2:0:0:
0,170,80326,1,0,0:0:0:0:
10,166,80424,2,0,P|64:176|127:162,1,90.0000034332277,0|0,1:2|0:0,0:0:0:0:
106,163,80719,2,0,P|123:108|186:33,2,135.000005149842,8|0|0,0:2|0:2|1:2,0:0:0:0:
106,163,81454,5,0,0:0:0:0:
0,36,81601,2,0,B|40:38|72:58|26:74|122:94,1,135.000005149842,0|8,0:2|0:2,0:0:0:0:
234,107,82042,1,0,0:0:0:0:
281,3,82189,1,0,0:2:0:0:
232,114,82336,1,0,0:0:0:0:
273,0,82483,2,0,P|224:18|95:15,2,135.000005149842,0|0|8,1:2|0:2|0:2,0:0:0:0:
285,187,83366,1,0,0:2:0:0:
501,12,83660,2,0,B|434:26|434:26|431:30|431:30|356:45,1,135.000005149842,0|0,1:2|0:2,0:0:0:0:
184,110,84248,6,0,B|257:97|257:97|314:120,1,135.000005149842,8|0,0:2|0:2,0:0:0:0:
261,206,84689,1,0,0:0:0:0:
259,220,84836,2,0,L|249:315,1,67.5000025749208,0|0,1:2|0:0,0:0:0:0:
350,255,85130,2,0,L|358:323,1,67.5000025749208,0|0,1:2|0:0,0:0:0:0:
160,248,85424,2,0,L|172:101,1,135.000005149842,8|0,0:2|0:2,0:0:0:0:
184,15,85866,1,0,0:0:0:0:
0,117,86013,6,0,P|9:139|57:136,1,67.5000025749208,0|0,1:2|0:0,0:0:0:0:
9,35,86307,2,0,P|20:120|27:266,1,202.500007724762,0|0,0:2|0:0,0:0:0:0:
26,236,86895,1,0,0:2:0:0:
232,179,87189,1,0,1:2:0:0:
119,384,87483,1,0,0:2:0:0:
119,384,87630,1,0,0:0:0:0:
207,373,87777,2,0,P|257:388|291:320,1,135.000005149842,8|0,0:2|0:2,0:0:0:0:
509,161,88366,6,0,B|396:141|451:249|303:259,1,202.500007724762,4|0,1:2|0:0,0:0:0:0:
384,187,88954,2,0,P|423:198|472:226,1,67.5000025749208,8|0,0:2|0:0,0:0:0:0:
501,312,89248,1,0,0:2:0:0:
501,312,89395,1,0,0:0:0:0:
338,384,89542,2,0,P|371:357|412:369,1,67.5000025749208,0|0,1:2|0:0,0:0:0:0:
285,227,89836,2,0,P|307:250|340:252,1,67.5000025749208,0|0,1:2|0:0,0:0:0:0:
248,345,90130,1,8,0:2:0:0:
248,345,90424,1,0,0:2:0:0:
127,170,90719,5,0,1:2:0:0:
210,110,90866,6,0,L|234:71,1,33.7500012874604
216,61,91013,6,0,L|220:141,1,67.5000025749208,0|0,0:2|0:0,0:0:0:0:
155,17,91307,6,0,L|316:45,1,135.000005149842,8|0,0:2|0:2,0:0:0:0:
377,20,91748,1,0,0:0:0:0:
499,103,91895,2,0,P|462:98|432:72,1,67.5000025749208,0|0,1:2|0:0,0:0:0:0:
301,149,92189,2,0,P|338:129|395:130,1,67.5000025749208
491,248,92483,1,8,0:2:0:0:
478,234,92630,2,0,B|426:241|431:284|327:297|286:223,1,202.500007724762,0|0,0:0|1:2,0:0:0:0:
294,236,93366,6,0,P|249:212|204:237,1,67.5000025749208,0|0,0:2|0:0,0:0:0:0:
125,270,93659,2,0,P|126:228|96:130,2,135.000005149842,8|0|0,0:0|0:0|1:0,0:0:0:0:
66,69,94542,1,0,1:2:0:0:
66,69,94689,1,0,0:0:0:0:
11,162,94836,2,0,L|22:256,1,90.0000034332277,8|0,0:2|0:0,0:0:0:0:
24,265,95130,1,0,0:2:0:0:
214,376,95424,6,0,L|124:384,2,90.0000034332277,0|0|0,1:0|0:0|0:0,0:0:0:0:
46,342,96012,2,0,B|63:311|63:311|174:300,1,135.000005149842,8|0,0:2|0:2,0:0:0:0:
246,297,96454,1,0,0:0:0:0:
217,154,96601,2,0,L|199:245,1,67.5000025749208,0|0,1:2|0:0,0:0:0:0:
106,156,96895,2,0,L|92:89,1,67.5000025749208,0|0,0:2|0:0,0:0:0:0:
314,246,97189,2,0,L|361:35,1,202.500007724762,8|0,0:2|0:0,0:0:0:0:
369,51,97777,6,0,L|324:248,1,202.500007724762,4|0,1:2|0:0,0:0:0:0:
301,138,98366,1,8,0:2:0:0:
438,112,98513,1,0,0:0:0:0:
486,10,98660,1,0,0:2:0:0:
446,121,98807,1,0,0:0:0:0:
379,0,98954,2,0,P|360:20|300:13,1,67.5000025749208,0|0,1:2|0:0,0:0:0:0:
503,146,99248,2,0,P|478:123|445:120,1,67.5000025749208,0|0,1:2|0:0,0:0:0:0:
457,342,99542,2,0,P|451:251|429:169,2,135.000005149842,8|0|0,0:2|0:2|1:2,0:0:0:0:
457,342,100277,5,0,0:0:0:0:
265,376,100424,2,0,B|289:350|289:350|337:360,1,67.5000025749208,0|0,0:2|0:0,0:0:0:0:
231,277,100719,2,0,B|261:361|261:361|327:401,2,135.000005149842,8|0|0,0:2|0:2|1:2,0:0:0:0:
231,277,101454,1,0,0:0:0:0:
49,236,101601,1,0,0:0:0:0:
49,236,101748,2,0,L|39:320,2,67.5000025749208,0|8|0,0:0|0:0|0:0,0:0:0:0:
13,156,102189,1,0,0:2:0:0:
215,185,102483,1,0,1:2:0:0:
93,378,102679,6,0,P|128:358|126:280,1,112.500004291535,0|0,0:2|0:0,0:0:0:0:
112,163,103072,1,8,0:2:0:0:
132,384,103219,2,0,P|129:291|113:185,1,135.000005149842
112,163,103660,2,0,P|89:127|101:87,1,67.5000025749208,0|0,1:2|0:0,0:0:0:0:
202,1,103954,2,0,P|222:26|222:60,1,67.5000025749208,0|0,1:2|0:0,0:0:0:0:
98,7,104248,1,8,0:2:0:0:
98,7,104542,1,0,0:2:0:0:
32,115,104689,1,0,0:0:0:0:
32,115,104836,6,0,B|95:124|95:124|109:148|109:148|178:156,1,135.000005149842,0|0,1:2|0:2,0:0:0:0:
257,176,105277,1,0,0:0:0:0:
152,76,105424,2,0,B|89:85|89:85|75:109|75:109|6:117,1,135.000005149842,8|0,0:2|0:2,0:0:0:0:
76,0,105866,1,0,0:0:0:0:
241,73,106013,2,0,P|259:43|267:-8,1,67.5000025749208,0|0,1:2|0:0,0:0:0:0:
405,54,106307,1,0,0:2:0:0:
409,71,106454,1,0,0:0:0:0:
507,3,106601,6,0,B|344:-8|512:162|301:119,1,270.000010299683,10|4,0:2|1:2,0:0:0:0:
76,340,111307,5,8,0:2:0:0:
16,55,111895,5,4,1:2:0:0:
26,67,112042,1,0,0:0:0:0:
38,67,112189,1,0,0:2:0:0:
8,239,112483,1,8,0:2:0:0:
0,230,112630,2,0,P|37:192|123:219,1,135.000005149842
187,239,113072,1,0,1:2:0:0:
201,238,113219,1,0,0:0:0:0:
212,223,113366,1,0,1:2:0:0:
246,102,113660,2,0,P|238:67|203:37,1,67.5000025749208,8|0,0:2|0:0,0:0:0:0:
144,27,113954,1,0,0:2:0:0:
144,27,114248,6,0,L|358:-1,1,202.500007724762,0|0,1:2|0:0,0:0:0:0:
401,131,114836,1,8,0:2:0:0:
444,50,114983,2,0,L|427:140,1,67.5000025749208,0|0,0:0|0:2,0:0:0:0:
510,207,115277,1,0,0:0:0:0:
506,217,115424,2,0,B|381:202|452:315|280:281,1,202.500007724762,0|0,1:2|0:0,0:0:0:0:
265,349,116013,1,8,0:2:0:0:
244,337,116160,1,0,0:0:0:0:
295,213,116307,2,0,L|306:133,1,67.5000025749208,0|0,0:2|0:0,0:0:0:0:
214,58,116601,6,0,L|184:272,1,202.500007724762,0|0,1:2|0:0,0:0:0:0:
128,316,117189,2,0,B|31:306|89:358|-24:338,1,135.000005149842,8|0,0:2|0:2,0:0:0:0:
40,243,117630,1,0,0:0:0:0:
3,115,117777,2,0,B|65:125|65:125|71:137|71:137|156:150,2,135.000005149842,0|0|8,1:2|1:2|0:2,0:0:0:0:
129,145,118660,1,0,0:2:0:0:
137,134,118807,1,0,0:0:0:0:
44,22,118954,6,0,L|224:9,1,135.000005149842,0|0,1:2|0:2,0:0:0:0:
243,73,119395,1,0,0:0:0:0:
186,233,119542,2,0,L|347:213,1,135.000005149842,8|0,0:2|0:2,0:0:0:0:
384,273,119983,1,0,0:0:0:0:
296,363,120130,5,0,1:2:0:0:
301,356,120277,1,0,0:0:0:0:
218,310,120424,1,0,0:2:0:0:
223,319,120572,1,0,0:0:0:0:
145,371,120719,1,8,0:2:0:0:
148,361,120866,1,0,0:0:0:0:
58,338,121013,2,0,L|74:261,1,67.5000025749208,0|0,0:2|0:0,0:0:0:0:
176,150,121307,6,0,L|146:296,1,135.000005149842,4|0,1:2|0:2,0:0:0:0:
173,153,121895,1,8,0:2:0:0:
167,143,122042,1,0,0:0:0:0:
249,40,122189,1,0,0:2:0:0:
249,40,122483,2,0,P|284:104|354:136,1,135.000005149842,0|0,1:2|1:2,0:0:0:0:
502,244,123072,2,0,P|467:241|424:230,1,67.5000025749208,8|0,0:2|0:0,0:0:0:0:
382,295,123366,1,0,0:2:0:0:
382,295,123513,1,0,0:0:0:0:
382,295,123660,6,0,L|408:147,2,135.000005149842,0|0|8,1:2|0:2|0:2,0:0:0:0:
228,301,124542,2,0,P|251:273|299:252,1,67.5000025749208,0|0,0:2|0:0,0:0:0:0:
212,377,124836,2,0,L|163:215,1,135.000005149842,0|0,1:2|0:2,0:0:0:0:
504,325,125424,2,0,B|419:324|469:385|364:375,2,135.000005149842,8|0|0,0:2|0:2|1:2,0:0:0:0:
418,51,126454,5,0,0:0:0:0:
508,147,126601,1,8,0:2:0:0:
498,165,126748,1,0,0:0:0:0:
432,223,126895,1,0,0:2:0:0:
448,243,127042,1,0,0:0:0:0:
361,301,127189,1,0,1:2:0:0:
345,288,127336,1,0,0:0:0:0:
326,280,127483,1,0,1:2:0:0:
311,275,127630,1,0,0:0:0:0:
246,335,127777,2,0,L|89:372,1,135.000005149842,8|0,0:2|0:2,0:0:0:0:
52,311,128219,1,0,0:0:0:0:
147,142,128366,6,0,L|126:289,2,135.000005149842,0|0|8,1:2|0:2|0:2,0:0:0:0:
331,170,129248,1,0,0:2:0:0:
312,147,129395,1,0,0:0:0:0:
308,118,129542,2,0,L|383:110,1,67.5000025749208,0|0,1:2|0:0,0:0:0:0:
511,246,129836,2,0,B|420:233|420:233|369:237,2,135.000005149842,0|8|0,0:2|0:2|0:2,0:0:0:0:
467,47,130719,5,4,1:2:0:0:
486,65,130866,1,0,0:0:0:0:
506,71,131013,1,0,0:2:0:0:
451,146,131160,1,0,0:0:0:0:
343,24,131307,2,0,L|163:11,1,135.000005149842,8|0,0:2|0:2,0:0:0:0:
144,75,131748,1,0,0:0:0:0:
206,187,131895,2,0,L|39:174,1,135.000005149842,0|0,1:2|1:2,0:0:0:0:
243,112,132483,2,0,L|322:119,1,67.5000025749208,8|0,0:2|0:0,0:0:0:0:
226,272,132777,2,0,L|137:266,1,67.5000025749208,0|0,0:2|0:0,0:0:0:0:
86,353,133072,5,0,1:2:0:0:
71,343,133219,1,0,0:0:0:0:
57,326,133366,2,0,L|53:249,1,67.5000025749208,0|0,0:2|0:0,0:0:0:0:
271,356,133660,1,8,0:2:0:0:
266,209,133954,2,0,P|297:196|337:189,1,67.5000025749208,0|0,0:2|0:0,0:0:0:0:
454,264,134248,2,0,P|423:251|383:244,1,67.5000025749208,0|0,1:2|0:0,0:0:0:0:
244,134,134542,1,0,0:2:0:0:
244,134,134836,2,0,L|216:302,1,135.000005149842,8|0,0:2|0:2,0:0:0:0:
131,53,135424,5,0,1:2:0:0:
144,64,135572,1,0,0:0:0:0:
156,85,135719,2,0,L|132:233,2,135.000005149842,0|8|0,0:2|0:2|0:2,0:0:0:0:
238,39,136454,1,0,0:0:0:0:
359,77,136601,2,0,L|425:64,1,67.5000025749208,0|0,1:2|0:0,0:0:0:0:
512,136,136895,2,0,B|411:132|488:187|350:185,2,135.000005149842,0|8|0,1:2|0:2|0:2,0:0:0:0:
512,237,137630,1,0,0:0:0:0:
511,326,137777,6,0,L|377:349,1,135.000005149842,0|0,1:2|0:2,0:0:0:0:
169,241,138365,2,0,L|307:217,1,135.000005149842,8|0,0:2|0:0,0:0:0:0:
390,72,138954,1,0,1:2:0:0:
295,92,139248,1,0,0:2:0:0:
295,92,139395,1,0,0:0:0:0:
295,92,139542,2,0,L|217:103,1,67.5000025749208,8|0,0:2|0:2,0:0:0:0:
177,20,139836,2,0,L|255:9,1,67.5000025749208,0|0,0:2|0:2,0:0:0:0:
8,21,140130,6,0,P|60:6|86:77,1,135.000005149842,4|0,1:2|0:2,0:0:0:0:
8,142,140572,1,0,0:0:0:0:
21,157,140719,2,0,L|3:230,1,67.5000025749208,8|0,0:2|0:0,0:0:0:0:
105,141,141013,1,0,0:2:0:0:
156,323,141307,2,0,P|154:259|81:228,1,135.000005149842,0|0,1:2|1:2,0:0:0:0:
305,364,141895,2,0,B|455:360|338:295|491:292,1,202.500007724762,8|0,0:2|0:0,0:0:0:0:
505,372,142483,5,4,1:2:0:0:
336,268,142777,2,0,P|282:263|263:281,1,67.5000025749208,0|0,0:2|0:0,0:0:0:0:
252,351,143072,2,0,B|318:365|318:365|388:335,1,135.000005149842,8|0,0:2|0:2,0:0:0:0:
472,360,143513,1,0,0:0:0:0:
460,341,143660,2,0,B|477:200|477:200|512:145,1,202.500007724762,0|0,1:2|0:0,0:0:0:0:
354,25,144248,2,0,P|376:92|449:87,1,135.000005149842,8|0,0:2|0:2,0:0:0:0:
183,96,144836,6,0,L|33:77,1,135.000005149842,4|0,1:2|0:2,0:0:0:0:
263,30,145277,1,0,0:0:0:0:
256,42,145424,2,0,B|276:72|276:72|266:121,1,67.5000025749208,8|0,0:2|0:0,0:0:0:0:
213,188,145719,2,0,B|206:218|206:218|226:248,1,67.5000025749208,0|0,0:2|0:0,0:0:0:0:
283,365,146013,1,0,1:2:0:0:
441,303,146307,1,0,1:2:0:0:
358,136,146601,2,0,P|346:92|340:55,1,67.5000025749208,8|0,0:2|0:0,0:0:0:0:
400,13,146895,1,0,0:2:0:0:
214,94,147189,6,0,P|112:60|3:32,1,202.500007724762,0|0,1:2|0:0,0:0:0:0:
45,120,147777,1,8,0:2:0:0:
19,144,148072,1,0,0:2:0:0:
188,235,148366,2,0,P|219:329|236:387,1,135.000005149842,0|0,1:2|0:2,0:0:0:0:
42,347,148954,2,0,B|52:316|52:316|95:292,1,67.5000025749208,8|0,0:2|0:0,0:0:0:0:
25,238,149248,1,0,0:2:0:0:
229,262,149542,6,0,B|115:226|115:226|110:174|57:153,1,202.500007724762,4|0,1:2|0:0,0:0:0:0:
25,238,150130,1,8,0:2:0:0:
167,130,150424,1,0,0:2:0:0:
151,103,150572,1,0,0:0:0:0:
175,54,150719,1,0,1:2:0:0:
61,23,151013,1,0,1:2:0:0:
3,163,151307,2,0,P|18:220|97:222,1,135.000005149842,8|0,0:2|0:2,0:0:0:0:
161,270,151748,1,0,0:0:0:0:
148,303,151895,6,0,P|106:321|56:311,3,67.5000025749208,0|0|0|0,1:2|0:0|0:2|0:0,0:0:0:0:
2,274,152483,1,8,0:2:0:0:
83,139,152777,1,0,0:2:0:0:
247,261,153072,2,0,P|234:331|306:373,1,135.000005149842,0|0,1:2|0:2,0:0:0:0:
352,323,153513,1,0,0:0:0:0:
367,308,153660,2,0,P|419:311|450:320,1,67.5000025749208,8|0,0:2|0:0,0:0:0:0:
504,168,153954,2,0,P|450:183|430:186,1,67.5000025749208,0|0,0:2|0:0,0:0:0:0:
347,29,154248,6,0,P|431:33|509:41,1,135.000005149842,4|0,1:2|0:2,0:0:0:0:
511,5,154836,1,8,0:2:0:0:
440,119,155130,1,0,0:2:0:0:
308,73,155424,2,0,P|258:21|190:39,1,135.000005149842,0|0,1:2|1:2,0:0:0:0:
70,133,156013,1,8,0:2:0:0:
43,120,156160,1,0,0:0:0:0:
25,77,156307,2,0,P|47:34|84:26,1,67.5000025749208,0|0,0:2|0:0,0:0:0:0:
165,98,156601,6,0,P|184:190|202:276,1,135.000005149842,0|0,1:2|0:2,0:0:0:0:
94,365,157189,1,8,0:2:0:0:
40,284,157483,1,0,0:2:0:0:
59,269,157630,1,0,0:0:0:0:
64,231,157777,2,0,P|109:215|130:254,1,67.5000025749208,0|0,1:2|0:0,0:0:0:0:
210,326,158072,1,0,0:2:0:0:
205,345,158219,1,0,0:0:0:0:
294,328,158366,1,12,0:2:0:0:
253,216,158660,1,0,0:2:0:0:
403,63,158954,6,0,P|389:129|365:226,1,148.500001416206,4|0,1:2|0:2,0:0:0:0:
496,212,159395,1,0,0:0:0:0:
511,228,159542,2,0,B|421:234|478:285|374:291,1,148.500001416206,8|0,0:2|0:2,0:0:0:0:
239,192,160130,1,0,1:2:0:0:
301,283,160424,2,0,P|262:283|216:317,1,74.2500007081032,0|0,1:2|0:0,0:0:0:0:
119,378,160718,2,0,L|83:221,2,148.500001416206,8|0|0,0:2|0:2|1:2,0:0:0:0:
8,175,161601,5,0,0:2:0:0:
36,151,161748,1,0,0:0:0:0:
3,66,161895,2,0,B|66:29|66:29|159:41,1,148.500001416206,8|0,0:2|0:2,0:0:0:0:
234,74,162336,1,0,0:0:0:0:
226,78,162483,2,0,L|206:160,1,74.2500007081032,0|0,1:2|0:0,0:0:0:0:
294,184,162777,2,0,B|201:175|249:241|125:219,2,148.500001416206,0|8|0,0:2|0:2|0:2,0:0:0:0:
255,341,163659,6,0,P|302:281|378:333,1,148.500001416206,4|0,1:2|0:2,0:0:0:0:
466,331,164101,1,0,0:0:0:0:
452,319,164248,2,0,L|489:151,1,148.500001416206,8|0,0:2|0:2,0:0:0:0:
332,18,164836,2,0,B|364:-3|364:-3|415:6,1,74.2500007081032,0|0,1:2|0:0,0:0:0:0:
343,106,165130,2,0,B|385:111|385:111|411:92,1,74.2500007081032,0|0,1:2|0:0,0:0:0:0:
259,145,165424,2,0,L|94:99,1,148.500001416206,8|0,0:2|0:2,0:0:0:0:
5,177,166012,5,0,1:2:0:0:
10,186,166159,1,0,0:0:0:0:
87,222,166307,1,0,0:2:0:0:
93,214,166454,1,0,0:0:0:0:
28,384,166601,2,0,B|2:355|2:355|3:303,1,74.2500007081032,8|0,0:2|0:0,0:0:0:0:
113,359,166895,2,0,B|111:316|111:316|89:293,1,74.2500007081032,0|0,2:2|0:0,0:0:0:0:
221,268,167189,2,0,L|257:114,1,148.500001416206,0|0,1:2|0:2,0:0:0:0:
369,260,167777,2,0,P|302:293|274:371,1,148.500001416206,8|0,0:2|0:2,0:0:0:0:
453,216,168365,6,0,B|395:170|395:170|309:191,1,148.500001416206,4|0,1:2|0:2,0:0:0:0:
379,93,168807,1,0,0:0:0:0:
360,82,168954,2,0,L|510:42,1,148.500001416206,8|0,0:2|0:2,0:0:0:0:
234,11,169542,2,0,B|236:79|246:105|260:128|272:156,1,148.500001416206,0|0,1:2|1:0,0:0:0:0:
230,243,169983,1,0,0:0:0:0:
243,235,170130,2,0,B|247:84|196:167|203:14,1,222.75000212431,8|0,0:2|0:0,0:0:0:0:
96,42,170718,5,4,1:2:0:0:
113,41,170865,1,0,0:0:0:0:
165,110,171012,1,0,0:2:0:0:
0,263,171307,2,0,L|143:301,1,148.500001416206,8|0,0:2|0:2,0:0:0:0:
243,330,171748,1,0,0:0:0:0:
228,324,171895,2,0,P|321:283|458:264,1,222.75000212431,0|0,1:2|0:0,0:0:0:0:
386,185,172483,1,8,0:2:0:0:
104,163,173071,6,0,B|154:148|154:148|190:154|190:154|250:131,1,148.500001416206,4|0,1:2|0:2,0:0:0:0:
51,29,173659,2,0,P|113:52|172:125,1,148.500001416206,8|0,0:2|0:2,0:0:0:0:
38,209,174248,1,0,1:2:0:0:
131,315,174542,1,0,1:2:0:0:
125,325,174689,1,0,0:0:0:0:
304,260,174836,2,0,L|147:223,2,148.500001416206,8|0|0,0:2|0:2|1:2,0:0:0:0:
446,349,175865,5,0,0:0:0:0:
465,336,176012,2,0,B|440:154|364:269|343:32,2,297.000002832413,8|0|8,0:2|1:2|0:2,0:0:0:0:
147,125,177483,5,0,3:2:0:0:
142,132,177581,5,0,3:0:0:0:
139,141,177679,5,0,3:0:0:0:
139,151,177777,6,0,P|204:158|252:114,1,135.000005149842,4|0,1:2|0:2,0:0:0:0:
251,113,178365,2,0,P|234:71|226:27,1,90,8|0,0:2|0:2,0:0:0:0:
322,142,178807,1,0,3:0:0:0:
248,229,178954,6,0,P|241:250|234:272,2,45,0|0|0,1:2|0:0|1:2,0:0:0:0:
240,223,179395,1,0,3:0:0:0:
330,279,179542,2,0,B|380:295|358:307|406:323,1,90,8|0,0:2|0:2,0:0:0:0:
423,320,179983,1,0,3:0:0:0:
292,370,180130,1,0,1:2:0:0:
295,360,180424,5,0,3:2:0:0:
233,219,180718,1,8,0:2:0:0:
388,100,181012,5,0,0:2:0:0:
384,108,181159,1,0,3:0:0:0:
312,133,181307,1,0,1:2:0:0:
314,141,181454,1,0,3:0:0:0:
319,148,181601,1,0,3:2:0:0:
335,220,181748,1,0,3:0:0:0:
331,228,181895,1,8,0:2:0:0:
184,111,182189,5,0,3:2:0:0:
184,111,182287,5,0,3:0:0:0:
184,111,182385,5,0,3:0:0:0:
184,111,182483,5,0,1:2:0:0:
96,128,182777,5,0,0:2:0:0:
56,209,183071,6,0,P|100:236|139:239,1,90,8|0,0:2|0:2,0:0:0:0:
195,193,183512,1,0,3:0:0:0:
153,352,183659,5,0,1:0:0:0:
214,308,183807,1,0,3:0:0:0:
224,315,183954,1,0,3:0:0:0:
286,353,184101,1,0,3:0:0:0:
412,252,184248,6,0,B|406:268|406:268|327:242,1,90,8|0,0:2|0:2,0:0:0:0:
269,219,184689,1,0,3:0:0:0:
386,151,184836,5,0,1:2:0:0:
383,158,184983,1,0,3:0:0:0:
378,150,185130,1,0,3:2:0:0:
389,155,185277,1,0,3:0:0:0:
309,123,185424,6,0,L|213:94,1,90,8|0,0:2|0:2,0:0:0:0:
181,30,185865,1,0,3:0:0:0:
133,151,186012,6,0,L|37:180,1,90,0|0,1:2|0:2,0:0:0:0:
5,244,186453,1,0,3:0:0:0:
97,74,186601,5,8,3:2:0:0:
212,177,186895,1,0,3:2:0:0:
163,276,187189,6,0,B|128:277|103:311|103:311|120:247|177:230|214:238|271:277|272:337|369:350|455:281|572:227|363:-8|217:97|248:233|220:260|300:349|369:359|454:335|502:268|456:166,2,810.000030899049,4|8|0,1:2|0:2|1:2,0:0:0:0:
438,159,191307,1,8,0:2:0:0:
176,123,191601,1,0,3:2:0:0:
172,116,191748,1,0,3:0:0:0:
175,108,191895,6,0,P|304:146|438:159,1,270.000010299683,0|8,1:2|0:2,0:0:0:0:
104,311,192777,2,0,P|233:272|367:259,1,270.000010299683,0|0,0:2|1:2,0:0:0:0:
104,311,193659,1,8,0:2:0:0:
254,15,194248,1,0,1:2:0:0:
261,21,194542,1,0,3:2:0:0:
175,108,194836,6,0,B|94:183|-17:100|55:-17|123:50,1,270.000010299683,8|0,0:2|0:2,0:0:0:0:
257,148,195424,1,0,1:2:0:0:
401,45,195718,5,0,3:2:0:0:
398,53,195816,1,0,3:0:0:0:
394,61,195914,1,0,3:0:0:0:
370,83,196012,5,8,3:2:0:0:
370,91,196110,1,0,3:0:0:0:
371,100,196209,1,0,3:0:0:0:
387,125,196307,5,0,3:2:0:0:
322,219,196601,6,0,B|262:246|262:246|220:296|220:296|155:327,1,202.500007724762,4|0,1:2|0:0,0:0:0:0:
150,334,197189,1,8,0:2:0:0:
85,154,197483,2,0,B|77:134|54:120|54:120|99:130|110:183,1,135.000005149842,0|0,0:2|1:2,0:0:0:0:
109,253,198071,1,0,1:2:0:0:
155,71,198365,2,0,B|182:133|131:168|133:152|84:184|108:252,1,202.500007724762,8|0,0:2|0:0,0:0:0:0:
115,269,198954,5,0,1:2:0:0:
230,322,199101,1,0,0:0:0:0:
241,312,199248,2,0,L|151:327,1,67.5000025749208,0|0,0:2|0:0,0:0:0:0:
207,187,199542,2,0,P|233:128|219:35,1,135.000005149842,8|0,0:2|0:2,0:0:0:0:
213,47,199983,1,0,0:0:0:0:
333,111,200130,2,0,P|329:68|315:18,1,67.5000025749208,0|0,1:2|0:0,0:0:0:0:
426,192,200424,2,0,P|433:159|436:125,1,67.5000025749208,0|0,0:2|0:0,0:0:0:0:
273,228,200718,2,0,B|322:202|379:230|357:257|409:288|463:262,1,202.500007724762,8|0,0:2|0:0,0:0:0:0:
458,263,201307,5,0,1:2:0:0:
385,384,201601,2,0,L|376:294,1,67.5000025749208,0|0,0:2|0:0,0:0:0:0:
197,254,201895,2,0,P|254:308|329:290,1,135.000005149842,8|0,0:2|0:2,0:0:0:0:
372,241,202336,1,0,0:0:0:0:
267,160,202483,2,0,L|274:239,1,67.5000025749208,0|0,1:2|0:0,0:0:0:0:
365,128,202777,2,0,L|359:60,1,67.5000025749208,0|0,1:2|0:0,0:0:0:0:
141,34,203071,2,0,P|203:43|302:64,1,135.000005149842,8|0,0:2|0:2,0:0:0:0:
274,58,203512,1,0,0:0:0:0:
274,58,203659,5,0,1:2:0:0:
223,231,203954,2,0,L|214:149,1,67.5000025749208,0|0,0:2|0:0,0:0:0:0:
109,267,204248,2,0,B|193:268|141:310|248:311,1,135.000005149842,8|0,0:2|0:2,0:0:0:0:
126,353,204836,5,0,1:2:0:0:
117,344,204983,1,0,0:0:0:0:
103,347,205130,1,0,0:2:0:0:
338,223,205424,5,8,0:2:0:0:
353,218,205571,1,0,0:0:0:0:
361,231,205718,1,0,0:2:0:0:
417,338,206012,6,0,P|461:290|535:223,1,135.000005149842,4|0,1:2|0:2,0:0:0:0:
440,185,206454,1,0,0:0:0:0:
464,43,206601,2,0,P|414:89|368:138,1,135.000005149842,8|0,0:2|0:2,0:0:0:0:
181,39,207189,2,0,B|208:21|208:21|252:27,1,67.5000025749208,0|0,1:2|0:0,0:0:0:0:
201,115,207483,2,0,B|235:120|235:120|261:100,1,67.5000025749208,0|0,1:2|0:0,0:0:0:0:
96,33,207777,2,0,P|115:100|138:193,1,135.000005149842,8|0,0:2|0:2,0:0:0:0:
25,129,208218,1,0,0:0:0:0:
128,279,208365,6,0,B|90:316|100:369|100:369|59:303|79:253,1,202.500007724762,0|0,1:2|0:0,0:0:0:0:
227,324,208954,2,0,L|75:375,1,135.000005149842,8|0,0:2|0:2,0:0:0:0:
239,95,209542,2,0,P|224:163|212:247,1,135.000005149842,0|0,1:2|0:2,0:0:0:0:
19,64,210130,2,0,P|53:71|102:84,1,67.5000025749208,8|0,0:2|0:0,0:0:0:0:
71,154,210424,2,0,P|36:146|-12:134,1,67.5000025749208,0|0,0:2|0:0,0:0:0:0:
199,228,210718,6,0,P|209:161|223:95,1,135.000005149842,0|0,1:2|0:2,0:0:0:0:
294,214,211159,1,0,0:0:0:0:
505,166,211307,2,0,P|448:140|373:183,1,135.000005149842,8|0,0:2|0:2,0:0:0:0:
476,272,211748,2,0,L|452:311,1,33.7500012874604
484,349,211895,2,0,P|465:286|444:204,1,135.000005149842,0|0,1:2|1:2,0:0:0:0:
271,365,212483,1,8,0:2:0:0:
394,334,212777,1,0,0:2:0:0:
44,327,213071,5,0,1:2:0:0:
53,341,213218,1,0,0:0:0:0:
144,259,213512,1,0,0:0:0:0:
136,279,213659,1,0,0:2:0:0:
254,365,213954,2,0,P|277:301|312:216,1,135.000005149842,0|0,0:2|2:2,0:0:0:0:
224,138,214542,1,0,0:2:0:0:
396,27,214836,5,8,0:2:0:0:
336,118,214983,1,0,0:0:0:0:
379,18,215130,1,0,0:2:0:0:
435,332,215424,5,2,1:1:0:0:
442,352,215571,2,0,B|482:328|461:272|388:247|360:309|390:347|350:368|283:362,1,222.75000212431,0|8,0:0|0:2,0:0:0:0:
167,289,216307,2,0,L|157:367,1,74.2500007081032,0|0,0:2|0:0,0:0:0:0:
275,254,216601,2,0,B|283:208|254:183|251:190|208:164|217:112,2,153.000002918243,2|0|8,1:1|1:2|0:2,0:0:0:0:
320,98,217483,2,0,L|310:22,1,74.2500007081032,0|0,0:2|0:0,0:0:0:0:
153,206,217777,6,0,B|77:211|77:211|74:217|74:217|-23:224,2,157.500001502037,2|0|8,1:1|0:2|0:2,0:0:0:0:
185,298,218512,1,0,0:0:0:0:
251,224,218659,2,0,P|294:232|322:259,1,74.2500007081032,0|0,0:2|0:0,0:0:0:0:
219,138,218954,2,0,P|262:127|312:130,1,74.2500007081032,2|0,1:1|0:0,0:0:0:0:
145,75,219248,2,0,P|193:50|226:38,1,74.2500007081032,0|0,0:2|0:0,0:0:0:0:
75,176,219542,1,8,0:2:0:0:
252,307,219836,2,0,L|262:396,1,74.2500007081032
369,380,220130,6,0,B|350:305|405:251|456:249|500:331|441:353,1,222.75000212431,2|0,1:1|0:0,0:0:0:0:
315,251,220718,2,0,P|374:206|447:199,1,148.500001416206,8|0,0:2|0:2,0:0:0:0:
246,60,221307,2,0,P|253:26|283:-2,1,74.2500007081032,0|0,1:2|0:0,0:0:0:0:
321,102,221601,2,0,P|347:76|355:40,1,74.2500007081032,0|0,1:2|0:0,0:0:0:0:
192,129,221895,2,0,B|151:120|125:148|132:151|104:185|44:174,2,148.500001416206,8|0|0,0:2|0:2|1:2,0:0:0:0:
262,185,222630,1,0,0:0:0:0:
262,185,222777,1,0,0:2:0:0:
68,89,223071,6,0,L|54:14,1,74.2500007081032,8|0,0:2|0:0,0:0:0:0:
0,124,223365,2,0,P|77:140|116:202,1,148.500001416206,0|0,0:2|1:2,0:0:0:0:
10,291,223807,2,0,L|22:215,1,74.2500007081032,0|0,0:0|0:2,0:0:0:0:
72,345,224101,1,0,0:0:0:0:
196,257,224248,1,8,0:2:0:0:
196,257,224395,2,0,P|146:270|112:284,2,74.2500007081032,0|0|0,0:0|0:2|0:0,0:0:0:0:
328,384,224836,6,0,B|357:400|397:380|415:336|384:281|296:283|285:314|285:314|243:324|243:324|232:349|190:359,1,297.000002832413,2|8,1:1|0:2,0:0:0:0:
263,195,225718,2,0,L|344:202,1,74.2500007081032,0|0,0:2|0:0,0:0:0:0:
457,178,226012,2,0,B|472:238|472:238|456:268|456:268|475:343,2,153.000002918243,2|0|8,1:1|1:2|0:2,0:0:0:0:
480,15,226895,2,0,L|399:22,1,74.2500007081032,0|0,0:2|0:0,0:0:0:0:
233,39,227189,6,0,P|260:39|304:68,1,78.7500007510185,2|0,1:1|0:0,0:0:0:0:
382,113,227483,2,0,P|343:109|311:86,1,78.7500007510185,0|0,0:2|0:0,0:0:0:0:
175,185,227777,1,8,0:2:0:0:
175,185,227924,1,0,0:0:0:0:
82,62,228218,1,0,0:0:0:0:
101,82,228365,2,0,P|29:99|0:172,1,148.500001416206,2|0,1:1|0:2,0:0:0:0:
123,353,228954,6,0,B|156:347|156:347|153:353|153:353|181:348|181:348|179:353|179:353|213:347|213:347|212:352|212:352|246:345,1,148.500001416206,8|0,0:2|0:2,0:0:0:0:
15,294,229542,2,0,B|8:261|52:204|125:196|207:252,1,222.75000212431,4|0,1:2|0:0,0:0:0:0:
321,321,230130,2,0,L|333:245,1,74.2500007081032,8|0,0:2|0:0,0:0:0:0:
475,267,230424,2,0,P|435:277|404:306,1,74.2500007081032,0|0,0:2|0:0,0:0:0:0:
362,105,230718,2,0,B|381:136|381:136|367:171,1,74.2500007081032,0|0,1:2|0:0,0:0:0:0:
282,112,231012,2,0,B|268:147|268:147|287:178,1,74.2500007081032,0|0,1:2|0:0,0:0:0:0:
313,22,231307,5,8,0:2:0:0:
313,22,231601,2,0,P|263:37|224:46,1,74.2500007081032,0|0,0:2|0:0,0:0:0:0:
64,59,231895,6,0,B|71:56|71:56|45:126|45:126|67:153|79:209,1,148.500001416206,0|0,1:2|0:2,0:0:0:0:
149,157,232336,1,0,0:0:0:0:
121,278,232483,2,0,P|92:270|-2:332,1,148.500001416206,8|0,0:2|0:2,0:0:0:0:
65,384,232924,1,0,0:0:0:0:
65,384,233071,1,0,1:2:0:0:
178,336,233218,6,0,P|216:345|248:382,1,74.2500007081032,0|0,0:0|0:2,0:0:0:0:
314,215,233512,1,0,0:0:0:0:
305,311,233659,2,0,P|380:285|410:215,1,148.500001416206,8|0,0:2|0:2,0:0:0:0:
279,48,234248,6,0,P|364:94|494:120,1,222.75000212431,4|0,1:2|0:0,0:0:0:0:
498,3,234836,2,0,B|454:14|454:14|427:53,1,74.2500007081032,8|0,0:2|0:0,0:0:0:0:
363,93,235130,2,0,B|374:137|374:137|413:164,1,74.2500007081032,0|0,0:2|0:0,0:0:0:0:
478,241,235424,1,0,1:2:0:0:
245,296,235718,1,0,1:2:0:0:
48,326,236012,2,0,L|69:246,1,74.2500007081032,8|0,0:2|0:0,0:0:0:0:
140,312,236307,2,0,L|119:386,1,74.2500007081032,0|0,0:2|0:0,0:0:0:0:
136,210,236601,5,0,1:2:0:0:
116,176,236748,1,0,0:0:0:0:
66,160,236895,2,0,P|37:164|6:202,1,74.2500007081032,0|0,0:2|0:0,0:0:0:0:
141,92,237189,2,0,P|149:56|158:6,1,74.2500007081032,8|0,0:2|0:0,0:0:0:0:
32,56,237483,1,0,0:2:0:0:
253,176,237777,2,0,B|328:164|328:164|365:195|400:189,1,148.500001416206,0|0,1:2|0:2,0:0:0:0:
498,98,238365,1,8,0:2:0:0:
467,100,238512,1,0,0:0:0:0:
438,72,238659,2,0,P|403:76|397:132,1,74.2500007081032,0|0,0:2|0:0,0:0:0:0:
428,312,238954,6,0,P|347:245|244:170,1,222.75000212431,4|0,1:2|0:0,0:0:0:0:
143,296,239542,2,0,P|154:350|164:387,1,74.2500007081032,8|0,0:2|0:0,0:0:0:0:
26,336,239836,1,0,0:2:0:0:
43,309,239983,1,0,0:0:0:0:
32,260,240130,2,0,B|17:230|17:230|32:178,1,74.2500007081032,0|0,1:2|0:0,0:0:0:0:
1,62,240424,1,0,1:2:0:0:
186,142,240718,1,8,0:2:0:0:
346,26,241012,1,0,0:2:0:0:
487,173,241307,6,0,P|467:204|430:193,3,74.2500007081032,0|0|0|0,1:2|0:0|0:2|0:0,0:0:0:0:
301,234,241895,2,0,P|284:178|274:146,1,74.2500007081032,8|0,0:2|0:0,0:0:0:0:
394,312,242189,1,0,0:2:0:0:
393,299,242336,1,0,0:0:0:0:
449,266,242483,2,0,P|476:300|438:333,1,74.2500007081032,0|0,1:2|0:0,0:0:0:0:
324,374,242777,1,0,0:2:0:0:
331,359,242924,1,0,0:0:0:0:
250,317,243071,2,0,P|149:354|26:389,1,222.75000212431,8|0,0:2|0:0,0:0:0:0:
5,298,243659,5,4,1:2:0:0:
229,202,243954,2,0,P|275:212|293:250,1,74.2500007081032,0|0,0:2|0:0,0:0:0:0:
117,196,244248,2,0,P|61:130|8:79,1,148.500001416206,8|0,0:2|0:2,0:0:0:0:
79,18,244689,1,0,0:0:0:0:
90,35,244836,2,0,L|165:24,1,74.2500007081032,0|0,1:2|0:0,0:0:0:0:
308,79,245130,2,0,L|404:63,1,74.2500007081032,0|0,1:2|0:0,0:0:0:0:
267,209,245424,2,0,B|171:194|246:157|129:132,1,148.500001416206,8|0,0:2|0:2,0:0:0:0:
58,347,246012,6,0,P|105:360|124:318,1,74.2500007081032,0|0,1:2|0:0,0:0:0:0:
5,277,246307,1,0,0:2:0:0:
9,262,246601,2,0,L|89:240,1,74.2500007081032,8|0,0:2|0:0,0:0:0:0:
163,120,246895,1,0,0:2:0:0:
148,110,247189,2,0,P|93:74|70:78,1,74.2500007081032,0|0,1:2|0:0,0:0:0:0:
186,221,247483,2,0,P|228:237|275:258,1,74.2500007081032,0|0,0:2|0:0,0:0:0:0:
342,144,247777,1,8,0:2:0:0:
356,119,247924,1,0,0:0:0:0:
334,69,248071,2,0,P|277:31|251:42,1,74.2500007081032,0|0,0:2|0:0,0:0:0:0:
250,214,248365,6,0,P|396:179|483:161,1,222.75000212431,4|0,1:2|0:0,0:0:0:0:
413,272,248954,2,0,P|366:284|381:320,1,74.2500007081032,8|0,0:2|0:0,0:0:0:0:
424,358,249248,1,0,0:2:0:0:
435,349,249542,1,0,1:2:0:0:
276,381,249836,1,0,1:2:0:0:
59,283,250130,2,0,L|153:268,1,74.2500007081032,8|0,0:2|0:0,0:0:0:0:
195,170,250424,2,0,L|289:155,1,74.2500007081032,0|0,0:2|0:0,0:0:0:0:
92,97,250718,5,0,1:2:0:0:
100,127,250865,1,0,0:0:0:0:
75,179,251012,2,0,P|36:173|17:141,1,74.2500007081032,0|0,0:2|0:0,0:0:0:0:
85,18,251307,2,0,L|177:33,1,74.2500007081032,8|0,0:2|0:0,0:0:0:0:
219,123,251601,1,0,0:2:0:0:
226,115,251895,2,0,P|309:85|458:52,1,222.75000212431,0|0,1:2|0:0,0:0:0:0:
498,176,252483,2,0,B|463:187|463:187|428:167,1,74.2500007081032,8|0,0:2|0:0,0:0:0:0:
322,244,252777,2,0,B|357:233|357:233|392:253,1,74.2500007081032,0|0,0:2|0:0,0:0:0:0:
490,366,253071,5,4,1:2:0:0:
361,337,253365,1,0,0:2:0:0:
197,371,253659,2,0,P|118:354|36:338,1,148.500001416206,8|0,0:2|0:2,0:0:0:0:
265,313,254101,1,0,0:0:0:0:
202,255,254248,1,0,1:2:0:0:
318,158,254542,1,0,1:2:0:0:
226,53,254836,2,0,P|147:36|65:20,1,148.500001416206,8|0,0:2|0:2,0:0:0:0:
406,58,255424,6,0,P|461:40|492:31,1,74.2500007081032,4|0,1:2|0:0,0:0:0:0:
472,127,255718,2,0,P|417:145|386:154,1,74.2500007081032,0|0,0:2|0:0,0:0:0:0:
296,108,256012,2,0,P|134:60|111:52,1,148.500001416206,8|0,0:2|0:2,0:0:0:0:
92,11,256454,1,0,0:0:0:0:
31,90,256601,1,0,1:2:0:0:
106,238,256895,1,0,0:2:0:0:
16,377,257189,2,0,P|93:321|151:338,1,148.500001416206,8|0,0:2|0:2,0:0:0:0:
145,337,257777,6,0,P|286:318|379:310,1,222.75000212431,4|0,1:2|0:0,0:0:0:0:
494,367,258365,2,0,B|458:377|458:377|415:362,1,74.2500007081032,8|0,0:2|0:0,0:0:0:0:
459,284,258659,1,0,0:2:0:0:
465,279,258954,1,0,1:2:0:0:
438,210,259101,1,0,0:0:0:0:
476,147,259248,1,0,1:2:0:0:
510,100,259395,1,0,0:0:0:0:
500,62,259542,2,0,P|471:31|440:40,1,74.2500007081032,8|0,0:2|0:0,0:0:0:0:
286,71,259836,2,0,L|369:84,1,74.2500007081032,0|0,0:2|0:0,0:0:0:0:
168,51,260130,6,0,P|57:29|23:15,1,148.500001416206,0|0,1:2|0:2,0:0:0:0:
19,151,260718,2,0,P|67:145|77:98,1,74.2500007081032,8|0,0:2|0:0,0:0:0:0:
3,135,261012,1,0,0:2:0:0:
37,266,261307,2,0,P|59:299|55:346,1,74.2500007081032,0|0,1:2|0:0,0:0:0:0:
18,278,261601,1,0,0:2:0:0:
222,170,261895,2,0,P|136:218|89:202,1,148.500001416206,8|0,0:2|0:2,0:0:0:0:
357,354,262483,6,0,P|440:320|509:296,1,148.500001416206,0|0,1:2|0:2,0:0:0:0:
170,361,263071,2,0,P|93:349|72:347,1,74.2500007081032,8|0,0:2|0:0,0:0:0:0:
186,352,263365,1,0,0:2:0:0:
99,227,263659,1,0,1:2:0:0:
208,124,263954,1,0,1:2:0:0:
192,88,264101,1,0,0:0:0:0:
219,36,264248,2,0,P|250:20|297:35,1,74.2500007081032,8|0,0:2|0:0,0:0:0:0:
211,19,264542,1,0,0:2:0:0:
120,130,264836,6,0,P|32:128|59:14,1,222.75000212431,0|0,1:2|0:0,0:0:0:0:
125,138,265424,2,0,B|105:229|81:165|60:270,1,148.500001416206,8|0,0:2|0:2,0:0:0:0:
136,323,265865,1,0,0:0:0:0:
146,318,266012,2,0,B|166:216|190:279|210:188,1,148.500001416206,0|0,1:2|0:2,0:0:0:0:
387,107,266601,1,8,0:2:0:0:
487,311,266895,1,0,0:2:0:0:
463,329,267042,1,0,0:0:0:0:
339,314,267189,6,0,B|354:241|354:241|141:319,1,297.000002832413,4|8,1:2|0:2,0:0:0:0:
183,181,268071,1,0,0:2:0:0:
38,301,268365,2,0,L|52:383,1,74.2500007081032,0|0,1:2|0:0,0:0:0:0:
119,285,268659,2,0,L|133:367,1,74.2500007081032,0|0,1:2|0:0,0:0:0:0:
200,268,268954,1,8,0:2:0:0:
73,29,269248,6,0,B|-12:41|-16:130|-16:130|73:125|103:199,1,297.000002832413,0|0,0:2|0:2,0:0:0:0:
290,305,270130,2,0,P|217:310|162:358,1,148.500001416206,8|0,0:2|0:2,0:0:0:0:
0,227,270718,2,0,P|26:251|36:291,1,74.2500007081032,0|0,1:2|0:0,0:0:0:0:
75,384,271012,1,0,0:2:0:0:
46,374,271159,1,0,0:0:0:0:
120,279,271307,2,0,L|144:133,1,148.500001416206,8|0,0:2|0:2,0:0:0:0:
473,163,271895,6,0,B|484:224|438:257|438:257|354:213|259:193,1,297.000002832413,4|8,1:2|0:2,0:0:0:0:
301,323,272777,1,0,0:2:0:0:
403,124,273071,2,0,B|421:91|421:91|457:85,1,74.2500007081032,0|0,1:2|0:0,0:0:0:0:
343,75,273365,2,0,B|325:108|325:108|289:114,1,74.2500007081032,0|0,1:2|0:0,0:0:0:0:
473,163,273659,1,8,0:2:0:0:
276,42,273954,2,0,L|202:54,1,74.2500007081032,0|0,0:2|0:0,0:0:0:0:
148,244,274248,5,4,1:2:0:0:
148,244,274395,2,0,B|138:166|92:193|82:115,1,148.500001416206
40,19,274836,2,0,P|30:49|0:87,1,74.2500007081032,8|0,0:2|0:0,0:0:0:0:
13,161,275130,1,0,0:2:0:0:
188,134,275277,2,0,P|210:163|222:198,2,74.2500007081032,0|0|0,0:0|1:2|0:0,0:0:0:0:
53,352,275718,2,0,P|123:330|197:327,2,148.500001416206,0|8|0,0:2|0:2|0:2,0:0:0:0:
20,51,276601,6,0,P|149:97|136:234,1,297.000002832413,4|8,1:2|0:2,0:0:0:0:
210,343,277483,1,0,0:2:0:0:
77,189,277777,2,0,P|62:229|68:266,1,74.2500007081032,0|0,1:2|0:0,0:0:0:0:
75,102,278071,2,0,P|44:122|8:127,1,74.2500007081032,0|0,1:2|0:0,0:0:0:0:
136,234,278365,1,8,0:2:0:0:
21,51,278659,6,0,B|-6:10|-6:10|91:23|91:23|94:20|94:20|146:27|161:71|147:69|173:102|216:102,1,297.000002832413,0|0,0:2|0:2,0:0:0:0:
341,199,279542,1,8,0:2:0:0:
341,199,279836,2,0,L|415:190,1,74.2500007081032,0|0,0:2|0:0,0:0:0:0:
265,49,280130,2,0,P|279:82|280:119,2,74.2500007081032,0|0|0,1:2|0:0|0:2,0:0:0:0:
467,14,280571,1,0,0:0:0:0:
467,14,280718,2,0,P|397:61|361:126,1,148.500001416206,8|0,0:2|0:2,0:0:0:0:
280,362,281307,6,0,B|267:304|229:256|229:256|288:325|416:340,1,297.000002832413,4|8,1:2|0:2,0:0:0:0:
188,354,282189,1,0,0:2:0:0:
177,330,282336,1,0,0:0:0:0:
74,237,282483,2,0,L|156:248,1,74.2500007081032,0|0,1:2|0:0,0:0:0:0:
84,156,282777,2,0,L|166:167,1,74.2500007081032,0|0,1:2|0:0,0:0:0:0:
265,178,283071,1,8,0:2:0:0:
16,187,283365,6,0,B|71:125|62:51|62:51|192:57|194:165|153:153|143:238|252:282,1,445.500004248619,0|8,0:2|0:2,0:0:0:0:
298,351,284395,1,0,0:0:0:0:
324,339,284542,1,0,0:2:0:0:
351,347,284689,1,0,0:0:0:0:
453,320,284836,6,0,P|421:289|410:244,1,74.2500007081032,0|0,1:2|0:0,0:0:0:0:
252,181,285130,2,0,P|281:193|313:235,1,83.2499996824265,0|0,0:2|0:0,0:0:0:0:
85,143,285424,2,0,P|51:170|-9:181,1,92.2500014076233,8|0,0:2|0:0,0:0:0:0:
381,69,285718,2,0,P|400:112|388:164,1,101.250003862381,0|0,0:2|0:0,0:0:0:0:
111,55,286012,6,0,P|101:28|65:-4,1,67.5000025749208,4|0,1:2|0:0,0:0:0:0:
211,110,286307,2,0,P|186:133|174:164,1,67.5000025749208,0|0,0:2|0:0,0:0:0:0:
11,102,286601,2,0,P|66:139|101:208,1,135.000005149842,8|0,0:2|0:2,0:0:0:0:
0,304,287189,2,0,P|8:272|34:229,1,67.5000025749208,0|0,1:0|0:0,0:0:0:0:
101,384,287483,1,0,1:2:0:0:
409,363,287777,2,0,P|307:323|183:306,1,202.500007724762,8|0,0:2|0:0,0:0:0:0:
161,257,288365,6,0,P|190:235|249:241,1,67.5000025749208,4|0,1:2|0:0,0:0:0:0:
356,187,288659,2,0,P|341:217|319:242,1,67.5000025749208,0|0,0:2|0:0,0:0:0:0:
254,82,288954,2,0,L|270:161,1,67.5000025749208,8|0,0:2|0:0,0:0:0:0:
328,35,289248,1,0,0:2:0:0:
512,129,289542,2,0,L|375:102,1,135.000005149842,0|0,1:2|0:2,0:0:0:0:
402,272,290130,2,0,P|434:206|506:220,1,135.000005149842,8|0,0:2|0:2,0:0:0:0:
439,347,290718,5,0,1:2:0:0:
439,347,290865,2,0,B|409:364|369:349|369:349|333:337|304:350,1,135.000005149842
173,383,291307,2,0,P|218:334|215:234,1,135.000005149842,8|0,0:2|0:2,0:0:0:0:
116,81,291895,1,0,1:2:0:0:
27,167,292189,5,0,1:2:0:0:
27,167,292287,1,0,3:0:0:0:
27,167,292385,1,0,3:0:0:0:
27,167,292483,2,0,P|52:239|55:319,2,135.000005149842,8|0|0,0:2|0:2|1:2,0:0:0:0:
120,66,293365,6,0,L|130:0,1,67.5000025749208,0|0,0:2|0:0,0:0:0:0:
261,151,293659,2,0,B|177:151|217:195|116:193,1,135.000005149842,8|0,0:2|0:2,0:0:0:0:
241,73,294248,1,0,1:2:0:0:
232,60,294395,1,0,0:0:0:0:
339,29,294542,1,0,0:2:0:0:
330,43,294689,1,0,0:0:0:0:
387,136,294836,1,8,0:2:0:0:
384,119,294983,1,2,0:3:0:0:
400,127,295130,1,2,0:3:0:0:
310,332,295424,6,0,B|274:194|274:194|303:116,1,202.500007724762,0|0,1:2|0:0,0:0:0:0:
232,60,296012,2,0,L|204:137,1,67.5000025749208,8|0,0:2|0:0,0:0:0:0:
134,233,296307,2,0,P|164:204|203:195,1,67.5000025749208,0|0,0:2|0:0,0:0:0:0:
91,156,296601,1,0,1:2:0:0:
69,149,296748,1,0,0:0:0:0:
86,134,296895,1,0,1:2:0:0:
35,375,297189,2,0,B|4:336|4:336|25:232,2,135.000005149842,8|0|4,0:2|0:2|1:2,0:0:0:0:
136,254,298071,6,0,P|165:235|199:231,1,67.5000025749208,0|0,0:2|0:0,0:0:0:0:
85,312,298365,1,8,0:2:0:0:
302,352,298659,1,0,0:2:0:0:
275,340,298807,1,0,0:0:0:0:
263,319,298954,2,0,P|292:259|290:184,1,135.000005149842,0|0,1:2|0:2,0:0:0:0:
504,267,299542,2,0,B|415:268|475:320|368:321,1,135.000005149842,8|2,0:2|0:3,0:0:0:0:
364,103,300130,6,0,L|382:263,2,135.000005149842,0|0|8,1:2|0:2|0:2,0:0:0:0:
470,4,301012,2,0,L|479:71,1,67.5000025749208,0|0,0:2|0:0,0:0:0:0:
240,79,301307,2,0,B|311:77|283:28|360:22,1,135.000005149842,0|0,1:2|1:2,0:0:0:0:
390,330,301895,2,0,P|288:305|177:282,1,202.500007724762,8|0,0:2|0:0,0:0:0:0:
192,284,302483,5,0,1:2:0:0:
95,191,302777,1,0,0:2:0:0:
59,266,302924,1,0,3:0:0:0:
59,266,303071,1,8,3:2:0:0:
158,363,303365,6,0,P|219:322|305:313,1,135.000005149842,0|0,0:2|1:2,0:0:0:0:
351,367,303758,1,0,3:0:0:0:
351,367,303856,1,0,3:0:0:0:
351,367,303954,2,0,P|367:338|368:286,1,67.5000025749208,0|0,3:2|0:0,0:0:0:0:
119,161,304248,2,0,P|180:202|266:211,1,135.000005149842,8|0,0:2|0:2,0:0:0:0:
370,119,304836,6,0,P|328:127|286:152,1,67.5000025749208,0|0,1:2|0:0,0:0:0:0:
458,44,305130,2,0,P|395:31|321:-6,2,135.000005149842,0|8|0,0:2|0:2|0:2,0:0:0:0:
454,195,306012,6,0,P|474:164|514:143,2,67.5000025749208,0|0|0,1:2|0:0|1:2,0:0:0:0:
512,284,306405,1,0,3:0:0:0:
512,284,306503,1,0,3:0:0:0:
512,284,306601,2,0,P|442:300|379:359,1,135.000005149842,8|0,0:2|0:2,0:0:0:0:
272,254,307189,5,0,1:2:0:0:
336,176,307483,1,0,0:2:0:0:
227,0,307777,6,0,L|253:152,1,135.000005149842,8|0,0:2|0:2,0:0:0:0:
203,199,308169,1,0,3:0:0:0:
203,199,308267,1,0,3:0:0:0:
203,199,308365,6,0,P|163:204|111:183,1,90.0000034332277,0|0,1:2|3:0,0:0:0:0:
10,290,308659,2,0,P|47:270|108:268,1,90.0000034332277,0|0,3:2|3:0,0:0:0:0:
42,185,308954,2,0,L|18:51,2,135.000005149842,8|0|0,3:2|0:2|1:2,0:0:0:0:
307,35,309836,6,0,P|271:19|247:-7,1,67.5000025749208,0|0,0:2|0:0,0:0:0:0:
425,93,310130,2,0,P|353:116|285:155,1,135.000005149842,8|0,0:2|0:2,0:0:0:0:
232,207,310571,1,0,0:0:0:0:
375,276,310718,2,0,B|371:239|371:239|407:203,1,67.5000025749208,0|0,1:2|0:0,0:0:0:0:
436,327,311012,2,0,B|456:298|456:298|452:256,1,67.5000025749208,0|0,1:2|0:0,0:0:0:0:
283,328,311307,2,0,P|213:342|139:361,1,135.000005149842,8|0,0:2|0:2,0:0:0:0:
8,262,311895,5,0,1:2:0:0:
79,304,312189,1,0,0:2:0:0:
88,90,312483,1,8,0:2:0:0:
88,90,312630,1,0,0:0:0:0:
88,90,312777,1,0,0:2:0:0:
186,167,313071,2,0,P|207:136|236:109,1,67.5000025749208,0|0,1:2|0:0,0:0:0:0:
323,90,313365,2,0,P|307:58|273:25,1,67.5000025749208,0|0,0:2|0:0,0:0:0:0:
444,149,313659,1,8,0:2:0:0:
418,145,313807,1,0,0:0:0:0:
367,257,313954,1,0,0:2:0:0:
404,241,314101,1,0,0:0:0:0:
512,303,314248,5,4,1:2:0:0:
437,377,314542,1,0,0:2:0:0:
437,377,314689,2,0,P|400:349|360:346,1,67.5000025749208,0|8,0:0|0:2,0:0:0:0:
329,252,314983,1,0,3:0:0:0:
223,314,315130,2,0,L|232:380,1,67.5000025749208,0|0,0:2|0:0,0:0:0:0:
226,132,315424,2,0,P|251:142|281:184,1,67.5000025749208,0|0,1:2|0:0,0:0:0:0:
133,267,315718,2,0,P|153:240|183:226,1,67.5000025749208,0|0,1:2|0:0,0:0:0:0:
396,233,316012,5,8,0:2:0:0:
479,156,316159,1,0,0:0:0:0:
479,156,316307,1,0,0:2:0:0:
430,57,316454,1,0,0:0:0:0:
430,57,316601,6,0,P|361:64|298:87,2,135.000005149842,0|0|8,1:2|0:2|0:2,0:0:0:0:
238,160,317483,1,0,0:2:0:0:
111,99,317777,2,0,B|103:67|122:33|122:33|90:53|86:90,1,135.000005149842,0|2,1:2|0:3,0:0:0:0:
149,173,318218,1,0,0:0:0:0:
62,229,318365,2,0,P|58:195|40:167,1,67.5000025749208,8|0,0:2|0:0,0:0:0:0:
147,260,318659,2,0,P|177:273|211:272,1,67.5000025749208,0|0,0:2|0:0,0:0:0:0:
72,322,318954,6,0,P|28:336|-8:358,1,67.5000025749208,0|0,1:2|0:0,0:0:0:0:
0,366,319248,1,0,0:2:0:0:
270,213,319542,2,0,P|291:247|288:287,1,67.5000025749208,8|0,3:2|0:0,0:0:0:0:
187,360,319836,2,0,L|150:353,1,33.7500012874604,0|0,0:2|0:0,0:0:0:0:
188,171,320130,2,0,L|151:178,1,33.7500012874604,0|0,1:2|0:0,0:0:0:0:
135,181,320277,2,0,L|98:188,1,33.7500012874604
82,191,320424,2,0,P|43:162|41:131,1,67.5000025749208,0|0,1:2|0:0,0:0:0:0:
266,128,320718,2,0,B|306:117|339:141|329:148|357:169|394:163,1,135.000005149842,8|0,0:2|0:2,0:0:0:0:
170,40,321307,5,4,1:2:0:0:
153,31,321454,1,0,0:0:0:0:
154,52,321601,1,0,0:2:0:0:
171,56,321748,1,0,0:0:0:0:
266,128,321895,2,0,B|317:84|317:84|384:86,2,135.000005149842,8|0|0,3:2|0:2|1:2,0:0:0:0:
162,277,322630,5,0,0:0:0:0:
156,258,322777,1,0,0:2:0:0:
177,262,322924,1,0,0:0:0:0:
96,333,323071,1,8,0:2:0:0:
245,307,323218,2,0,P|282:326|312:355,1,67.5000025749208,0|0,0:0|0:2,0:0:0:0:
151,172,323512,1,0,3:0:0:0:
151,172,323659,6,0,B|116:153|81:172|89:182|63:203|23:188,1,135.000005149842,4|0,1:2|0:2,0:0:0:0:
262,9,324248,2,0,B|256:74|256:74|260:75|260:75|253:161,1,135.000005149842,8|0,0:2|3:2,0:0:0:0:
156,23,324836,2,0,B|138:26|131:44|131:44|148:49|164:43,1,67.5000025749208,0|0,1:2|0:0,0:0:0:0:
25,75,325130,2,0,B|43:78|50:96|50:96|33:101|17:95,1,67.5000025749208,0|0,1:2|0:0,0:0:0:0:
70,257,325424,2,0,P|95:235|125:219,1,67.5000025749208,8|0,0:2|0:0,0:0:0:0:
218,142,325718,2,0,P|250:150|280:165,1,67.5000025749208,0|0,0:2|0:0,0:0:0:0:
341,299,326012,5,4,1:2:0:0:
406,240,326159,2,0,P|411:185|418:149,1,67.5000025749208,0|0,0:0|0:2,0:0:0:0:
154,327,326601,2,0,P|67:343|14:369,1,135.000005149842,8|0,0:2|0:2,0:0:0:0:
252,255,327189,2,0,L|246:291,7,33.7500012874604,0|0|0|0|0|0|0|0,1:2|2:0|2:0|2:0|2:2|2:0|2:0|2:0,2:0:0:0:
153,212,327777,2,0,L|147:176,7,33.7500012874604,8|0|0|0|0|0|0|0,2:2|2:0|2:0|2:0|2:2|2:0|2:0|2:0,2:0:0:0:
323,94,328365,6,0,L|359:100,7,37.1250003540516,0|0|0|0|0|0|0|0,1:2|0:0|0:0|0:0|0:2|0:0|0:0|0:0,0:0:0:0:
137,17,328954,2,0,B|117:14|117:14|99:22,7,39.3750003755093,8|0|0|0|0|0|0|0,0:2|0:0|0:0|0:0|0:2|0:0|0:0|0:0,0:0:0:0:
189,108,329542,6,0,P|216:89|235:61,1,67.5000025749208,0|0,1:2|0:0,0:0:0:0:
328,229,329836,2,0,P|309:200|281:182,1,67.5000025749208,0|0,1:2|0:0,0:0:0:0:
145,234,330130,1,8,0:2:0:0:
120,223,330277,1,0,0:0:0:0:
32,326,330424,1,0,0:2:0:0:
54,318,330571,1,0,0:0:0:0:
10,201,330718,5,0,1:2:0:0:
175,344,331012,1,0,0:2:0:0:
175,344,331307,2,0,L|316:330,1,135.000005149842,8|0,0:2|0:2,0:0:0:0:
417,241,331895,2,0,P|443:272|448:304,1,67.5000025749208,0|0,1:2|0:0,0:0:0:0:
392,361,332189,1,0,0:2:0:0:
333,250,332336,2,0,L|342:180,1,67.5000025749208,0|8,0:0|0:2,0:0:0:0:
341,183,332777,1,0,0:2:0:0:
469,18,333071,6,0,B|391:25|429:62|351:74,1,135.000005149842,0|0,1:2|0:2,0:0:0:0:
183,13,333659,1,8,0:2:0:0:
183,13,333954,1,0,0:2:0:0:
267,88,334248,2,0,B|290:130|290:130|283:162,1,67.5000025749208,0|0,1:2|0:0,0:0:0:0:
386,218,334542,2,0,B|363:176|363:176|367:156,1,67.5000025749208,0|0,1:2|3:0,0:0:0:0:
279,254,334836,2,0,L|207:245,1,67.5000025749208,8|0,0:2|0:0,0:0:0:0:
127,303,335130,2,0,L|55:294,1,67.5000025749208,0|0,3:2|0:0,0:0:0:0:
26,127,335424,5,4,1:2:0:0:
9,53,335571,1,0,0:0:0:0:
102,93,335718,1,0,0:2:0:0:
100,22,335865,1,0,0:0:0:0:
193,80,336012,1,8,0:2:0:0:
200,25,336159,1,0,0:0:0:0:
270,114,336307,1,0,0:2:0:0:
297,72,336454,1,0,0:0:0:0:
310,185,336601,1,0,1:2:0:0:
349,176,336748,1,0,0:0:0:0:
291,267,336895,1,0,0:2:0:0:
312,284,337042,1,0,0:0:0:0:
216,258,337189,1,8,0:2:0:0:
210,281,337336,1,0,0:0:0:0:
158,199,337483,1,0,0:2:0:0:
158,199,337630,1,0,0:0:0:0:
235,183,337777,6,0,P|266:183|309:193,1,67.5000025749208,0|0,1:2|0:0,0:0:0:0:
432,278,338071,1,0,3:2:0:0:
432,278,338169,1,0,3:0:0:0:
432,278,338267,1,0,3:0:0:0:
432,278,338365,2,0,P|435:249|452:203,1,67.5000025749208,8|0,0:2|0:0,0:0:0:0:
489,121,338659,2,0,P|486:92|467:42,1,67.5000025749208,0|0,0:2|0:0,0:0:0:0:
291,18,338954,2,0,L|358:9,1,67.5000025749208,0|0,1:2|0:0,0:0:0:0:
275,101,339248,2,0,L|341:91,1,67.5000025749208,0|0,1:2|0:0,0:0:0:0:
206,41,339542,2,0,P|139:54|103:129,1,135.000005149842,8|0,0:2|0:2,0:0:0:0:
30,227,340130,6,0,B|75:204|75:204|24:278,1,135.000005149842,0|0,1:2|0:2,0:0:0:0:
144,292,340571,1,0,0:0:0:0:
98,367,340718,2,0,P|60:355|19:351,1,67.5000025749208,8|0,0:2|0:0,0:0:0:0:
204,349,341012,2,0,P|237:344|269:333,1,67.5000025749208,0|0,0:2|0:0,0:0:0:0:
391,258,341307,2,0,B|346:235|346:235|397:309,1,135.000005149842,0|0,1:2|0:2,0:0:0:0:
370,122,341748,2,0,L|335:136,1,33.7500012874604
261,182,341895,2,0,L|226:150,3,33.7500012874604,8|0|0|0,0:2|0:0|0:0|0:0,0:0:0:0:
168,277,342189,2,0,L|173:237,3,33.7500012874604,0|0|0|0,0:2|0:0|0:0|0:0,0:0:0:0:
85,214,342483,5,4,1:2:0:0:
256,192,342777,12,0,345424,0:0:0:0:
226,43,345865,6,0,L|258:38,1,30
297,104,346108,2,0,L|326:108,1,30
216,239,348437,6,0,L|222:221,4,15
427,348,349985,6,0,B|448:319|448:319|438:282,1,67.5,2|0,0:0|0:0,0:0:0:0:
466,120,351005,6,0,L|452:170,1,30
454,160,351209,6,0,P|418:149|389:156,2,60,2|0|0,0:0|0:0|0:0,0:0:0:0:
241,113,352235,6,0,B|277:98|277:98|317:103,1,78.75,2|0,0:0|0:0,0:0:0:0:
362,30,352875,6,0,L|392:86,1,45,0|2,0:0|0:0,0:0:0:0:
213,218,354097,6,0,L|225:138,2,60,0|2|0,0:0|0:0|0:0,0:0:0:0:
132,369,356483,6,0,L|120:337,1,22.5
197,281,356733,2,0,L|187:309,1,22.5
220,170,358006,5,2,0:0:0:0:
0,90,359434,5,2,0:0:0:0:
