osu file format v14

[General]
AudioFilename: audio.mp3
AudioLeadIn: 0
PreviewTime: -1
Countdown: 0
SampleSet: Soft
StackLeniency: 0.4
Mode: 0
LetterboxInBreaks: 0
WidescreenStoryboard: 0

[Editor]
DistanceSpacing: 0.3
BeatDivisor: 4
GridSize: 32
TimelineZoom: 1.1

[Metadata]
Title:Deep in Abyss
TitleUnicode:Deep in Abyss
Artist:Snoop Dog
ArtistUnicode:Snoop Dog
Creator:DendyHere
Version:Insane
Source:メイドインアビス
Tags:Made in Abyss op tv size
BeatmapID:1768175
BeatmapSetID:845331

[Difficulty]
HPDrainRate:5
CircleSize:4.3
OverallDifficulty:8.5
ApproachRate:8.2
SliderMultiplier:1.7
SliderTickRate:1

[Events]
//Background and Video events
Video,0,"Smoke In Abyss_1.mp4"
0,0,"bg.jpg",0,0
//Break Periods
//Storyboard Layer 0 (Background)
//Storyboard Layer 1 (Fail)
//Storyboard Layer 2 (Pass)
//Storyboard Layer 3 (Foreground)
//Storyboard Sound Samples

[TimingPoints]
0,444.444444444444,4,2,0,55,1,0
0,-125,4,2,0,55,0,0
6444,-200,4,2,0,45,0,0
7111,-100,4,2,0,65,0,0
11111,-66.6666666666667,4,2,0,65,0,0
11333,-76.9230769230769,4,2,0,65,0,0
11555,-58.8235294117647,4,2,0,65,0,0
11999,-66.6666666666667,4,2,0,65,0,0
12221,-76.9230769230769,4,2,0,65,0,0
12443,-58.8235294117647,4,2,0,65,0,0
12888,-66.6666666666667,4,2,0,65,0,0
13110,-76.9230769230769,4,2,0,65,0,0
13332,-58.8235294117647,4,2,0,65,0,0
13777,-200,4,2,0,65,0,0
14222,-125,4,2,0,60,0,0
21333,-111.111111111111,4,2,0,60,0,0
28444,-125,4,2,0,50,0,0
35555,-100,4,2,0,60,0,0
39111,-83.3333333333333,4,2,0,75,0,0
39333,-100,4,2,0,60,0,0
40888,-83.3333333333333,4,2,0,75,0,0
41110,-100,4,2,0,60,0,0
44222,-83.3333333333333,4,2,0,75,0,0
44444,-100,4,2,0,60,0,0
46222,-71.4285714285714,4,2,0,75,0,1
60444,-83.3333333333333,4,2,0,70,0,0

[Colours]
Combo1 : 139,139,139
Combo2 : 243,213,150
Combo3 : 239,228,90
Combo4 : 224,137,156

[HitObjects]
66,94,0,6,0,B|139:80|128:131|217:109,1,136,4|8,0:0|0:0,0:0:0:0:
284,52,666,1,0,0:0:0:0:
292,66,777,1,0,0:0:0:0:
296,82,888,1,2,0:0:0:0:
229,191,1333,1,8,0:0:0:0:
340,361,1777,6,0,P|366:293|420:237,1,136,2|8,0:0|0:0,0:0:0:0:
481,147,2444,1,0,0:0:0:0:
465,150,2555,1,0,0:0:0:0:
447,155,2666,1,2,0:0:0:0:
304,219,2999,1,2,0:0:0:0:
153,56,3333,1,0,0:0:0:0:
153,56,3555,6,0,L|139:215,1,136,4|8,0:0|0:0,0:0:0:0:
67,300,4222,1,2,0:0:0:0:
81,291,4333,1,0,0:0:0:0:
100,284,4444,1,0,0:0:0:0:
256,293,4666,2,0,P|269:299|293:301,1,34,0|0,0:0|0:0,0:0:0:0:
375,313,4888,2,0,P|321:309|264:339,1,102,10|0,0:0|0:0,0:0:0:0:
219,384,5333,6,0,P|249:339|251:274,1,102,2|0,0:0|0:0,0:0:0:0:
228,222,5777,1,8,0:0:0:0:
83,96,5999,1,8,0:2:0:0:
110,76,6110,1,8,0:2:0:0:
143,69,6221,1,10,0:0:0:0:
176,75,6332,1,0,0:0:0:0:
204,93,6444,1,10,0:0:0:0:
221,106,6555,1,0,0:0:0:0:
241,114,6666,1,10,0:0:0:0:
262,117,6777,1,8,0:0:0:0:
283,115,6888,1,10,0:0:0:0:
302,107,6999,1,8,0:0:0:0:
318,93,7111,6,0,L|306:194,1,85,4|0,0:0|0:0,0:0:0:0:
409,256,7444,1,0,0:0:0:0:
409,256,7555,2,0,P|397:214|398:171,1,85,8|2,0:0|0:0,0:0:0:0:
307,177,7888,1,0,0:0:0:0:
249,251,7999,2,0,P|291:272|322:308,1,85,2|0,0:0|0:0,0:0:0:0:
163,372,8444,2,0,P|202:346|248:337,1,85,8|0,0:0|0:0,0:0:0:0:
151,210,8888,6,0,P|139:278|83:214,1,170,2|8,0:0|0:0,0:0:0:0:
126,96,9555,1,2,0:0:0:0:
140,108,9666,1,0,0:0:0:0:
153,118,9777,2,0,L|243:126,1,85,2|2,0:0|0:0,0:0:0:0:
291,60,10111,1,0,0:0:0:0:
291,60,10222,1,8,0:0:0:0:
275,99,10333,1,0,0:0:0:0:
276,141,10444,1,0,0:0:0:0:
293,180,10555,1,0,0:0:0:0:
324,209,10666,6,0,P|329:165|353:119,1,85,4|0,0:0|0:0,0:0:0:0:
424,308,11111,2,0,P|393:295|354:290,1,63.7500024318696,8|0,0:0|0:0,0:0:0:0:
308,211,11333,2,0,P|281:231|255:269,1,55.2499974708558,0|0,0:0|0:0,0:0:0:0:
211,359,11555,2,0,B|267:297|229:213|229:213|231:253|206:285,1,216.750004134178,2|0,2:0|0:0,0:0:0:0:
150,221,11999,6,0,P|154:191|175:153,1,63.7500024318696,8|0,0:0|0:0,0:0:0:0:
119,89,12222,2,0,P|146:77|188:74,1,55.2499974708558,0|0,1:0|0:0,0:0:0:0:
357,134,12444,2,0,B|301:107|252:137|252:137|230:83|166:73,1,216.750004134178,4|0,0:0|0:0,0:0:0:0:
168,161,12888,6,0,P|154:189|150:221,1,63.7500024318696,8|0,0:0|0:0,0:0:0:0:
199,293,13111,2,0,P|209:323|226:346,1,55.2499974708558,0|0,1:0|0:0,0:0:0:0:
308,356,13333,1,2,1:2:0:0:
422,100,13555,5,0,1:0:0:0:
422,100,13777,2,0,L|355:89,1,63.75,8|0,0:0|0:0,0:0:0:0:
296,45,14222,6,0,P|269:62|222:64,1,68,4|0,0:0|0:0,0:0:0:0:
80,124,14666,2,0,P|107:107|154:105,1,68,2|0,0:0|0:0,0:0:0:0:
87,301,14999,1,0,0:0:0:0:
87,301,15111,2,0,P|87:244|143:172,1,136,0|2,0:0|0:0,0:0:0:0:
272,256,15777,1,0,0:0:0:0:
255,258,15888,1,0,0:0:0:0:
238,260,15999,6,0,L|330:286,1,68,0|0,0:0|0:0,0:0:0:0:
378,296,16444,1,2,0:0:0:0:
451,317,16666,1,0,0:0:0:0:
348,152,16888,2,0,L|366:238,1,68,0|0,0:0|0:0,0:0:0:0:
333,77,17333,1,2,0:0:0:0:
273,126,17555,1,0,0:0:0:0:
101,105,17777,6,0,P|151:116|208:192,1,136,4|2,0:0|0:0,0:0:0:0:
95,297,18444,1,0,0:0:0:0:
95,297,18555,1,0,0:0:0:0:
95,297,18666,2,0,B|166:282|159:323|235:302,1,136,4|0,0:0|0:0,0:0:0:0:
402,348,19333,1,6,0:0:0:0:
402,348,19777,5,2,0:0:0:0:
347,238,19999,1,8,0:0:0:0:
432,44,20222,1,4,0:0:0:0:
432,44,20666,5,10,0:0:0:0:
256,194,20888,1,8,0:0:0:0:
163,113,21111,1,0,0:0:0:0:
163,113,21222,1,2,0:0:0:0:
163,113,21333,6,0,P|146:141|131:190,1,76.4999976654053,4|0,1:2|0:0,0:0:0:0:
62,241,21777,1,8,1:2:0:0:
261,334,21999,1,0,0:0:0:0:
261,334,22222,2,0,B|154:318|154:318|192:349,1,152.999995330811,0|8,0:0|1:2,0:0:0:0:
359,384,22888,1,2,0:0:0:0:
355,365,22999,1,0,0:0:0:0:
350,346,23111,6,0,L|365:257,1,76.4999976654053,0|2,1:0|0:0,0:0:0:0:
293,195,23555,1,0,1:0:0:0:
483,158,23777,1,2,0:0:0:0:
483,158,23888,1,0,1:0:0:0:
483,158,23999,2,0,L|390:147,1,76.4999976654053,0|8,0:0|0:0,0:0:0:0:
293,195,24444,1,0,1:2:0:0:
279,81,24666,1,2,0:0:0:0:
307,309,24888,6,0,L|291:172,1,114.749996498108,0|0,1:0|0:0,0:0:0:0:
217,150,25333,2,0,P|132:131|64:181,1,152.999995330811,2|0,1:2|1:0,0:0:0:0:
154,237,25999,1,2,0:0:0:0:
87,362,26222,1,0,1:0:0:0:
248,348,26444,6,0,P|196:296|171:190,1,152.999995330811,2|0,0:0|0:0,0:0:0:0:
183,43,27111,1,2,0:0:0:0:
184,54,27222,1,0,0:0:0:0:
186,69,27333,2,0,L|277:84,1,76.4999976654053,4|0,0:0|0:0,0:0:0:0:
342,44,27777,1,0,1:0:0:0:
305,162,27999,2,0,P|339:139|391:134,1,76.4999976654053,2|0,0:0|0:0,0:0:0:0:
437,280,28333,1,0,0:0:0:0:
433,269,28444,6,0,P|396:250|359:239,1,68,2|0,0:0|0:0,0:0:0:0:
137,327,28888,1,0,0:0:0:0:
139,293,28999,1,0,0:0:0:0:
142,259,29110,1,8,0:0:0:0:
145,225,29221,1,0,0:0:0:0:
148,191,29333,2,0,P|141:152|128:125,1,68,8|2,0:0|0:0,0:0:0:0:
213,5,29666,1,0,0:0:0:0:
218,17,29777,2,0,P|203:53|202:99,1,68,0|8,0:0|0:0,0:0:0:0:
361,192,30222,6,0,B|286:200|303:157|230:159,1,136,8|0,0:0|0:0,0:0:0:0:
169,312,30888,1,2,0:0:0:0:
175,300,30999,1,0,0:0:0:0:
181,280,31111,1,2,0:0:0:0:
184,253,31222,1,2,0:0:0:0:
178,219,31333,1,0,0:0:0:0:
163,195,31444,5,0,0:0:0:0:
155,175,31555,1,2,0:0:0:0:
154,158,31666,1,0,0:0:0:0:
156,144,31777,1,8,0:0:0:0:
158,130,31888,1,0,0:0:0:0:
164,117,31999,6,0,B|128:127|128:127|88:114,1,68,4|0,0:0|0:0,0:0:0:0:
10,212,32333,1,0,0:0:0:0:
22,206,32444,2,0,L|162:248,1,136,0|8,0:0|0:0,0:0:0:0:
376,357,33111,5,0,0:0:0:0:
369,225,33333,1,0,0:0:0:0:
455,326,33555,1,0,0:0:0:0:
322,295,33777,2,0,L|456:326,1,136,2|0,0:0|0:0,0:0:0:0:
451,243,34444,1,8,0:0:0:0:
454,325,34666,2,0,L|322:295,1,136,8|12,0:0|0:0,0:0:0:0:
219,342,35333,1,2,0:0:0:0:
202,347,35444,1,0,0:0:0:0:
186,352,35555,6,0,P|180:309|152:263,1,85,4|0,1:0|0:0,0:0:0:0:
88,179,35999,1,0,0:0:0:0:
37,345,36222,1,0,0:0:0:0:
160,275,36444,2,0,P|126:194|171:101,1,170,0|0,1:0|0:0,0:0:0:0:
235,109,37111,1,0,0:0:0:0:
306,205,37222,1,0,0:0:0:0:
306,205,37333,6,0,L|204:191,1,85,0|0,1:0|0:0,0:0:0:0:
375,258,37777,2,0,P|390:226|388:176,2,85,0|2|0,1:0|0:0|1:0,0:0:0:0:
296,289,38444,1,0,0:0:0:0:
434,93,38666,1,0,1:0:0:0:
414,130,38777,1,0,0:0:0:0:
378,150,38888,1,0,0:0:0:0:
336,149,38999,1,0,0:0:0:0:
301,125,39111,6,0,L|316:23,1,101.999996887207,4|0,1:2|0:0,0:0:0:0:
183,10,39444,1,0,0:0:0:0:
171,4,39555,2,0,L|184:101,1,85,0|2,1:0|0:0,0:0:0:0:
58,177,39888,1,0,0:0:0:0:
58,177,39999,2,0,B|161:167|118:219|238:205,1,170,2|0,1:2|0:0,0:0:0:0:
321,242,40666,1,2,0:0:0:0:
171,364,40888,6,0,B|193:327|237:325|237:325|291:380|368:350,1,203.999993774414,4|0,0:0|1:0,0:0:0:0:
420,188,41777,2,0,P|407:142|437:63,1,127.5,0|0,1:0|0:0,0:0:0:0:
512,48,42222,2,0,P|478:82|395:95,1,127.5,0|0,1:0|0:0,0:0:0:0:
353,18,42666,5,4,1:2:0:0:
83,223,42888,1,0,1:0:0:0:
422,210,43111,1,0,1:0:0:0:
139,20,43333,1,0,1:0:0:0:
258,340,43555,1,0,1:0:0:0:
258,340,43777,1,0,1:0:0:0:
353,18,43999,1,0,1:0:0:0:
83,223,44222,6,0,B|148:201|148:201|202:214,1,101.999996887207,4|0,0:0|0:0,0:0:0:0:
333,252,44666,2,0,P|339:227|341:194,1,42.5,0|0,1:0|0:0,0:0:0:0:
174,372,44888,2,0,P|170:348|171:315,1,42.5,0|0,1:0|0:0,0:0:0:0:
258,57,45111,2,0,P|256:29|250:-1,1,42.5,0|0,1:0|0:0,0:0:0:0:
75,271,46222,6,0,B|155:248|155:248|204:268,1,118.999996368408,4|0,1:0|0:0,0:0:0:0:
317,361,46555,1,2,0:0:0:0:
371,312,46666,2,0,L|230:328,1,118.999996368408,8|2,1:2|0:0,0:0:0:0:
422,219,47111,1,0,1:0:0:0:
433,369,47333,2,0,P|449:344|453:308,1,59.4999981842042,2|0,0:0|0:0,0:0:0:0:
268,169,47555,2,0,P|304:214|354:223,1,59.4999981842042,8|0,1:2|0:0,0:0:0:0:
512,117,47777,2,0,P|454:125|416:167,1,59.4999981842042,2|0,0:0|0:0,0:0:0:0:
433,369,47999,6,0,L|295:339,1,118.999996368408,4|2,1:2|0:0,0:0:0:0:
209,290,48333,1,0,0:0:0:0:
209,290,48444,2,0,B|80:305,1,118.999996368408,8|2,1:2|0:0,0:0:0:0:
6,138,48888,2,0,P|50:156|102:216,1,118.999996368408,0|0,1:0|0:0,0:0:0:0:
209,290,49222,1,0,0:0:0:0:
209,290,49333,2,0,P|208:231|244:156,1,118.999996368408,8|2,1:2|0:0,0:0:0:0:
361,102,49777,6,0,P|331:84|314:52,1,59.4999981842042,4|0,1:0|0:0,0:0:0:0:
376,0,49999,2,0,P|389:68|351:107,1,118.999996368408,2|8,0:0|1:2,0:0:0:0:
81,223,50444,2,0,L|140:216,1,59.4999981842042,2|0,0:0|0:0,0:0:0:0:
224,223,50666,2,0,L|106:237,1,118.999996368408,4|0,1:2|0:0,0:0:0:0:
288,280,51111,1,8,1:2:0:0:
359,95,51333,1,2,0:0:0:0:
338,341,51555,6,0,L|325:218,1,118.999996368408,4|2,1:2|0:0,0:0:0:0:
469,130,51888,1,0,0:0:0:0:
469,130,51999,2,0,P|417:99|330:105,1,118.999996368408,8|10,1:2|0:0,0:0:0:0:
257,203,52444,1,0,1:0:0:0:
180,52,52666,1,10,0:0:0:0:
340,367,52888,1,8,1:2:0:0:
103,289,53111,1,2,0:0:0:0:
418,130,53333,6,0,B|368:121|368:121|306:150,1,118.999996368408,4|0,1:0|0:0,0:0:0:0:
233,214,53666,1,0,0:0:0:0:
209,114,53777,2,0,L|227:244,1,118.999996368408,8|2,1:2|0:0,0:0:0:0:
148,338,54222,2,0,B|199:343|199:343|216:356|216:356|271:364,1,118.999996368408,0|2,1:0|0:0,0:0:0:0:
390,298,54555,1,0,0:0:0:0:
390,298,54666,2,0,P|355:300|324:311,1,59.4999981842042,10|0,1:2|0:0,0:0:0:0:
163,236,54888,2,0,P|198:234|229:223,1,59.4999981842042,2|0,0:0|0:0,0:0:0:0:
375,93,55111,6,0,B|329:87|304:43|304:43|326:51|347:48,1,118.999996368408,6|0,1:2|0:0,0:0:0:0:
204,4,55444,1,0,0:0:0:0:
204,4,55555,2,0,P|211:50|186:129,1,118.999996368408,8|2,1:2|0:0,0:0:0:0:
35,186,55999,2,0,L|177:203,1,118.999996368408,0|2,1:0|0:0,0:0:0:0:
219,140,56333,1,0,0:0:0:0:
219,140,56444,2,0,P|238:171|240:211,1,59.4999981842042,8|0,1:2|0:0,0:0:0:0:
169,328,56666,2,0,P|186:296|219:274,1,59.4999981842042,0|2,0:0|0:0,0:0:0:0:
360,281,56888,6,0,P|332:278|293:259,1,59.4999981842042,4|0,1:2|0:0,0:0:0:0:
275,367,57111,2,0,P|306:323|401:299,1,118.999996368408,2|8,0:0|1:2,0:0:0:0:
413,162,57555,2,0,P|450:165|479:151,1,59.4999981842042,2|0,0:0|0:0,0:0:0:0:
356,71,57777,2,0,P|365:124|428:165,1,118.999996368408,4|2,1:2|0:0,0:0:0:0:
360,279,58222,1,8,1:2:0:0:
436,83,58444,1,2,0:0:0:0:
260,252,58666,6,0,L|391:267,1,118.999996368408,4|0,1:0|0:0,0:0:0:0:
219,329,58999,1,0,0:0:0:0:
219,329,59111,2,0,L|88:314,1,118.999996368408,8|0,1:2|3:0,0:0:0:0:
25,172,59555,1,0,1:0:0:0:
155,365,59777,1,0,0:0:0:0:
193,71,59999,1,8,1:2:0:0:
90,279,60221,1,0,0:0:0:0:
300,105,60444,6,0,L|190:83,1,101.999996887207,4|2,1:0|0:0,0:0:0:0:
297,197,60777,1,0,0:0:0:0:
297,197,60888,2,0,P|345:186|386:147,1,101.999996887207,8|2,1:2|0:0,0:0:0:0:
432,27,61222,1,0,0:0:0:0:
432,27,61333,2,0,L|436:86,1,50.9999984436036,0|0,1:0|0:0,0:0:0:0:
507,199,61555,2,0,L|503:258,1,50.9999984436036,2|0,0:0|0:0,0:0:0:0:
416,364,61777,1,8,1:2:0:0:
339,288,61999,1,2,0:0:0:0:
174,338,62222,6,0,P|231:360|293:349,1,101.999996887207,0|2,1:0|0:0,0:0:0:0:
339,288,62555,1,0,0:0:0:0:
343,275,62666,2,0,P|306:296|273:359,1,101.999996887207,8|2,1:2|0:0,0:0:0:0:
405,213,63111,2,0,L|396:157,1,50.9999984436036,0|0,1:0|0:0,0:0:0:0:
432,89,63333,1,2,0:0:0:0:
282,211,63555,1,8,1:2:0:0:
242,28,63777,1,2,0:0:0:0:
173,261,63999,6,0,L|117:273,1,50.9999984436036,4|0,1:2|0:0,0:0:0:0:
59,366,64222,2,0,P|92:320|81:241,1,101.999996887207,2|0,0:0|0:0,0:0:0:0:
19,125,64666,2,0,P|66:187|78:94,1,203.999993774414,2|2,0:0|0:0,0:0:0:0:
233,14,65333,2,0,L|221:130,1,101.999996887207,8|0,1:2|0:0,0:0:0:0:
372,209,65666,1,0,0:0:0:0:
372,209,65777,6,0,P|327:180|271:174,1,101.999996887207,4|0,1:2|0:0,0:0:0:0:
236,342,66222,2,0,P|258:296|297:264,1,101.999996887207,8|2,1:2|0:0,0:0:0:0:
457,313,66666,2,0,B|389:301|389:301|353:323,1,101.999996887207,0|2,1:0|0:0,0:0:0:0:
194,173,67111,2,0,B|262:161|262:161|303:186,1,101.999996887207,8|0,1:2|0:0,0:0:0:0:
145,288,67555,5,4,1:0:0:0:
102,47,67777,1,10,0:0:0:0:
55,364,67999,1,0,1:0:0:0:
94,142,68222,2,0,B|171:140|171:140|193:158|193:158|303:180,1,203.999993774414,6|2,0:0|0:0,0:0:0:0:
401,89,68888,1,2,0:0:0:0:
372,332,69111,6,0,P|334:272|360:117,1,203.999993774414,4|10,1:0|0:0,0:0:0:0:
226,312,69777,1,0,1:0:0:0:
118,278,69999,2,0,L|237:296,1,101.999996887207,2|0,0:0|1:0,0:0:0:0:
71,348,70444,1,10,0:0:0:0:
78,187,70666,2,0,P|110:233|115:296,1,101.999996887207,8|2,1:2|0:0,0:0:0:0:
1,141,71111,5,4,1:0:0:0:
299,186,71333,1,0,1:0:0:0:
117,277,71555,1,8,0:0:0:0:
229,63,71777,2,0,B|199:175|279:143|251:260,1,203.999993774414,4|10,0:0|0:0,0:0:0:0:
198,358,72444,1,8,1:2:0:0:
475,366,72666,6,0,B|390:348|390:348|359:358|359:358|258:332,1,203.999993774414,4|2,1:0|0:0,0:0:0:0:
165,207,73333,1,0,1:0:0:0:
169,44,73555,2,0,B|171:94|220:127|220:127|273:165|256:240,1,203.999993774414,4|10,0:0|0:0,0:0:0:0:
205,305,74222,2,0,P|233:260|283:236,1,101.999996887207,8|2,1:2|0:0,0:0:0:0:
408,318,74666,5,4,1:0:0:0:
348,38,74888,1,0,1:0:0:0:
205,305,75111,1,8,0:0:0:0:
250,92,75333,2,0,B|305:145|292:228|292:228|273:197|233:187,1,203.999993774414,4|0,1:2|1:0,0:0:0:0:
205,305,75999,1,2,0:0:0:0:
18,250,76222,2,0,B|141:231|90:305|231:284,1,203.999993774414,4|8,1:2|1:2,0:0:0:0:
329,315,76888,1,2,0:0:0:0:
280,203,77111,2,0,B|327:233|335:287|335:287|358:235|420:226,1,203.999993774414,4|8,1:2|1:2,0:0:0:0:
493,291,77777,2,0,P|514:258|503:178,1,101.999996887207,8|2,0:0|0:0,0:0:0:0:
283,103,78222,5,4,1:0:0:0:
508,36,78444,1,2,0:0:0:0:
134,173,78666,1,8,1:2:0:0:
365,242,78888,1,2,0:0:0:0:
149,368,79111,5,0,1:0:0:0:
127,43,79333,1,2,0:0:0:0:
230,316,79555,1,8,1:2:0:0:
283,103,79777,1,2,0:0:0:0:
424,351,79999,2,0,B|303:370|351:280|203:305,1,203.999993774414,4|0,1:0|1:0,0:0:0:0:
108,347,80666,1,2,0:0:0:0:
119,330,80777,1,0,0:0:0:0:
124,309,80888,2,0,L|116:203,1,101.999996887207,0|2,1:0|0:0,0:0:0:0:
16,146,81222,1,0,0:0:0:0:
16,146,81333,2,0,P|23:123|39:97,1,50.9999984436036,0|0,0:0|0:0,0:0:0:0:
32,22,81555,2,0,P|55:16|85:17,1,50.9999984436036,2|0,0:0|0:0,0:0:0:0:
227,115,81777,6,0,P|212:177|294:128,3,203.999993774414,0|0|0|0,1:0|1:0|1:0|1:0,0:0:0:0:
270,312,83555,6,0,P|309:282|376:258,1,101.999996887207,4|2,1:0|0:0,0:0:0:0:
471,316,83999,1,0,1:0:0:0:
372,102,84222,2,0,B|404:127|402:175|402:175|353:231|385:312,1,203.999993774414,6|2,0:0|1:2,0:0:0:0:
270,312,84888,1,0,0:0:0:0:
99,207,85111,6,0,B|74:253|120:299|120:299|181:268|165:210,1,203.999993774414,4|0,0:0|1:0,0:0:0:0:
147,87,85777,1,4,1:2:0:0:
147,87,85999,2,0,B|255:61|224:147|346:114,1,203.999993774414,2|8,1:2|1:2,0:0:0:0:
432,35,86666,1,8,0:0:0:0:
432,35,86888,1,2,0:0:0:0:
