osu file format v14

[General]
AudioFilename: audio.ogg
AudioLeadIn: 0
PreviewTime: 198
Countdown: 0
SampleSet: Normal
StackLeniency: 0.7
Mode: 1
LetterboxInBreaks: 0
WidescreenStoryboard: 1

[Editor]
DistanceSpacing: 0.1
BeatDivisor: 4
GridSize: 32
TimelineZoom: 0.8

[Metadata]
Title:Ballin'
TitleUnicode:Ballin'
Artist:Snipo
ArtistUnicode:Snipo
Creator:cdh
Version:Hardcore
Source:
Tags:ブルーアーカイブ -Blue Archive- ブルアカ buruaka nat games nexon yostar rap Tendou Aris 天童アリス alice arisu mustard roddy ricch rich hip hop english novelty diff svc ai short cover version
BeatmapID:4101683
BeatmapSetID:1976179

[Difficulty]
HPDrainRate:9
CircleSize:5
OverallDifficulty:4
ApproachRate:5
SliderMultiplier:1.4
SliderTickRate:1

[Events]
//Background and Video events
0,0,"arispoint.png",0,100
//Break Periods
//Storyboard Layer 0 (Background)
//Storyboard Layer 1 (Fail)
//Storyboard Layer 2 (Pass)
//Storyboard Layer 3 (Foreground)
//Storyboard Layer 4 (Overlay)
//Storyboard Sound Samples

[TimingPoints]
972,618.556701030928,4,1,0,75,1,0
10714,-100,4,1,0,90,0,0
20688,-100,4,1,0,75,0,0

[HitObjects]
248,199,972,5,0,0:0:0:0:
256,192,1435,1,0,0:0:0:0:
261,198,1590,1,8,0:0:0:0:
256,192,1899,1,0,0:0:0:0:
256,192,2209,1,0,0:0:0:0:
256,192,2673,1,0,0:0:0:0:
256,192,2827,1,8,0:0:0:0:
292,209,3136,1,0,0:0:0:0:
288,192,3600,1,0,0:0:0:0:
288,192,3910,1,8,0:0:0:0:
288,192,4219,1,0,0:0:0:0:
288,192,4374,1,0,0:0:0:0:
318,211,4683,1,8,0:0:0:0:
320,192,5147,1,0,0:0:0:0:
306,203,5301,1,8,0:0:0:0:
300,199,5611,1,8,0:0:0:0:
295,193,5920,1,0,0:0:0:0:
320,192,6384,1,0,0:0:0:0:
308,193,6539,1,8,0:0:0:0:
320,192,6848,1,0,0:0:0:0:
321,198,7157,1,0,0:0:0:0:
320,192,7621,1,0,0:0:0:0:
334,200,7776,1,8,0:0:0:0:
340,201,8085,1,8,0:0:0:0:
340,201,8394,1,0,0:0:0:0:
320,192,8858,1,0,0:0:0:0:
346,201,9013,1,8,0:0:0:0:
352,192,9322,1,0,0:0:0:0:
353,204,9631,1,0,0:0:0:0:
352,192,9786,1,0,0:0:0:0:
352,192,9941,1,8,0:0:0:0:
325,197,10095,1,8,0:0:0:0:
352,192,10250,1,0,0:0:0:0:
352,192,10559,1,8,0:0:0:0:
325,197,10868,1,4,0:0:0:0:
325,197,11178,1,0,0:0:0:0:
320,192,11332,1,0,0:0:0:0:
312,191,11487,1,8,0:0:0:0:
312,191,11796,1,0,0:0:0:0:
312,191,12260,1,8,0:0:0:0:
320,192,12569,1,0,0:0:0:0:
320,192,12879,1,8,0:0:0:0:
320,192,13033,1,8,0:0:0:0:
320,192,13188,1,0,0:0:0:0:
323,198,13343,1,0,0:0:0:0:
320,192,13652,1,8,0:0:0:0:
320,192,13807,1,0,0:0:0:0:
327,211,13961,1,8,0:0:0:0:
327,211,14270,1,8,0:0:0:0:
320,192,14734,1,0,0:0:0:0:
320,192,15044,1,8,0:0:0:0:
352,192,15353,1,8,0:0:0:0:
320,192,15508,1,0,0:0:0:0:
320,192,15662,1,0,0:0:0:0:
360,208,15817,1,8,0:0:0:0:
352,192,16126,1,0,0:0:0:0:
373,211,16281,1,0,0:0:0:0:
373,211,16435,1,8,0:0:0:0:
379,212,16745,1,8,0:0:0:0:
384,192,17209,1,0,0:0:0:0:
399,209,17518,1,8,0:0:0:0:
384,224,17827,1,8,0:0:0:0:
384,224,18136,1,0,0:0:0:0:
399,209,18446,1,8,0:0:0:0:
399,209,18600,1,8,0:0:0:0:
384,224,18755,1,0,0:0:0:0:
384,224,18910,1,8,0:0:0:0:
399,209,19219,1,8,0:0:0:0:
399,209,19837,1,0,0:0:0:0:
384,224,20147,1,8,0:0:0:0:
384,224,20301,1,8,0:0:0:0:
384,224,20456,5,0,0:0:0:0:
384,224,20611,1,0,0:0:0:0:
384,224,20765,1,8,0:0:0:0:
384,224,21075,1,0,0:0:0:0:
384,224,21384,1,8,0:0:0:0:
384,224,21693,1,8,0:0:0:0:
384,224,22312,1,0,0:0:0:0:
325,222,22621,1,8,0:0:0:0:
320,224,22776,1,0,0:0:0:0:
320,224,22930,1,8,0:0:0:0:
320,224,23085,1,8,0:0:0:0:
320,224,23240,1,0,0:0:0:0:
320,224,23549,1,0,0:0:0:0:
320,224,23858,1,8,0:0:0:0:
298,213,24167,1,8,0:0:0:0:
288,192,24786,1,0,0:0:0:0:
288,192,25095,1,8,0:0:0:0:
288,192,25250,1,0,0:0:0:0:
288,192,25404,5,0,0:0:0:0:
288,192,25559,1,0,0:0:0:0:
288,192,25714,1,8,0:0:0:0:
288,192,26023,1,0,0:0:0:0:
288,192,26332,1,8,0:0:0:0:
288,192,26642,1,8,0:0:0:0:
288,192,27106,1,0,0:0:0:0:
288,192,27260,1,0,0:0:0:0:
320,192,27569,1,8,0:0:0:0:
320,192,27879,1,0,0:0:0:0:
320,192,28033,1,8,0:0:0:0:
320,192,28188,1,0,0:0:0:0:
320,192,28497,1,8,0:0:0:0:
320,192,28652,1,0,0:0:0:0:
320,192,28961,1,0,0:0:0:0:
320,192,29116,1,8,0:0:0:0:
266,184,29580,1,0,0:0:0:0:
320,192,29734,1,8,0:0:0:0:
320,192,29889,1,8,0:0:0:0:
320,192,30044,1,0,0:0:0:0:
320,192,30353,1,8,0:0:0:0:
352,192,30662,1,0,0:0:0:0:
352,192,30972,1,0,0:0:0:0:
352,192,31281,1,8,0:0:0:0:
352,192,31435,1,0,0:0:0:0:
352,192,31590,1,8,0:0:0:0:
352,192,31899,1,8,0:0:0:0:
352,192,32209,1,0,0:0:0:0:
352,192,32518,1,8,0:0:0:0:
352,192,32673,1,0,0:0:0:0:
352,192,32827,1,0,0:0:0:0:
352,192,33136,1,8,0:0:0:0:
352,192,33446,1,0,0:0:0:0:
352,192,33755,1,8,0:0:0:0:
352,192,33910,1,0,0:0:0:0:
352,192,34064,1,8,0:0:0:0:
352,192,34373,1,8,0:0:0:0:
352,192,34683,1,0,0:0:0:0:
352,192,34837,1,0,0:0:0:0:
352,192,34992,1,8,0:0:0:0:
352,192,35301,1,0,0:0:0:0:
352,192,35611,1,8,0:0:0:0:
352,192,35765,1,8,0:0:0:0:
352,192,35920,1,0,0:0:0:0:
352,192,36229,1,0,0:0:0:0:
352,192,36538,1,8,0:0:0:0:
352,192,36847,1,0,0:0:0:0:
352,192,37312,1,0,0:0:0:0:
352,192,37466,1,0,0:0:0:0:
352,192,37621,1,0,0:0:0:0:
352,192,37776,1,8,0:0:0:0:
352,192,38085,1,0,0:0:0:0:
352,192,38549,1,8,0:0:0:0:
352,192,38703,1,0,0:0:0:0:
352,192,38858,1,0,0:0:0:0:
352,192,39013,1,8,0:0:0:0:
352,192,39322,1,0,0:0:0:0:
