osu file format v14

[General]
AudioFilename: audio.mp3
AudioLeadIn: 0
PreviewTime: 54569
Countdown: 0
SampleSet: Normal
StackLeniency: 0.5
Mode: 0
LetterboxInBreaks: 0
WidescreenStoryboard: 1

[Editor]
Bookmarks: 21954,32926,43897,54869,65840,76812,87783,98754,109726,120697
DistanceSpacing: 1
BeatDivisor: 4
GridSize: 8
TimelineZoom: 2.800003

[Metadata]
Title:Deep in the Night (Muzzy Remix)
TitleUnicode:Deep in the Night (Muzzy Remix)
Artist:Snails & Pegboard Nerds
ArtistUnicode:Snails & Pegboard Nerds
Creator:Silomare
Version:Skite59's Insane
Source:
Tags:Monstercat Skite59 SacredSage
BeatmapID:1562784
BeatmapSetID:738383

[Difficulty]
HPDrainRate:5
CircleSize:4
OverallDifficulty:7.5
ApproachRate:9
SliderMultiplier:1.6
SliderTickRate:1

[Events]
//Background and Video events
0,0,"coolpicture.png",0,0
//Break Periods
//Storyboard Layer 0 (Background)
//Storyboard Layer 1 (Fail)
//Storyboard Layer 2 (Pass)
//Storyboard Layer 3 (Foreground)
//Storyboard Sound Samples

[TimingPoints]
12,342.857142857143,4,1,1,70,1,0
21954,-200,4,1,1,70,0,0
27097,-100,4,1,1,70,0,0
27440,-133.333333333333,4,1,1,70,0,0
32583,-100,4,1,1,70,0,0
41154,-200,4,1,1,70,0,0
42526,-133.333333333333,4,1,1,70,0,0
42869,-100,4,1,1,70,0,0
43212,-80,4,1,1,70,0,0
43554,-66.6666666666667,4,1,1,70,0,0
43897,-100,4,1,1,70,0,0
49383,-133.333333333333,4,1,1,70,0,0
54869,-66.6666666666667,4,1,1,80,0,1
71326,-66.6666666666667,4,1,1,80,0,0
72697,-55.5555555555556,4,1,1,80,0,0
73040,-66.6666666666667,4,1,1,80,0,0
76812,-50,4,1,1,80,0,1
87783,-50,4,1,1,70,0,0
93612,-50,4,1,1,70,0,1
94469,-100,4,1,1,70,0,1
97383,-133.333333333333,4,1,1,70,0,1
98412,-66.6666666666667,4,1,1,70,0,1
98754,-50,4,1,1,70,0,0
109726,-66.6666666666667,4,1,1,70,0,0
117954,-100,4,1,1,70,0,0

[Colours]
Combo1 : 255,0,0
Combo2 : 255,255,0
Combo3 : 255,20,180
Combo4 : 0,255,0

[HitObjects]
76,104,21954,6,2,L|108:80,1,40,2|2,0:0|0:0,0:0:0:0:
164,136,22297,2,0,L|202:124,2,40,0|0|0,0:0|0:0|0:0,0:0:0:0:
98,202,22812,1,0,0:0:0:0:
52,276,22983,2,0,L|14:288,1,40
119,346,23326,6,0,L|157:357,1,40,0|0,0:0|0:0,0:0:0:0:
194,253,23669,2,0,L|155:264,1,40
270,267,24012,2,0,L|308:278,1,40
330,178,24354,2,0,L|291:189,1,40
393,223,24697,6,0,L|431:234,1,40,0|0,0:0|0:0,0:0:0:0:
470,151,25040,2,0,L|431:154,1,40
443,76,25383,2,0,L|479:60,1,40,0|0,0:0|0:0,0:0:0:0:
368,101,25726,2,0,L|331:85,1,40,0|0,0:0|0:0,0:0:0:0:
255,49,26069,6,0,L|218:33,1,40,0|0,0:0|0:0,0:0:0:0:
241,141,26412,2,0,L|277:156,1,40,0|0,0:0|0:0,0:0:0:0:
164,104,26755,2,0,L|127:88,1,40,0|0,0:0|0:0,0:0:0:0:
172,192,27097,6,2,L|259:293,1,120,2|2,0:0|2:0,0:0:0:0:
266,357,27440,6,0,P|294:347|314:325,1,60.0000022888184
271,52,27783,2,0,P|243:62|224:85,1,60.0000022888184,0|0,0:0|0:0,0:0:0:0:
284,132,28126,2,0,P|317:122|358:139,1,60.0000022888184,0|0,0:0|0:0,0:0:0:0:
367,229,28469,2,0,P|345:209|316:204,1,60.0000022888184
308,283,28812,6,0,P|333:307|339:351,1,60.0000022888184,0|0,0:0|0:0,0:0:0:0:
225,292,29154,2,0,P|224:263|239:237,1,60.0000022888184
201,166,29497,2,0,P|172:186|160:229,1,60.0000022888184
203,86,29840,1,0,0:0:0:0:
104,132,30012,1,0,0:0:0:0:
68,231,30183,6,0,P|53:262|64:305,1,60.0000022888184,0|0,0:0|0:0,0:0:0:0:
134,270,30526,2,0,L|197:280,1,60.0000022888184,0|0,0:0|0:0,0:0:0:0:
279,266,30869,2,0,P|264:297|275:340,1,60.0000022888184,0|0,0:0|0:0,0:0:0:0:
345,305,31212,2,0,P|376:317|409:313,1,60.0000022888184,0|0,0:0|0:0,0:0:0:0:
387,239,31554,2,0,P|419:226|433:201,1,60.0000022888184,0|0,0:0|0:0,0:0:0:0:
360,168,31897,2,0,P|378:146|364:101,1,60.0000022888184,0|0,0:0|0:0,0:0:0:0:
304,111,32240,2,0,P|307:84|257:92,1,90.0000034332277,0|0,0:0|2:0,0:0:0:0:
239,217,32583,6,2,L|153:103,1,120,2|2,0:0|2:0,0:0:0:0:
42,52,32926,6,0,P|79:41|118:52,1,80
80,124,33269,2,0,L|68:216,2,80,0|0|0,0:0|0:0|0:0,0:0:0:0:
154,160,33783,1,0,0:0:0:0:
132,315,33954,2,0,L|144:223,1,80,0|0,0:0|0:0,0:0:0:0:
235,144,34297,6,0,L|223:236,1,80,0|0,0:0|0:0,0:0:0:0:
287,338,34640,2,0,L|299:246,1,80,0|0,0:0|0:0,0:0:0:0:
389,165,34983,2,0,L|377:257,1,80,0|0,0:0|0:0,0:0:0:0:
430,92,35326,2,0,P|384:81|336:98,1,80,0|0,0:0|0:0,0:0:0:0:
271,106,35669,6,0,P|231:113|193:103,1,80,0|0,0:0|0:0,0:0:0:0:
115,76,36012,2,0,P|69:65|21:82,1,80,0|0,0:0|0:0,0:0:0:0:
73,148,36354,2,0,P|70:194|93:239,1,80,0|0,0:0|0:0,0:0:0:0:
228,172,36697,2,0,P|189:165|151:176,1,80
194,248,37040,6,0,P|191:294|214:339,1,80,0|0,0:0|0:0,0:0:0:0:
348,274,37383,2,0,P|309:267|271:278,1,80
414,321,37726,2,0,P|428:284|424:245,1,80,0|0,0:0|0:0,0:0:0:0:
402,79,38069,2,0,P|388:116|392:155,1,80,0|0,0:0|0:0,0:0:0:0:
424,245,38412,6,0,P|428:284|414:321,1,80,0|0,0:0|0:0,0:0:0:0:
348,274,38754,2,0,P|309:267|271:278,1,80,0|0,0:0|0:0,0:0:0:0:
203,324,39097,2,0,P|189:287|194:248,1,80,0|0,0:0|0:0,0:0:0:0:
228,172,39440,2,0,P|189:165|151:176,1,80,0|0,0:0|0:0,0:0:0:0:
82,224,39783,6,0,P|68:187|73:148,1,80,0|0,0:0|0:0,0:0:0:0:
169,28,40126,2,0,P|132:44|107:75,1,80,0|0,0:0|0:0,0:0:0:0:
177,190,40469,2,0,P|170:151|182:113,1,80
284,129,40812,2,0,P|294:176|252:154,1,120,0|0,0:0|2:0,0:0:0:0:
346,76,41154,6,0,P|364:227|303:260,1,240,0|0,0:0|2:0,0:0:0:0:
216,168,42526,6,2,P|201:189|177:201,1,30.0000011444092
86,191,42697,2,2,P|89:175|99:162,1,30.0000011444092
235,164,42869,2,2,P|215:191|184:206,1,40
66,194,43040,2,2,P|69:173|82:156,1,40
260,160,43212,2,2,P|234:195|194:215,1,50
41,198,43383,2,2,P|46:171|62:149,1,50
293,154,43554,2,2,P|260:200|207:226,1,60.0000022888184
9,204,43726,2,2,P|15:168|39:135,1,60.0000022888184
156,154,43897,5,0,0:0:0:0:
169,116,44069,1,0,0:0:0:0:
183,78,44240,2,0,L|212:2,1,80
297,88,44583,1,0,0:0:0:0:
284,125,44754,1,0,0:0:0:0:
270,163,44926,2,0,L|241:239,1,80
360,220,45269,1,0,0:0:0:0:
374,182,45440,1,0,0:0:0:0:
387,145,45612,2,0,L|416:69,1,80
297,88,45954,5,0,0:0:0:0:
284,125,46125,1,0,0:0:0:0:
270,163,46297,2,0,L|241:239,1,80
143,191,46640,5,0,0:0:0:0:
156,154,46811,1,0,0:0:0:0:
169,116,46983,2,0,L|198:40,1,80
52,229,47326,5,0,0:0:0:0:
143,191,47497,1,0,0:0:0:0:
132,283,47669,1,0,0:0:0:0:
55,214,47840,5,0,0:0:0:0:
153,201,48011,1,0,0:0:0:0:
118,288,48183,1,0,0:0:0:0:
62,201,48354,5,0,0:0:0:0:
160,212,48525,1,0,0:0:0:0:
104,287,48697,1,0,0:0:0:0:
249,209,48869,1,0,0:0:0:0:
303,155,49040,1,0,0:0:0:0:
358,102,49212,1,0,0:0:0:0:
358,102,49383,5,0,0:0:0:0:
303,155,49554,1,0,0:0:0:0:
249,209,49726,2,0,L|216:296,1,60.0000022888184
82,262,50069,5,0,0:0:0:0:
137,208,50240,1,0,0:0:0:0:
191,155,50412,2,0,L|192:88,1,60.0000022888184
304,155,50754,5,0,0:0:0:0:
249,209,50925,1,0,0:0:0:0:
195,262,51097,2,0,L|194:329,1,60.0000022888184
310,271,51440,5,0,0:0:0:0:
364,218,51611,1,0,0:0:0:0:
419,164,51783,2,0,L|496:152,1,60.0000022888184
358,102,52126,5,0,0:0:0:0:
348,88,52211,1,0,0:0:0:0:
336,76,52297,1,0,0:0:0:0:
323,67,52383,1,0,0:0:0:0:
308,60,52468,1,0,0:0:0:0:
292,56,52554,1,0,0:0:0:0:
275,55,52640,1,0,0:0:0:0:
259,57,52725,1,0,0:0:0:0:
243,61,52811,5,0,0:0:0:0:
228,69,52897,1,0,0:0:0:0:
215,79,52983,1,0,0:0:0:0:
204,91,53068,1,0,0:0:0:0:
195,105,53154,1,0,0:0:0:0:
189,120,53240,1,0,0:0:0:0:
185,136,53325,1,0,0:0:0:0:
185,152,53411,1,0,0:0:0:0:
188,168,53497,6,0,L|156:208,5,30.0000011444092,0|0|0|0|0|0,0:0|0:0|0:0|0:0|0:0|0:0,0:0:0:0:
35,311,54012,1,0,0:0:0:0:
245,252,54183,1,4,0:3:0:0:
91,245,54354,1,4,0:3:0:0:
294,317,54526,1,0,0:0:0:0:
169,191,54697,1,0,0:0:0:0:
248,128,54869,6,0,P|199:91|128:95,1,120.000004577637
169,191,55212,1,8,0:0:0:0:
94,275,55383,1,0,0:0:0:0:
180,207,55554,1,0,0:0:0:0:
120,310,55725,1,0,0:0:0:0:
169,191,55897,1,8,0:0:0:0:
155,338,56068,1,0,0:0:0:0:
283,362,56240,6,0,P|343:365|401:324,1,120.000004577637
319,272,56583,1,8,0:0:0:0:
344,155,56754,1,0,0:0:0:0:
308,259,56925,1,0,0:0:0:0:
303,139,57096,1,0,0:0:0:0:
294,249,57269,2,0,L|204:344,1,120.000004577637,8|0,0:0|0:0,0:0:0:0:
137,360,57612,6,0,L|219:272,1,120.000004577637,4|0,0:0|0:0,0:0:0:0:
264,143,57954,1,8,0:0:0:0:
146,116,58126,1,0,0:0:0:0:
250,139,58297,1,0,0:0:0:0:
129,143,58469,1,0,0:0:0:0:
236,139,58640,1,8,0:0:0:0:
121,175,58812,1,0,0:0:0:0:
236,139,58983,5,0,0:0:0:0:
354,112,59155,1,0,0:0:0:0:
249,135,59326,1,8,0:0:0:0:
370,140,59498,1,0,0:0:0:0:
263,135,59669,1,0,0:0:0:0:
379,171,59841,1,0,0:0:0:0:
277,141,60012,2,0,L|146:128,1,120.000004577637,8|0,0:0|0:0,0:0:0:0:
27,33,60355,2,0,L|154:49,1,120.000004577637,4|0,0:0|0:0,0:0:0:0:
345,73,60697,5,8,0:0:0:0:
430,158,60869,1,0,0:0:0:0:
310,158,61040,1,0,0:0:0:0:
224,243,61212,1,0,0:0:0:0:
343,243,61383,1,8,0:0:0:0:
427,327,61554,1,0,0:0:0:0:
306,327,61726,6,0,P|240:324|184:360,1,120.000004577637
79,314,62069,1,8,0:0:0:0:
37,201,62240,1,0,0:0:0:0:
148,117,62412,1,0,0:0:0:0:
253,197,62583,1,0,0:0:0:0:
235,74,62754,2,0,P|297:51|366:60,1,120.000004577637,8|0,0:0|0:0,0:0:0:0:
369,179,63097,6,0,P|306:201|237:192,1,120.000004577637,4|0,0:0|0:0,0:0:0:0:
369,179,63440,1,8,0:0:0:0:
326,289,63612,1,0,0:0:0:0:
253,197,63783,1,0,0:0:0:0:
159,328,63954,6,0,P|127:336|101:329,2,60.0000022888184,0|0|8,0:0|0:0|0:0,0:0:0:0:
162,333,64297,1,0,0:0:0:0:
253,197,64468,1,0,0:0:0:0:
116,152,64640,2,0,P|105:123|114:89,2,60.0000022888184,0|0|8,0:0|0:0|0:0,0:0:0:0:
116,152,64983,1,0,0:0:0:0:
253,197,65154,5,6,0:0:0:0:
329,156,65326,1,6,0:0:0:0:
269,235,65497,1,10,0:0:0:0:
299,118,65669,1,6,0:0:0:0:
189,72,65840,6,0,L|68:112,1,120.000004577637,4|0,0:0|0:0,0:0:0:0:
75,230,66183,1,8,0:0:0:0:
159,314,66354,2,0,P|180:330|227:345,2,60.0000022888184
327,224,66697,2,0,P|293:225|261:239,1,60.0000022888184
422,174,66869,2,0,P|443:158|466:114,2,60.0000022888184,8|0|0,0:0|0:0|0:0,0:0:0:0:
328,97,67212,5,0,0:0:0:0:
208,97,67383,1,0,0:0:0:0:
123,181,67554,2,0,P|111:214|85:243,2,60.0000022888184,8|0|0,0:0|0:0|0:0,0:0:0:0:
208,266,67897,2,0,P|207:288|231:333,2,60.0000022888184,0|0|0,0:0|0:0|0:0,0:0:0:0:
328,266,68240,2,0,L|422:339,1,120.000004577637,8|0,0:0|0:0,0:0:0:0:
493,357,68583,6,0,L|398:283,1,120.000004577637,4|0,0:0|0:0,0:0:0:0:
295,84,68926,1,8,0:0:0:0:
181,45,69097,1,0,0:0:0:0:
203,163,69269,1,0,0:0:0:0:
295,84,69440,1,0,0:0:0:0:
181,45,69612,1,8,0:0:0:0:
203,163,69783,1,0,0:0:0:0:
295,84,69954,5,0,0:0:0:0:
325,73,70039,1,0,0:0:0:0:
358,75,70125,1,0,0:0:0:0:
387,90,70211,1,0,0:0:0:0:
408,116,70296,1,8,0:0:0:0:
331,172,70469,5,0,0:0:0:0:
415,256,70640,1,4,0:3:0:0:
331,172,70812,1,4,0:3:0:0:
286,282,70983,1,4,0:3:0:0:
218,186,71154,1,4,0:3:0:0:
132,271,71326,6,0,B|101:309|101:309|96:219|3:192,1,180.000006866455,0|0,0:0|2:0,0:0:0:0:
34,204,71669,1,8,0:0:0:0:
216,264,71840,2,0,P|195:209|143:183,1,120.000004577637
132,271,72183,1,8,0:0:0:0:
249,160,72354,2,0,P|190:151|141:184,1,120.000004577637,8|0,0:0|0:0,0:0:0:0:
180,364,72697,6,0,P|238:372|310:236,1,215.999993408203,0|0,0:0|2:0,0:0:0:0:
438,149,73040,1,8,0:0:0:0:
346,162,73211,2,0,P|354:103|398:65,1,120.000004577637
249,160,73554,1,8,0:0:0:0:
216,264,73726,2,0,L|120:187,1,120.000004577637,8|0,0:0|0:0,0:0:0:0:
56,151,74069,5,0,0:0:0:0:
131,37,74241,1,0,0:0:0:0:
122,188,74412,1,0,0:0:0:0:
67,75,74583,1,0,0:0:0:0:
203,34,74755,1,0,0:0:0:0:
182,154,74926,1,0,0:0:0:0:
276,42,75097,1,0,0:0:0:0:
360,127,75269,1,0,0:0:0:0:
276,42,75440,5,0,0:0:0:0:
318,85,75612,1,0,0:0:0:0:
360,127,75783,1,0,0:0:0:0:
360,246,75954,1,0,0:0:0:0:
128,263,76126,2,0,L|246:286,1,120.000004577637,0|0,0:0|0:0,0:0:0:0:
214,174,76469,2,0,L|97:152,1,120.000004577637
360,246,76812,5,4,0:0:0:0:
304,96,76983,1,2,0:0:0:0:
317,296,77154,1,10,0:0:0:0:
343,138,77325,1,2,0:0:0:0:
255,319,77497,1,2,0:0:0:0:
357,195,77668,1,2,0:0:0:0:
190,307,77840,1,10,0:0:0:0:
340,251,78011,1,2,0:0:0:0:
247,142,78183,6,0,P|268:208|200:205,1,160,4|2,0:0|0:0,0:0:0:0:
128,138,78526,1,10,0:0:0:0:
184,288,78697,1,2,0:0:0:0:
171,88,78868,1,2,0:0:0:0:
145,246,79039,1,2,0:0:0:0:
233,65,79211,1,10,0:0:0:0:
131,189,79382,1,2,0:0:0:0:
297,76,79554,6,0,B|304:56|304:56|382:63|402:124|402:124|371:134,1,160,4|0,0:0|0:0,0:0:0:0:
277,241,79897,1,10,0:0:0:0:
417,318,80069,1,2,0:0:0:0:
297,217,80240,1,2,0:0:0:0:
456,214,80412,1,2,0:0:0:0:
302,187,80583,1,10,0:0:0:0:
439,105,80755,1,2,0:0:0:0:
297,217,80926,5,2,0:0:0:0:
157,294,81098,1,2,0:0:0:0:
276,193,81269,1,10,0:0:0:0:
117,190,81441,1,2,0:0:0:0:
271,163,81612,1,2,0:0:0:0:
134,81,81784,1,2,0:0:0:0:
281,180,81954,1,10,0:0:0:0:
204,40,82126,1,2,0:0:0:0:
282,200,82297,6,0,L|356:352,1,160,4|0,0:0|0:0,0:0:0:0:
168,322,82640,1,10,0:0:0:0:
59,292,82812,1,2,0:0:0:0:
248,265,82983,1,2,0:0:0:0:
139,235,83155,1,2,0:0:0:0:
211,182,83326,1,10,0:0:0:0:
129,161,83498,1,2,0:0:0:0:
189,105,83669,5,4,0:0:0:0:
189,105,83840,1,2,0:0:0:0:
208,183,84012,1,10,0:0:0:0:
267,122,84183,1,2,0:0:0:0:
278,210,84354,1,2,0:0:0:0:
357,130,84526,1,2,0:0:0:0:
289,309,84697,1,10,0:0:0:0:
368,227,84869,1,2,0:0:0:0:
446,305,85040,6,0,L|476:120,1,160,4|0,0:0|0:0,0:0:0:0:
392,67,85383,1,10,0:0:0:0:
296,124,85554,1,2,0:0:0:0:
208,51,85726,1,2,0:0:0:0:
144,114,85897,1,2,0:0:0:0:
203,191,86069,5,10,0:0:0:0:
203,191,86240,1,2,0:0:0:0:
144,114,86412,5,2,0:0:0:0:
25,211,86583,1,2,0:0:0:0:
203,191,86754,1,10,0:0:0:0:
49,120,86926,1,2,0:0:0:0:
66,285,87097,1,2,0:0:0:0:
218,336,87269,1,2,0:0:0:0:
203,191,87440,1,10,0:0:0:0:
354,243,87612,1,2,0:0:0:0:
303,91,87783,6,0,P|245:44|133:70,1,160,0|0,0:0|0:0,0:0:0:0:
63,148,88126,2,0,P|121:195|233:169,1,160,8|0,0:0|0:0,0:0:0:0:
303,90,88469,6,0,P|335:71|383:72,3,80,0|0|0|0,0:0|0:0|0:0|0:0,0:0:0:0:
336,235,88812,2,0,B|404:296|404:296|360:153,1,240,8|0,0:0|0:0,0:0:0:0:
185,90,89154,2,0,P|147:72|104:68,1,80
131,149,89326,2,0,P|91:149|57:169,1,80,0|0,0:0|0:0,0:0:0:0:
113,228,89497,2,0,P|79:247|53:277,1,80,8|0,0:0|0:0,0:0:0:0:
134,307,89669,2,0,P|114:341|115:381,1,80,0|0,0:0|0:0,0:0:0:0:
193,361,89840,6,0,P|270:375|389:267,1,240,0|0,0:0|2:0,0:0:0:0:
434,214,90183,2,0,P|405:196|309:253,1,160,8|0,0:0|0:0,0:0:0:0:
373,118,90526,2,0,B|361:73|361:73|300:29|300:29|231:34,1,160,0|0,0:0|0:0,0:0:0:0:
188,40,90869,6,0,P|125:43|89:198,1,240,8|0,0:0|2:0,0:0:0:0:
223,260,91212,2,0,P|217:183|158:133,1,160
132,289,91554,2,0,P|170:338|318:279,1,240,8|0,0:0|2:0,0:0:0:0:
377,215,91897,2,0,P|344:197|303:194,3,80,0|0|0|0,0:0|0:0|0:0|0:0,0:0:0:0:
315,289,92239,2,0,P|373:312|471:187,1,240,8|0,0:0|0:0,0:0:0:0:
412,111,92583,5,0,0:0:0:0:
264,102,92754,1,0,0:0:0:0:
166,232,92926,1,8,0:0:0:0:
127,144,93097,1,0,0:0:0:0:
166,232,93269,5,0,0:0:0:0:
127,144,93440,1,0,0:0:0:0:
58,300,93612,1,2,0:0:0:0:
182,326,93783,1,2,0:0:0:0:
290,258,93954,1,2,0:0:0:0:
166,232,94126,5,2,0:0:0:0:
290,258,94297,1,2,0:0:0:0:
398,190,94469,2,0,L|459:134,1,80
290,258,94812,5,2,0:0:0:0:
166,232,94983,1,2,0:0:0:0:
290,258,95155,1,2,0:0:0:0:
182,326,95326,5,2,0:0:0:0:
58,300,95497,1,2,0:0:0:0:
182,326,95669,5,2,0:0:0:0:
166,232,95840,1,2,0:0:0:0:
182,326,96012,5,0,0:0:0:0:
195,336,96097,1,0,0:0:0:0:
210,343,96183,1,0,0:0:0:0:
226,348,96269,1,0,0:0:0:0:
242,350,96354,1,2,0:0:0:0:
258,349,96440,1,0,0:0:0:0:
275,345,96526,1,2,0:0:0:0:
290,338,96611,1,0,0:0:0:0:
304,329,96697,5,2,0:0:0:0:
315,317,96783,1,0,0:0:0:0:
325,303,96869,1,2,0:0:0:0:
331,288,96954,1,0,0:0:0:0:
336,272,97040,1,2,0:0:0:0:
337,256,97126,1,0,0:0:0:0:
336,240,97211,1,2,0:0:0:0:
331,224,97297,1,0,0:0:0:0:
323,210,97383,6,0,L|341:162,5,30.0000011444092
137,134,97898,1,0,0:0:0:0:
220,64,98069,1,0,0:0:0:0:
336,90,98240,1,0,0:0:0:0:
281,175,98412,6,0,P|212:184|270:222,1,180.000006866455,0|0,0:0|2:0,0:0:0:0:
194,298,98754,6,0,P|261:311|351:255,1,160,4|0,0:0|0:0,0:0:0:0:
408,203,99097,1,8,0:0:0:0:
372,46,99269,1,0,0:0:0:0:
372,46,99440,1,0,0:0:0:0:
295,187,99612,1,0,0:0:0:0:
142,235,99783,1,8,0:0:0:0:
142,235,99954,1,0,0:0:0:0:
211,109,100126,6,0,P|239:57|198:104,1,160
29,219,100469,1,8,0:0:0:0:
65,376,100641,1,0,0:0:0:0:
65,376,100812,1,0,0:0:0:0:
142,235,100984,1,0,0:0:0:0:
302,155,101154,6,0,P|357:173|295:166,1,160,8|0,0:0|0:0,0:0:0:0:
425,129,101497,6,0,P|414:243|309:287,1,240,4|0,0:0|2:0,0:0:0:0:
216,145,101840,2,0,P|262:81|339:65,1,160,8|0,0:0|0:0,0:0:0:0:
193,279,102183,1,0,0:0:0:0:
216,145,102354,1,0,0:0:0:0:
193,279,102526,2,0,P|122:244|93:171,1,160,8|0,0:0|0:0,0:0:0:0:
216,145,102869,5,0,0:0:0:0:
93,172,103040,1,0,0:0:0:0:
204,57,103212,1,8,0:0:0:0:
78,76,103383,1,0,0:0:0:0:
216,145,103554,1,0,0:0:0:0:
93,172,103725,1,0,0:0:0:0:
30,260,103897,6,0,P|11:279|80:260,1,240,8|0,0:0|2:0,0:0:0:0:
98,277,104240,6,4,B|215:293|206:183|294:144|229:319,1,240,4|0,0:0|2:0,0:0:0:0:
198,334,104583,2,0,P|294:334|317:239,1,160,8|0,0:0|0:0,0:0:0:0:
408,182,104926,1,0,0:0:0:0:
263,44,105097,1,0,0:0:0:0:
346,51,105269,1,8,0:0:0:0:
185,59,105440,1,0,0:0:0:0:
262,26,105612,1,0,0:0:0:0:
134,124,105783,5,0,0:0:0:0:
1,154,105954,1,8,0:0:0:0:
161,282,106125,1,0,0:0:0:0:
39,248,106297,1,0,0:0:0:0:
268,203,106468,1,0,0:0:0:0:
161,142,106640,6,0,P|103:128|165:128,1,160,8|0,0:0|0:0,0:0:0:0:
32,76,106983,6,0,P|126:12|228:65,1,240,4|0,0:0|2:0,0:0:0:0:
268,203,107326,1,8,0:0:0:0:
381,112,107497,6,0,P|413:104|465:122,2,80,0|0|0,0:0|0:0|0:0,0:0:0:0:
268,203,107840,2,0,P|248:177|196:160,2,80,0|0|8,0:0|0:0|0:0,0:0:0:0:
321,324,108183,1,0,0:0:0:0:
432,216,108354,1,0,0:0:0:0:
159,328,108526,2,0,P|127:336|75:318,2,80,0|0|8,0:0|0:0|0:0,0:0:0:0:
329,56,108869,2,0,P|361:48|413:66,2,80,0|0|0,0:0|0:0|0:0,0:0:0:0:
211,42,109212,1,0,0:0:0:0:
72,110,109383,1,8,0:0:0:0:
134,59,109554,1,0,0:0:0:0:
54,191,109726,6,0,P|51:258|119:314,1,120.000004577637
250,216,110069,2,0,L|131:229,1,120.000004577637,8|0,0:0|0:0,0:0:0:0:
313,289,110412,5,0,0:0:0:0:
334,177,110583,1,0,0:0:0:0:
336,268,110754,1,8,0:0:0:0:
327,154,110925,1,0,0:0:0:0:
404,116,111097,6,0,P|414:179|348:238,1,120.000004577637,0|0,0:0|0:0,0:0:0:0:
207,141,111440,2,0,L|327:154,1,120.000004577637,8|0,0:0|0:0,0:0:0:0:
144,214,111783,5,0,0:0:0:0:
123,102,111954,1,0,0:0:0:0:
121,193,112125,1,8,0:0:0:0:
130,79,112296,1,0,0:0:0:0:
53,41,112469,6,0,P|46:107|110:162,1,120.000004577637,0|0,0:0|0:0,0:0:0:0:
249,66,112812,2,0,L|130:79,1,120.000004577637,8|0,0:0|0:0,0:0:0:0:
312,139,113155,5,0,0:0:0:0:
333,27,113326,1,0,0:0:0:0:
335,118,113497,1,8,0:0:0:0:
326,4,113668,1,0,0:0:0:0:
434,176,113840,2,0,P|450:119|433:63,1,120.000004577637
242,191,114183,2,0,P|289:228|348:235,1,120.000004577637,8|0,0:0|0:0,0:0:0:0:
198,114,114526,2,0,P|151:78|93:72,1,120.000004577637,0|0,0:0|0:0,0:0:0:0:
56,251,114869,6,0,B|19:320|-15:243|115:166,1,180.000006866455,8|0,0:0|2:0,0:0:0:0:
224,319,115212,6,0,P|169:340|115:318,1,120.000004577637
228,189,115554,2,0,P|284:169|338:193,1,120.000004577637,8|0,0:0|0:0,0:0:0:0:
392,268,115897,2,0,P|337:289|283:267,1,120.000004577637
365,94,116240,1,8,0:0:0:0:
438,185,116412,1,0,0:0:0:0:
340,331,116583,6,0,P|280:353|221:323,1,120.000004577637,0|0,0:0|0:0,0:0:0:0:
117,206,116925,2,0,P|176:183|235:213,1,120.000004577637,8|0,0:0|0:0,0:0:0:0:
172,280,117268,2,0,P|112:302|53:272,1,120.000004577637,0|0,0:0|0:0,0:0:0:0:
17,198,117611,1,8,0:0:0:0:
90,107,117783,1,0,0:0:0:0:
203,98,117954,5,0,0:0:0:0:
203,98,118126,1,0,0:0:0:0:
203,98,118297,2,0,P|243:105|281:95,1,80,8|0,0:0|0:0,0:0:0:0:
429,51,118640,1,0,0:0:0:0:
429,51,118812,1,0,0:0:0:0:
429,51,118983,2,0,P|390:44|352:55,1,80,8|0,0:0|0:0,0:0:0:0:
329,241,119326,5,0,0:0:0:0:
396,154,119497,1,0,0:0:0:0:
216,218,119668,2,0,P|212:257|226:294,1,80,8|0,0:0|0:0,0:0:0:0:
282,134,120012,1,0,0:0:0:0:
329,241,120183,1,0,0:0:0:0:
398,326,120354,2,0,P|426:298|439:261,1,80,8|0,0:0|0:0,0:0:0:0:
396,154,120697,5,4,0:0:0:0:
