osu file format v14

[General]
AudioFilename: audio.mp3
AudioLeadIn: 0
PreviewTime: 54569
Countdown: 0
SampleSet: Normal
StackLeniency: 0.6
Mode: 0
LetterboxInBreaks: 0
WidescreenStoryboard: 1

[Editor]
Bookmarks: 21954,32926,43897,54869,65840,76812,87783,98754,109726,120697
DistanceSpacing: 1
BeatDivisor: 1
GridSize: 8
TimelineZoom: 1.500002

[Metadata]
Title:Deep in the Night (Muzzy Remix)
TitleUnicode:Deep in the Night (Muzzy Remix)
Artist:Snails & Pegboard Nerds
ArtistUnicode:Snails & Pegboard Nerds
Creator:Silomare
Version:Normal
Source:
Tags:Monstercat Skite59 SacredSage
BeatmapID:1561319
BeatmapSetID:738383

[Difficulty]
HPDrainRate:3
CircleSize:3
OverallDifficulty:3
ApproachRate:3
SliderMultiplier:1
SliderTickRate:1

[Events]
//Background and Video events
0,0,"coolpicture.png",0,0
//Break Periods
//Storyboard Layer 0 (Background)
//Storyboard Layer 1 (Fail)
//Storyboard Layer 2 (Pass)
//Storyboard Layer 3 (Foreground)
//Storyboard Sound Samples

[TimingPoints]
12,342.857142857143,4,1,1,70,1,0
21954,-100,4,1,1,70,0,0
54869,-90.9090909090909,4,1,1,80,0,1
71326,-90.9090909090909,4,1,1,80,0,0
76812,-90.9090909090909,4,1,1,80,0,1
87783,-100,4,1,1,70,0,0
93269,-90.9090909090909,4,1,1,70,0,1
98754,-100,4,1,1,70,0,0

[Colours]
Combo1 : 255,0,0
Combo2 : 255,255,0
Combo3 : 255,20,180
Combo4 : 0,255,0

[HitObjects]
94,65,21954,6,0,P|71:109|77:175,2,100
167,133,22983,1,0,0:0:0:0:
221,49,23326,2,0,L|360:71,1,100
373,148,24012,2,0,L|512:170,1,100
509,256,24697,6,0,P|494:303|443:345,2,100
408,251,25726,1,0,0:0:0:0:
360,345,26069,2,0,L|224:356,1,100
199,274,26754,1,0,0:0:0:0:
161,366,27097,1,0,0:0:0:0:
99,290,27440,6,0,P|103:240|144:188,2,100
199,274,28469,1,0,0:0:0:0:
229,176,28812,1,0,0:0:0:0:
160,101,29154,2,0,L|70:26,2,100
259,78,30183,6,0,P|317:62|383:82,1,100
415,148,30869,1,0,0:0:0:0:
318,172,31212,1,0,0:0:0:0:
241,235,31554,2,0,L|151:310,2,100
224,136,32583,1,0,0:0:0:0:
271,47,32926,6,0,B|406:35|406:35|488:60,1,200
418,140,33954,1,0,0:0:0:0:
470,225,34297,2,0,B|408:243|408:243|273:231,1,200
317,141,35326,1,0,0:0:0:0:
217,134,35669,6,0,P|162:220|193:311,1,200
285,336,36697,1,0,0:0:0:0:
382,313,37040,2,0,P|442:227|402:139,1,200
341,219,38069,1,0,0:0:0:0:
300,127,38412,6,0,B|279:79|279:79|226:66,1,100
134,88,39097,2,0,B|155:136|155:136|208:149,1,100
300,127,39783,2,0,L|430:86,2,100
258,35,40812,1,0,0:0:0:0:
165,72,41154,5,0,0:0:0:0:
33,340,42526,2,0,L|160:351,1,100
199,274,43212,2,0,L|99:265,1,100
94,165,43897,5,0,0:0:0:0:
178,111,44240,1,0,0:0:0:0:
262,165,44583,2,0,L|366:181,1,100
393,85,45269,1,0,0:0:0:0:
309,31,45612,1,0,0:0:0:0:
225,85,45955,2,0,L|121:69,1,100
46,129,46640,5,0,0:0:0:0:
33,228,46983,1,0,0:0:0:0:
72,319,47326,2,0,L|176:303,1,100
189,205,48012,1,0,0:0:0:0:
208,107,48354,1,0,0:0:0:0:
306,126,48697,1,0,0:0:0:0:
287,224,49040,1,0,0:0:0:0:
361,290,49383,6,0,L|446:249,2,50
266,321,50069,1,0,0:0:0:0:
171,352,50412,1,0,0:0:0:0:
76,321,50754,2,0,L|-9:280,2,50
150,254,51440,1,0,0:0:0:0:
181,159,51783,1,0,0:0:0:0:
256,192,52126,12,0,54183,0:0:0:0:
159,93,54869,6,0,P|128:145|186:216,1,110.000003356934,4|8,0:0|0:0,0:0:0:0:
248,165,55554,2,0,P|279:217|221:288,1,110.000003356934,0|8,0:0|0:0,0:0:0:0:
157,283,56240,1,0,0:0:0:0:
230,365,56583,1,8,0:0:0:0:
339,351,56926,2,0,P|372:287|382:226,1,110.000003356934,0|8,0:0|0:0,0:0:0:0:
365,140,57612,5,4,0:0:0:0:
266,91,57954,1,8,0:0:0:0:
358,30,58297,2,0,L|477:40,1,110.000003356934,0|8,0:0|0:0,0:0:0:0:
466,149,58983,2,0,B|471:189|471:189|449:232,2,55.0000016784668,0|0|8,0:0|0:0|0:0,0:0:0:0:
355,154,59669,2,0,B|350:194|350:194|372:237,2,55.0000016784668,0|0|8,0:0|0:0|0:0,0:0:0:0:
404,55,60354,5,4,0:0:0:0:
294,60,60697,2,0,P|248:114|252:191,1,110.000003356934,8|0,0:0|0:0,0:0:0:0:
268,258,61383,1,8,0:0:0:0:
162,227,61726,2,0,P|136:177|142:107,2,110.000003356934,0|8|0,0:0|0:0|0:0,0:0:0:0:
242,150,62754,1,8,0:0:0:0:
311,64,63097,6,0,P|351:119|332:204,1,110.000003356934,4|8,0:0|0:0,0:0:0:0:
286,247,63783,2,0,B|281:287|281:287|303:330,2,55.0000016784668,0|0|8,0:0|0:0|0:0,0:0:0:0:
384,296,64469,2,0,B|389:256|389:256|367:213,2,55.0000016784668,0|0|8,0:0|0:0|0:0,0:0:0:0:
463,372,65154,1,0,0:0:0:0:
353,376,65497,1,8,0:0:0:0:
306,276,65840,6,0,L|194:266,1,110.000003356934,4|8,0:0|0:0,0:0:0:0:
165,220,66354,2,0,L|61:210,1,55.0000016784668
99,161,66697,2,0,L|-4:151,1,55.0000016784668,0|8,0:0|0:0,0:0:0:0:
9,260,67212,2,0,B|-4:297|-4:297|10:344,2,55.0000016784668,0|0|8,0:0|0:0|0:0,0:0:0:0:
108,307,67897,2,0,P|141:349|202:361,1,110.000003356934,0|8,0:0|0:0,0:0:0:0:
265,277,68583,6,0,L|369:133,2,110.000003356934,0|8|0,0:0|0:0|0:0,0:0:0:0:
368,314,69612,1,8,0:0:0:0:
409,212,69954,2,0,P|401:147|353:107,1,110.000003356934,0|8,0:0|0:0,0:0:0:0:
268,77,70640,2,0,L|173:62,2,55.0000016784668,0|0|8,0:0|0:0|0:0,0:0:0:0:
378,80,71326,6,0,P|439:157|257:264,1,330.000010070801,0|8,0:0|0:0,0:0:0:0:
194,262,72697,2,0,P|133:185|315:78,1,330.000010070801,0|8,0:0|0:0,0:0:0:0:
241,162,74069,2,0,B|308:184|308:184|319:125|392:81,1,165.000005035401
467,229,75097,2,0,L|479:364,1,110.000003356934
257,344,76126,2,0,B|220:343|220:343|195:320,2,55.0000016784668
242,234,76812,6,2,P|199:125|167:276,1,385.000011749268,0|0,0:0|0:0,0:0:0:0:
192,293,78183,2,2,P|319:219|173:199,1,385.000011749268,0|0,0:0|0:0,0:0:0:0:
165,252,79554,1,0,0:0:0:0:
103,160,79897,2,2,P|194:82|367:134,1,275.000008392334,8|0,0:0|0:0,0:0:0:0:
383,137,80926,2,2,P|428:191|214:288,1,385.000011749268,0|0,0:0|0:0,0:0:0:0:
212,279,82297,5,0,0:0:0:0:
183,172,82640,2,0,L|462:147,1,275.000008392334,8|0,0:0|0:0,0:0:0:0:
484,99,83669,1,0,0:0:0:0:
437,71,83840,2,0,L|109:99,1,330.000010070801
82,148,85040,1,0,0:0:0:0:
118,251,85383,2,0,L|414:276,1,275.000008392334,8|0,0:0|0:0,0:0:0:0:
427,231,86412,2,0,L|191:210,1,220.000006713867
187,160,87269,1,0,0:0:0:0:
221,116,87440,2,0,L|281:121,1,55.0000016784668,8|0,0:0|0:0,0:0:0:0:
331,124,87783,6,0,L|391:129,2,50,0|0|8,0:0|0:0|0:0,0:0:0:0:
407,189,88469,1,0,0:0:0:0:
448,354,89154,2,0,P|388:372|344:360,1,100,0|8,0:0|0:0,0:0:0:0:
286,290,89840,1,0,0:0:0:0:
261,193,90183,2,0,L|215:109,1,50,8|0,0:0|0:0,0:0:0:0:
214,104,90526,2,0,P|153:103|137:146,1,100,0|8,0:0|0:0,0:0:0:0:
174,225,91212,2,0,P|144:261|97:252,1,100,0|8,0:0|0:0,0:0:0:0:
52,161,91897,2,0,L|70:90,1,50
75,63,92240,2,0,P|116:38|157:61,1,100,8|0,0:0|0:0,0:0:0:0:
225,136,92926,1,8,0:0:0:0:
291,214,93269,6,0,L|339:271,2,55.0000016784668
326,118,93954,2,0,P|389:49|412:43,1,110.000003356934
432,151,94640,1,0,0:0:0:0:
465,255,94983,2,0,L|513:312,2,55.0000016784668
358,231,95669,1,0,0:0:0:0:
256,192,96012,12,0,98069,0:0:0:0:
132,65,98754,6,0,P|93:110|87:186,2,100,4|8|0,0:0|0:0|0:0,0:0:0:0:
184,150,99783,1,8,0:0:0:0:
221,50,100126,2,0,P|277:28|328:38,1,100,0|8,0:0|0:0,0:0:0:0:
284,129,100812,1,0,0:0:0:0:
384,108,101154,1,8,0:0:0:0:
435,196,101497,6,0,L|341:303,1,100,4|8,0:0|0:0,0:0:0:0:
288,331,102183,2,0,P|262:342|236:346,2,50,0|0|8,0:0|0:0|0:0,0:0:0:0:
239,242,102869,2,0,P|265:230|291:227,2,50,0|0|8,0:0|0:0|0:0,0:0:0:0:
151,289,103554,2,0,L|67:336,1,50
74,351,103897,1,8,0:0:0:0:
18,267,104240,6,0,P|-2:177|12:136,1,100,4|8,0:0|0:0,0:0:0:0:
14,72,104926,2,0,L|28:15,2,50,0|0|8,0:0|0:0|0:0,0:0:0:0:
88,137,105612,2,0,L|202:202,1,100,0|8,0:0|0:0,0:0:0:0:
263,232,106297,2,0,L|320:264,2,50,0|0|8,0:0|0:0|0:0,0:0:0:0:
262,182,106812,1,0,0:0:0:0:
290,140,106983,6,0,P|329:106|401:101,1,100,4|8,0:0|0:0,0:0:0:0:
452,160,107669,2,0,L|509:192,2,50,0|0|8,0:0|0:0|0:0,0:0:0:0:
410,188,108183,1,0,0:0:0:0:
406,237,108354,2,0,L|463:269,2,50,0|0|8,0:0|0:0|0:0,0:0:0:0:
322,180,109040,2,2,P|281:190|236:246,1,100,0|8,0:0|0:0,0:0:0:0:
329,279,109726,6,0,P|352:323|346:389,2,100,0|8|0,0:0|0:0|0:0,0:0:0:0:
231,255,110755,1,8,0:0:0:0:
133,231,111098,2,0,L|-6:209,1,100,0|8,0:0|0:0,0:0:0:0:
9,118,111784,2,0,L|107:133,1,100,0|8,0:0|0:0,0:0:0:0:
203,171,112469,6,0,P|209:122|191:76,2,100,0|8|0,0:0|0:0|0:0,0:0:0:0:
135,244,113498,1,8,0:0:0:0:
195,323,113841,2,0,L|294:332,1,100,0|8,0:0|0:0,0:0:0:0:
344,245,114526,1,0,0:0:0:0:
394,331,114869,1,8,0:0:0:0:
444,244,115212,6,0,P|432:195|383:150,1,100,0|8,0:0|0:0,0:0:0:0:
300,143,115897,1,0,0:0:0:0:
219,202,116241,1,8,0:0:0:0:
209,103,116584,1,0,0:0:0:0:
128,162,116926,2,0,L|38:237,1,100,8|0,0:0|0:0,0:0:0:0:
108,308,117612,1,8,0:0:0:0:
202,341,117955,6,0,P|261:329|311:283,1,100,0|8,0:0|0:0,0:0:0:0:
295,207,118641,1,0,0:0:0:0:
380,259,118984,1,8,0:0:0:0:
383,159,119326,2,0,P|405:106|474:73,2,100,0|8|0,0:0|0:0|0:0,0:0:0:0:
482,172,120355,1,8,0:0:0:0:
479,272,120697,5,4,0:0:0:0:
