osu file format v14

[General]
AudioFilename: audio.mp3
AudioLeadIn: 0
PreviewTime: 54569
Countdown: 0
SampleSet: Normal
StackLeniency: 0.6
Mode: 0
LetterboxInBreaks: 0
WidescreenStoryboard: 1

[Editor]
Bookmarks: 21954,32926,43897,54869,65840,76812,87783,98754,109726,120697
DistanceSpacing: 0.7
BeatDivisor: 1
GridSize: 8
TimelineZoom: 1.300002

[Metadata]
Title:Deep in the Night (Muzzy Remix)
TitleUnicode:Deep in the Night (Muzzy Remix)
Artist:Snails & Pegboard Nerds
ArtistUnicode:Snails & Pegboard Nerds
Creator:Silomare
Version:Easy
Source:
Tags:Monstercat Skite59 SacredSage
BeatmapID:1560927
BeatmapSetID:738383

[Difficulty]
HPDrainRate:1
CircleSize:2.5
OverallDifficulty:2
ApproachRate:2
SliderMultiplier:1
SliderTickRate:1

[Events]
//Background and Video events
0,0,"coolpicture.png",0,0
//Break Periods
//Storyboard Layer 0 (Background)
//Storyboard Layer 1 (Fail)
//Storyboard Layer 2 (Pass)
//Storyboard Layer 3 (Foreground)
//Storyboard Sound Samples

[TimingPoints]
12,342.857142857143,4,1,1,70,1,0
21954,-100,4,1,1,70,0,0
54869,-100,4,1,1,80,0,1
71326,-100,4,1,1,80,0,0
76812,-100,4,1,1,80,0,1
87783,-100,4,1,1,70,0,0

[Colours]
Combo1 : 255,0,0
Combo2 : 255,255,0
Combo3 : 255,20,180
Combo4 : 0,255,0

[HitObjects]
153,53,21954,6,0,P|86:90|48:212,2,200
185,189,24012,1,0,0:0:0:0:
286,93,24697,2,0,B|357:86|357:86|472:168,1,200
393,283,26069,1,0,0:0:0:0:
281,198,26754,1,0,0:0:0:0:
144,164,27440,6,0,P|181:97|303:59,2,200
184,300,29497,1,0,0:0:0:0:
319,264,30183,2,0,B|399:186|399:186|314:95,1,200
199,103,31554,1,0,0:0:0:0:
104,206,32240,1,0,0:0:0:0:
199,309,32926,6,0,B|318:298|318:298|409:234,1,200
467,139,34297,2,0,B|347:149|347:149|256:213,1,200
199,309,35669,2,0,B|189:189|189:189|236:89,1,200
320,17,37040,2,0,B|330:136|330:136|296:209,1,200
256,343,38412,6,0,P|403:303|437:222,1,200
464,136,39783,2,0,P|317:176|283:257,1,200
255,342,41154,1,0,0:0:0:0:
201,63,42526,2,0,L|101:71,3,100
100,154,43897,6,0,B|238:141|238:141|313:69,1,200
145,67,45269,1,0,0:0:0:0:
238,171,45954,1,0,0:0:0:0:
235,311,46640,2,0,B|96:298|96:298|22:226,1,200
107,126,48012,1,0,0:0:0:0:
238,171,48697,1,0,0:0:0:0:
369,216,49383,6,0,L|508:253,2,100
297,165,50412,1,0,0:0:0:0:
382,133,50754,2,0,L|479:160,2,100
312,76,51783,1,0,0:0:0:0:
256,192,52126,12,0,53497,0:0:0:0:
212,95,54869,6,0,P|177:197|228:293,1,200,4|8,0:0|0:0,0:0:0:0:
318,186,56240,1,0,0:0:0:0:
422,93,56926,1,8,0:0:0:0:
450,230,57612,2,0,P|382:313|273:321,1,200,4|8,0:0|0:0,0:0:0:0:
160,289,58983,2,0,B|33:217|33:217|12:44,1,300,0|8,0:0|0:0,0:0:0:0:
104,68,60354,5,4,0:0:0:0:
239,104,61040,1,8,0:0:0:0:
378,112,61726,2,0,P|441:212|407:321,1,200,0|8,0:0|0:0,0:0:0:0:
302,231,63097,1,4,0:0:0:0:
193,319,63783,2,0,L|80:278,1,100,0|8,0:0|0:0,0:0:0:0:
136,211,64469,2,0,L|23:170,1,100,0|8,0:0|0:0,0:0:0:0:
79,103,65154,1,2,0:0:0:0:
212,59,65840,6,0,P|310:154|315:213,1,200,4|8,0:0|0:0,0:0:0:0:
237,327,67212,1,0,0:0:0:0:
169,203,67897,1,8,0:0:0:0:
315,210,68583,6,0,P|291:115|212:59,1,200,4|8,0:0|0:0,0:0:0:0:
72,71,69954,2,0,L|59:214,1,100,0|8,0:0|0:0,0:0:0:0:
146,164,70640,2,0,L|133:307,1,100,0|8,0:0|0:0,0:0:0:0:
220,257,71326,6,0,P|338:176|186:128,1,300,4|8,0:0|0:0,0:0:0:0:
253,179,72697,2,0,P|134:259|287:308,1,300,4|8,0:0|0:0,0:0:0:0:
305,340,74069,2,0,L|436:176,1,200
318,99,75440,1,0,0:0:0:0:
179,77,76126,2,0,L|167:212,1,100,0|8,0:0|0:0,0:0:0:0:
253,170,76812,6,0,B|241:298|241:298|327:374|433:287,1,300,4|8,0:0|0:0,0:0:0:0:
455,248,78183,2,0,B|466:119|466:119|381:44|275:131,1,300,0|8,0:0|0:0,0:0:0:0:
253,170,79554,1,4,0:0:0:0:
170,194,79897,2,0,B|134:70|134:70|36:93,1,200,8|8,0:0|0:0,0:0:0:0:
71,169,80926,2,0,B|107:293|107:293|286:254,1,300,0|8,0:0|0:0,0:0:0:0:
320,179,82297,5,4,0:0:0:0:
322,88,82640,2,0,P|403:141|390:237,1,200,8|8,0:0|0:0,0:0:0:0:
338,304,83669,2,0,B|269:366|269:366|183:156,1,300,0|8,0:0|0:0,0:0:0:0:
228,92,85040,1,0,0:0:0:0:
304,44,85383,2,0,P|431:124|417:203,1,200,8|8,0:0|0:0,0:0:0:0:
390,236,86412,1,0,0:0:0:0:
263,294,87097,1,0,0:0:0:0:
276,155,87783,5,0,0:0:0:0:
148,97,88469,2,0,L|139:196,1,100,0|8,0:0|0:0,0:0:0:0:
144,286,89154,2,0,P|217:324|314:185,1,200
326,124,90526,2,0,L|334:24,1,100,0|8,0:0|0:0,0:0:0:0:
249,37,91212,2,0,L|240:136,1,100,0|8,0:0|0:0,0:0:0:0:
233,220,91897,1,0,0:0:0:0:
218,359,92583,2,0,L|118:350,1,100,0|8,0:0|0:0,0:0:0:0:
256,192,93269,12,0,97383,0:0:0:0:
289,341,98754,6,0,L|425:341,1,100,4|8,0:0|0:0,0:0:0:0:
454,216,99783,1,8,0:0:0:0:
473,128,100126,2,0,P|478:76|450:21,2,100,0|8|0,0:0|0:0|0:0,0:0:0:0:
387,155,101154,1,8,0:0:0:0:
318,96,101497,6,0,B|258:107|258:107|223:186,1,100,0|8,0:0|0:0,0:0:0:0:
189,272,102526,1,8,0:0:0:0:
102,245,102869,2,0,P|94:121|179:71,1,200
231,53,103897,1,8,0:0:0:0:
283,125,104240,6,0,L|271:260,1,100,4|8,0:0|0:0,0:0:0:0:
323,355,105269,1,8,0:0:0:0:
412,343,105612,2,0,L|420:243,1,100,0|8,0:0|0:0,0:0:0:0:
502,281,106297,2,0,L|510:181,1,100,0|8,0:0|0:0,0:0:0:0:
466,102,106983,6,0,P|348:55|223:101,1,200,4|0,0:0|0:0,0:0:0:0:
218,133,108012,1,8,0:0:0:0:
279,198,108354,1,0,0:0:0:0:
185,301,109040,2,0,L|109:227,1,100,2|0,0:0|0:0,0:0:0:0:
56,161,109726,6,0,P|109:105|236:100,2,200
179,228,111784,1,0,0:0:0:0:
217,362,112469,2,0,P|295:303|314:207,1,200
256,80,113841,1,0,0:0:0:0:
188,202,114526,1,0,0:0:0:0:
48,213,115212,6,0,P|62:137|166:64,2,200
73,350,117269,1,0,0:0:0:0:
212,360,117955,2,0,L|467:337,1,200
393,203,119326,1,0,0:0:0:0:
289,108,120012,1,0,0:0:0:0:
182,227,120697,5,4,0:0:0:0:
