osu file format v14

[General]
AudioFilename: audio.mp3
AudioLeadIn: 0
PreviewTime: 63985
Countdown: 0
SampleSet: Soft
StackLeniency: 0.7
Mode: 0
LetterboxInBreaks: 0
WidescreenStoryboard: 1

[Editor]
Bookmarks: 45985,83585
DistanceSpacing: 1.5
BeatDivisor: 4
GridSize: 8
TimelineZoom: 1.9

[Metadata]
Title:Deep In The Night
TitleUnicode:Deep In The Night
Artist:Snails & Pegboard Nerds
ArtistUnicode:Snails & Pegboard Nerds
Creator:vanucik
Version:Normal
Source:
Tags:monstercat dubstep vomitstep
BeatmapID:1099551
BeatmapSetID:513194

[Difficulty]
HPDrainRate:4
CircleSize:3
OverallDifficulty:4
ApproachRate:5.5
SliderMultiplier:1.1
SliderTickRate:1

[Events]
//Background and Video events
0,0,"Snails-Pegboard-Nerds-Deep-In-The-Night-Art-1000x600.jpg",0,0
//Break Periods
2,89785,94785
2,128185,139585
2,204985,209985
//Storyboard Layer 0 (Background)
//Storyboard Layer 1 (Fail)
//Storyboard Layer 2 (Pass)
//Storyboard Layer 3 (Foreground)
//Storyboard Sound Samples

[TimingPoints]
-15,400,4,2,1,40,1,0
25585,-100,4,2,1,35,0,0
38385,-100,4,2,1,50,0,0
51185,-100,4,2,1,60,0,0
57585,-100,4,2,1,70,0,0
63985,-100,4,2,1,70,0,1
89585,-100,4,2,1,70,0,0
102385,-100,4,2,1,70,0,1
127985,-100,4,2,1,50,0,0
166385,-100,4,2,1,60,0,0
179185,-100,4,2,1,70,0,1
204785,-100,4,2,1,70,0,0
217585,-100,4,2,1,70,0,1
243185,-100,4,2,1,70,0,0

[Colours]
Combo1 : 149,0,149
Combo2 : 255,68,68
Combo3 : 0,128,255
Combo4 : 0,168,147
Combo5 : 213,213,0

[HitObjects]
139,253,12785,6,0,L|132:120,1,110,6|0,0:0|0:0,0:0:0:0:
185,79,13385,1,0,0:0:0:0:
283,211,13785,1,0,0:0:0:0:
349,259,13985,2,0,P|379:260|410:249,1,55,0|0,0:0|0:0,0:0:0:0:
362,180,14385,6,0,P|338:146|272:127,1,110,0|0,0:0|0:0,0:0:0:0:
197,154,14985,1,0,0:0:0:0:
48,81,15385,1,0,0:0:0:0:
48,81,15585,2,0,L|115:74,1,55,8|0,0:0|0:0,0:0:0:0:
178,42,15985,6,0,P|232:30|286:58,1,110,0|0,0:0|0:0,0:0:0:0:
339,109,16585,1,0,0:0:0:0:
380,268,16985,1,0,0:0:0:0:
380,268,17185,2,0,P|331:276|313:274,1,55,0|0,0:0|0:0,0:0:0:0:
256,230,17585,6,0,P|211:219|139:241,1,110,0|0,0:0|0:0,0:0:0:0:
82,281,18185,1,0,0:0:0:0:
73,116,18585,1,0,0:0:0:0:
73,116,18785,2,0,P|102:109|129:108,1,55,8|0,0:0|0:0,0:0:0:0:
208,123,19185,6,0,P|236:134|327:115,1,110,10|0,0:0|0:0,0:0:0:0:
385,82,19785,1,0,0:0:0:0:
438,245,20185,1,0,0:0:0:0:
438,245,20385,2,0,L|434:304,1,55,0|0,0:0|0:0,0:0:0:0:
351,289,20785,6,0,P|310:288|249:320,1,110,0|0,0:0|0:0,0:0:0:0:
183,367,21385,1,0,0:0:0:0:
71,260,21785,1,0,0:0:0:0:
71,260,21985,2,0,P|105:252|127:254,1,55,8|0,0:0|0:0,0:0:0:0:
207,251,22385,6,0,L|199:135,1,110,10|0,0:0|0:0,0:0:0:0:
160,68,22985,1,0,0:0:0:0:
64,205,23385,1,0,0:0:0:0:
64,205,23585,2,0,P|66:240|71:260,1,55,0|0,0:0|0:0,0:0:0:0:
141,302,23985,6,0,B|194:318|237:273|237:273|262:282|277:298|277:298|284:256|300:223|300:223|349:260|410:235,1,330,0|2,0:0|0:0,0:0:0:0:
335,85,25585,6,0,P|256:63|178:105,1,165,6|0,0:0|0:0,0:0:0:0:
130,160,26385,2,0,P|188:181|244:152,1,110,0|0,0:0|0:0,0:0:0:0:
364,262,27185,6,0,B|309:278|309:278|259:242|202:275,1,165,0|0,0:0|0:0,0:0:0:0:
255,339,27985,2,0,P|299:359|363:340,1,110,0|0,0:0|0:0,0:0:0:0:
318,183,28785,6,0,P|279:160|170:202,1,165,0|0,0:0|0:0,0:0:0:0:
126,264,29585,2,0,B|70:281|70:281|19:254,1,110,0|0,0:0|0:0,0:0:0:0:
79,101,30385,6,0,L|248:83,1,165,0|0,0:0|0:0,0:0:0:0:
316,121,31185,2,0,P|280:157|206:157,1,110,0|0,0:0|0:0,0:0:0:0:
122,297,31985,6,0,P|169:333|265:307,1,165,10|0,0:0|0:0,0:0:0:0:
320,246,32785,2,0,L|433:251,1,110,0|0,0:0|0:0,0:0:0:0:
343,122,33585,6,0,P|266:128|206:188,1,165,0|0,0:0|0:0,0:0:0:0:
183,267,34385,2,0,B|132:286|132:286|79:260,1,110,0|0,0:0|0:0,0:0:0:0:
57,97,35185,6,0,B|111:77|159:115|159:115|178:91|200:76,1,165,10|0,0:0|0:0,0:0:0:0:
274,40,35985,2,0,P|316:33|380:57,1,110,0|0,0:0|0:0,0:0:0:0:
355,219,36785,6,0,P|300:244|207:209,1,165,0|0,0:0|0:0,0:0:0:0:
181,130,37585,2,0,L|305:119,1,110,0|0,0:0|0:0,0:0:0:0:
449,165,38385,6,0,P|465:227|446:283,1,110,6|0,0:0|0:0,0:0:0:0:
386,317,38985,1,0,0:0:0:0:
312,279,39185,2,0,B|256:269|256:269|206:294,1,110,0|0,0:0|0:0,0:0:0:0:
114,156,39985,6,0,P|165:134|234:150,1,110,2|0,0:0|0:0,0:0:0:0:
291,179,40585,1,0,0:0:0:0:
360,134,40785,1,0,0:0:0:0:
217,50,41185,2,0,L|159:47,1,55,0|8,0:0|0:0,0:0:0:0:
83,72,41585,6,0,P|42:101|21:179,1,110,2|0,0:0|0:0,0:0:0:0:
39,235,42185,1,0,0:0:0:0:
100,289,42385,2,0,B|151:307|151:307|206:292,1,110,0|0,0:0|0:0,0:0:0:0:
308,163,43185,6,0,L|190:167,1,110,2|0,0:0|0:0,0:0:0:0:
122,134,43785,1,0,0:0:0:0:
127,216,43985,1,0,0:0:0:0:
272,294,44385,2,0,P|286:270|295:240,1,55,0|8,0:0|0:0,0:0:0:0:
308,163,44785,6,0,P|343:143|423:145,1,110,6|0,0:0|0:0,0:0:0:0:
467,201,45385,1,0,0:0:0:0:
462,283,45585,2,0,B|431:312|385:304|385:304|351:324,1,110,0|0,0:0|0:0,0:0:0:0:
197,302,46385,6,0,P|184:245|195:187,1,110,2|0,0:0|0:0,0:0:0:0:
263,153,46985,1,0,0:0:0:0:
328,203,47185,1,0,0:0:0:0:
197,302,47585,2,0,P|147:305|125:301,1,55,0|8,0:0|0:0,0:0:0:0:
80,249,47985,6,0,P|65:194|78:137,1,110,6|0,0:0|0:0,0:0:0:0:
139,90,48585,1,0,0:0:0:0:
214,123,48785,2,0,B|268:137|268:137|326:111,1,110,0|0,0:0|0:0,0:0:0:0:
427,238,49585,6,0,P|377:264|323:255,1,110,2|0,0:0|0:0,0:0:0:0:
246,230,50185,1,0,0:0:0:0:
185,285,50385,1,0,0:0:0:0:
310,177,50785,2,0,P|337:169|367:168,1,55,0|8,0:0|0:0,0:0:0:0:
427,114,51185,6,0,P|395:91|310:101,1,110,6|2,0:0|0:0,0:0:0:0:
186,180,51985,2,0,P|154:184|122:181,1,55,2|0,0:0|0:0,0:0:0:0:
59,140,52385,1,2,0:0:0:0:
117,294,52785,6,0,P|160:310|226:288,1,110,2|2,0:0|0:0,0:0:0:0:
283,239,53385,1,8,0:0:0:0:
349,288,53585,2,0,P|393:295|419:291,1,55,2|0,0:0|0:0,0:0:0:0:
479,263,53985,1,2,0:0:0:0:
388,124,54385,6,0,P|344:108|264:126,1,110,2|2,0:0|0:0,0:0:0:0:
127,173,55185,2,0,L|121:114,1,55,2|0,0:0|0:0,0:0:0:0:
156,43,55585,1,2,0:0:0:0:
221,194,55985,6,0,L|210:315,1,110,2|2,0:0|0:0,0:0:0:0:
135,337,56585,1,8,0:0:0:0:
73,281,56785,1,2,0:0:0:0:
109,119,57185,2,0,P|141:107|165:105,1,55,2|8,0:0|0:0,0:0:0:0:
235,140,57585,6,0,P|285:160|351:146,1,110,8|8,0:0|0:0,0:0:0:0:
478,63,58385,2,0,P|428:43|362:57,1,110,8|8,0:0|0:0,0:0:0:0:
296,79,58985,1,8,0:0:0:0:
219,48,59185,6,0,L|96:52,1,110,8|8,0:0|0:0,0:0:0:0:
73,212,59985,2,0,L|196:208,1,110,8|8,0:0|0:0,0:0:0:0:
256,192,60785,12,2,62385,0:0:0:0:
123,168,63985,6,0,P|169:153|231:175,1,110,6|0,0:0|0:0,0:0:0:0:
287,226,64585,1,0,0:0:0:0:
358,184,64785,2,0,L|356:67,1,110,8|0,0:0|0:0,0:0:0:0:
191,59,65585,6,0,P|153:61|121:75,1,55,2|0,0:0|0:0,0:0:0:0:
96,137,65985,2,0,P|66:148|38:168,1,55,0|0,0:0|0:0,0:0:0:0:
35,242,66385,2,0,P|74:261|145:248,1,110,8|0,0:0|0:0,0:0:0:0:
250,130,67185,6,0,L|372:131,1,110,2|0,0:0|0:0,0:0:0:0:
416,190,67785,1,0,0:0:0:0:
371,259,67985,2,0,P|324:268|303:265,1,55,8|0,0:0|0:0,0:0:0:0:
241,235,68385,1,0,0:0:0:0:
93,309,68785,6,0,P|137:323|201:302,1,110,2|0,0:0|0:0,0:0:0:0:
241,235,69385,1,0,0:0:0:0:
232,152,69585,1,8,0:0:0:0:
113,36,69985,2,0,P|154:43|181:41,1,55,0|0,0:0|0:0,0:0:0:0:
249,32,70385,6,0,P|299:31|359:71,1,110,2|0,0:0|0:0,0:0:0:0:
383,135,70985,1,0,0:0:0:0:
349,210,71185,2,0,B|296:226|296:226|237:212,1,110,8|0,0:0|0:0,0:0:0:0:
89,152,71985,5,2,0:0:0:0:
65,230,72185,2,0,P|94:235|120:228,2,55,0|0|0,0:0|0:0|0:0,0:0:0:0:
9,169,72785,2,0,L|3:60,1,110,8|0,0:0|0:0,0:0:0:0:
168,57,73585,6,0,P|205:94|208:169,1,110,2|0,0:0|0:0,0:0:0:0:
154,303,74385,1,8,0:0:0:0:
230,333,74585,1,0,0:0:0:0:
303,296,74785,2,0,P|332:291|361:293,1,55,0|0,0:0|0:0,0:0:0:0:
415,233,75185,6,0,P|366:209|307:218,1,110,2|0,0:0|0:0,0:0:0:0:
233,240,75785,1,0,0:0:0:0:
167,189,75985,1,8,0:0:0:0:
266,57,76385,2,0,P|294:56|324:58,1,55,8|8,0:0|0:0,0:0:0:0:
396,91,76785,6,0,L|400:208,1,110,6|0,0:0|0:0,0:0:0:0:
342,260,77385,1,0,0:0:0:0:
262,237,77585,2,0,P|205:237|144:265,1,110,8|0,0:0|0:0,0:0:0:0:
75,112,78385,6,0,L|146:107,1,55,2|0,0:0|0:0,0:0:0:0:
207,136,78785,1,0,0:0:0:0:
275,89,78985,1,0,0:0:0:0:
352,118,79185,2,0,P|401:130|465:91,1,110,8|0,0:0|0:0,0:0:0:0:
412,265,79985,6,0,P|371:277|353:277,1,55,2|0,0:0|0:0,0:0:0:0:
277,260,80385,2,0,P|228:262|200:269,1,55,0|0,0:0|0:0,0:0:0:0:
161,319,80785,2,0,P|111:325|53:285,1,110,8|0,0:0|0:0,0:0:0:0:
102,136,81585,6,0,P|151:124|168:122,1,55,6|0,0:0|0:0,0:0:0:0:
238,123,81985,1,0,0:0:0:0:
305,170,82185,1,0,0:0:0:0:
328,249,82385,2,0,P|369:274|430:262,1,110,8|0,0:0|0:0,0:0:0:0:
455,100,83185,5,2,0:0:0:0:
379,66,83385,2,0,L|375:8,2,55,0|0|0,0:0|0:0|0:0,0:0:0:0:
319,123,83985,2,0,P|280:144|212:134,1,110,8|0,0:0|0:0,0:0:0:0:
90,243,84785,5,2,0:0:0:0:
152,296,84985,1,0,0:0:0:0:
231,272,85185,2,0,P|271:268|296:271,1,55,0|0,0:0|0:0,0:0:0:0:
358,307,85585,2,0,P|365:252|319:192,1,110,8|0,0:0|0:0,0:0:0:0:
207,106,86385,5,2,0:0:0:0:
125,90,86585,2,0,L|117:33,2,55,0|0|0,0:0|0:0|0:0,0:0:0:0:
148,169,87185,2,0,L|136:284,1,110,8|0,0:0|0:0,0:0:0:0:
301,278,87985,6,0,P|300:241|296:223,1,55,2|0,0:0|0:0,0:0:0:0:
240,161,88385,2,0,P|231:127|228:98,1,55,0|0,0:0|0:0,0:0:0:0:
249,27,88785,1,8,0:0:0:0:
402,88,89185,2,0,L|399:156,1,55,2|8,0:0|0:0,0:0:0:0:
378,223,89585,5,2,0:0:0:0:
378,223,95985,6,0,L|256:237,1,110,8|8,0:0|0:0,0:0:0:0:
158,112,96785,2,0,L|280:98,1,110,8|8,0:0|0:0,0:0:0:0:
344,70,97385,1,8,0:0:0:0:
424,89,97585,6,0,P|453:135|456:191,1,110,8|8,0:0|0:0,0:0:0:0:
365,327,98385,2,0,P|336:281|333:225,1,110,8|8,0:0|0:0,0:0:0:0:
256,192,99185,12,2,100785,0:0:0:0:
123,114,102385,6,0,B|161:129|161:129|193:124|193:124|229:137,1,110,6|0,0:0|0:0,0:0:0:0:
301,172,102985,1,0,0:0:0:0:
358,230,103185,2,0,P|295:254|240:227,1,110,8|0,0:0|0:0,0:0:0:0:
107,171,103985,5,2,0:0:0:0:
48,228,104185,2,0,L|44:296,2,55,0|0|0,0:0|0:0|0:0,0:0:0:0:
25,148,104785,2,0,P|50:109|112:88,1,110,8|0,0:0|0:0,0:0:0:0:
250,174,105585,6,0,B|306:189|306:189|358:169,1,110,2|0,0:0|0:0,0:0:0:0:
430,137,106185,1,0,0:0:0:0:
467,210,106385,2,0,L|465:272,1,55,8|0,0:0|0:0,0:0:0:0:
446,345,106785,1,0,0:0:0:0:
297,272,107185,6,0,P|265:272|239:276,1,55,2|0,0:0|0:0,0:0:0:0:
177,325,107585,2,0,P|139:332|112:331,1,55,0|0,0:0|0:0,0:0:0:0:
55,284,107985,2,0,P|35:258|49:175,1,110,8|0,0:0|0:0,0:0:0:0:
107,135,108585,1,0,0:0:0:0:
173,184,108785,5,2,0:0:0:0:
322,114,109185,2,0,P|355:107|376:107,1,55,0|0,0:0|0:0,0:0:0:0:
442,155,109585,2,0,L|437:272,1,110,8|0,0:0|0:0,0:0:0:0:
286,331,110385,5,2,0:0:0:0:
220,280,110585,2,0,P|212:252|218:220,2,55,0|0|0,0:0|0:0|0:0,0:0:0:0:
296,247,111185,2,0,P|309:200|279:134,1,110,8|0,0:0|0:0,0:0:0:0:
134,86,111985,5,2,0:0:0:0:
114,249,112385,2,0,P|148:270|168:276,1,55,0|0,0:0|0:0,0:0:0:0:
240,246,112785,2,0,P|273:242|339:285,1,110,8|0,0:0|0:0,0:0:0:0:
383,348,113385,1,0,0:0:0:0:
446,294,113585,6,0,L|452:177,1,110,2|0,0:0|0:0,0:0:0:0:
348,55,114385,2,0,P|307:52|284:54,1,55,8|8,0:0|0:0,0:0:0:0:
212,72,114785,1,8,0:0:0:0:
142,116,114985,1,8,0:0:0:0:
66,262,115385,6,0,P|51:229|48:204,2,55,0|0|0,0:0|0:0|0:0,0:0:0:0:
135,306,115985,2,0,P|194:312|240:288,1,110,8|0,0:0|0:0,0:0:0:0:
301,236,116585,1,2,0:0:0:0:
375,271,116785,6,0,P|434:277|480:253,1,110,0|2,0:0|0:0,0:0:0:0:
414,102,117585,2,0,P|365:92|299:120,1,110,8|0,0:0|0:0,0:0:0:0:
251,169,118185,1,0,0:0:0:0:
178,130,118385,6,0,P|148:124|109:126,1,55,2|0,0:0|0:0,0:0:0:0:
44,149,118785,1,0,0:0:0:0:
123,293,119185,2,0,P|158:296|223:253,1,110,8|0,0:0|0:0,0:0:0:0:
275,197,119785,1,2,0:0:0:0:
346,237,119985,6,0,P|349:267|341:297,1,55,0|0,0:0|0:0,0:0:0:0:
281,345,120385,1,2,0:0:0:0:
123,293,120785,2,0,L|116:221,1,55,8|0,0:0|0:0,0:0:0:0:
174,178,121185,2,0,L|178:123,1,55,0|0,0:0|0:0,0:0:0:0:
237,65,121585,6,0,P|286:51|355:71,1,110,6|0,0:0|0:0,0:0:0:0:
478,157,122385,2,0,P|433:174|416:175,1,55,8|0,0:0|0:0,0:0:0:0:
356,218,122785,2,0,P|321:219|300:215,1,55,0|0,0:0|0:0,0:0:0:0:
220,230,123185,6,0,P|215:265|225:348,1,110,2|0,0:0|0:0,0:0:0:0:
388,347,123985,2,0,P|393:304|392:284,1,55,8|0,0:0|0:0,0:0:0:0:
356,218,124385,2,0,P|351:175|352:155,1,55,0|0,0:0|0:0,0:0:0:0:
399,96,124785,6,0,P|362:82|293:104,1,110,2|0,0:0|0:0,0:0:0:0:
236,157,125385,1,0,0:0:0:0:
168,109,125585,2,0,B|114:93|114:93|59:107,1,110,8|0,0:0|0:0,0:0:0:0:
143,249,126385,6,0,P|179:262|200:262,1,55,0|0,0:0|0:0,0:0:0:0:
273,233,126785,2,0,P|305:228|332:229,1,55,0|0,0:0|0:0,0:0:0:0:
389,283,127185,1,0,0:0:0:0:
372,118,127585,2,0,P|336:112|308:115,1,55,2|8,0:0|0:0,0:0:0:0:
239,138,127985,5,6,0:0:0:0:
239,138,140785,6,0,P|282:117|373:185,2,165,6|0|0,0:0|0:0|0:0,0:0:0:0:
336,271,142385,2,0,L|514:258,2,165,0|0|0,0:0|0:0|0:0,0:0:0:0:
192,189,143985,6,0,P|154:166|99:254,2,165,0|0|0,0:0|0:0|0:0,0:0:0:0:
351,236,145585,2,0,B|394:255|431:232|431:232|472:255|515:231,2,165,0|0|0,0:0|0:0|0:0,0:0:0:0:
389,163,146985,1,0,0:0:0:0:
471,162,147185,6,0,P|434:94|347:91,2,165,0|0|0,0:0|0:0|0:0,0:0:0:0:
381,300,148785,2,0,B|298:319|298:319|219:280,2,165,0|0|0,0:0|0:0|0:0,0:0:0:0:
246,204,150385,6,0,P|170:222|145:303,2,165,0|0|0,0:0|0:0|0:0,0:0:0:0:
402,257,151985,2,0,B|422:215|410:169|410:169|421:133|421:133|411:98,2,165,0|0|2,0:0|0:0|0:0,0:0:0:0:
334,305,153385,1,8,0:0:0:0:
252,291,153585,6,0,P|204:283|128:317,1,110,6|0,0:0|0:0,0:0:0:0:
75,344,154185,1,0,0:0:0:0:
35,271,154385,2,0,L|40:154,1,110,0|0,0:0|0:0,0:0:0:0:
178,72,155185,6,0,P|204:138|202:195,1,110,0|0,0:0|0:0,0:0:0:0:
183,256,155785,1,0,0:0:0:0:
200,336,155985,1,0,0:0:0:0:
362,308,156385,2,0,P|375:272|375:245,1,55,0|0,0:0|0:0,0:0:0:0:
362,173,156785,6,0,P|322:158|251:168,1,110,0|0,0:0|0:0,0:0:0:0:
185,208,157385,1,0,0:0:0:0:
122,154,157585,2,0,L|124:40,1,110,0|0,0:0|0:0,0:0:0:0:
288,49,158385,6,0,B|327:70|327:70|365:55|411:74,1,110,0|0,0:0|0:0,0:0:0:0:
458,115,158985,1,0,0:0:0:0:
442,195,159185,1,0,0:0:0:0:
302,283,159585,2,0,P|266:287|241:285,1,55,0|0,0:0|0:0,0:0:0:0:
183,233,159985,6,0,P|120:217|68:226,1,110,12|0,0:0|0:0,0:0:0:0:
23,287,160585,1,0,0:0:0:0:
71,354,160785,2,0,L|190:349,1,110,0|0,0:0|0:0,0:0:0:0:
290,225,161585,6,0,P|344:209|403:236,1,110,0|0,0:0|0:0,0:0:0:0:
341,291,162185,1,0,0:0:0:0:
259,305,162385,1,0,0:0:0:0:
147,183,162785,2,0,P|179:171|207:171,1,55,0|0,0:0|0:0,0:0:0:0:
282,172,163185,6,0,P|328:180|388:150,1,110,2|0,0:0|0:0,0:0:0:0:
440,94,163785,1,0,0:0:0:0:
359,74,163985,2,0,L|234:69,1,110,0|0,0:0|0:0,0:0:0:0:
174,216,164785,6,0,P|127:244|63:229,1,110,0|0,0:0|0:0,0:0:0:0:
112,162,165385,1,0,0:0:0:0:
189,132,165585,1,0,0:0:0:0:
333,211,165985,2,0,P|372:217|394:216,1,55,0|0,0:0|0:0,0:0:0:0:
372,134,166385,6,0,P|323:123|264:158,1,110,6|2,0:0|0:0,0:0:0:0:
194,295,167185,2,0,P|240:300|262:299,1,55,2|0,0:0|0:0,0:0:0:0:
314,350,167585,2,0,P|346:345|371:336,1,55,2|0,0:0|0:0,0:0:0:0:
449,346,167985,6,0,P|466:311|454:236,1,110,2|2,0:0|0:0,0:0:0:0:
329,138,168785,2,0,L|266:126,1,55,2|0,0:0|0:0,0:0:0:0:
213,182,169185,2,0,L|137:182,1,55,10|2,0:0|0:0,0:0:0:0:
116,253,169585,6,0,P|161:292|222:300,1,110,6|2,0:0|0:0,0:0:0:0:
355,223,170385,1,2,0:0:0:0:
361,305,170585,1,0,0:0:0:0:
284,273,170785,2,0,P|270:241|268:214,1,55,2|0,0:0|0:0,0:0:0:0:
284,140,171185,6,0,P|230:148|192:190,1,110,2|2,0:0|0:0,0:0:0:0:
78,305,171985,2,0,P|68:266|67:246,1,55,2|0,0:0|0:0,0:0:0:0:
111,181,172385,2,0,P|107:153|100:127,1,55,2|8,0:0|0:0,0:0:0:0:
70,50,172785,6,0,P|116:72|190:62,1,110,8|8,0:0|0:0,0:0:0:0:
334,30,173585,2,0,P|388:26|437:48,1,110,8|8,0:0|0:0,0:0:0:0:
475,121,174185,1,8,0:0:0:0:
439,195,174385,6,0,B|390:217|390:217|329:208,1,110,8|8,0:0|0:0,0:0:0:0:
174,168,175185,2,0,B|118:159|118:159|69:181,1,110,8|8,0:0|0:0,0:0:0:0:
256,192,175985,12,2,177585,0:0:0:0:
186,105,179185,6,0,L|178:226,1,110,6|8,0:0|0:0,0:0:0:0:
286,339,179985,1,2,0:0:0:0:
413,233,180385,1,8,0:0:0:0:
307,109,180785,6,0,P|267:103|241:106,1,55,2|0,0:0|0:0,0:0:0:0:
178,139,181185,2,0,P|137:146|75:115,1,110,8|2,0:0|0:0,0:0:0:0:
210,20,181985,1,8,0:0:0:0:
292,26,182185,1,8,0:0:0:0:
374,31,182385,6,0,P|408:67|421:137,1,110,2|8,0:0|0:0,0:0:0:0:
322,255,183185,1,2,0:0:0:0:
159,224,183585,1,8,0:0:0:0:
45,343,183985,6,0,P|83:350|115:348,1,55,6|0,0:0|0:0,0:0:0:0:
175,319,184385,2,0,P|212:309|281:330,1,110,8|2,0:0|0:0,0:0:0:0:
444,337,185185,2,0,L|437:268,1,55,8|0,0:0|0:0,0:0:0:0:
377,227,185585,6,0,P|350:189|344:123,1,110,2|8,0:0|0:0,0:0:0:0:
472,25,186385,1,2,0:0:0:0:
496,188,186785,1,8,0:0:0:0:
343,127,187185,6,0,P|287:124|238:149,1,110,2|8,0:0|0:0,0:0:0:0:
140,279,187985,1,2,0:0:0:0:
291,345,188385,2,0,P|304:315|308:289,1,55,8|0,0:0|0:0,0:0:0:0:
254,230,188785,6,0,P|241:202|247:123,1,110,8|8,0:0|0:0,0:0:0:0:
306,68,189385,1,2,0:0:0:0:
373,116,189585,2,0,P|386:144|380:223,1,110,8|8,0:0|0:0,0:0:0:0:
261,335,190385,6,0,B|209:336|173:299|173:299|158:325|158:325|107:299|61:314,1,220,8|8,0:0|0:0,0:0:0:0:
82,147,191585,1,8,0:0:0:0:
239,196,191985,6,0,P|285:204|345:181,1,110,6|0,0:0|0:0,0:0:0:0:
449,56,192785,2,0,P|404:37|339:53,1,110,8|0,0:0|0:0,0:0:0:0:
298,116,193385,1,0,0:0:0:0:
217,135,193585,6,0,P|179:139|151:138,1,55,2|0,0:0|0:0,0:0:0:0:
81,123,193985,1,0,0:0:0:0:
119,283,194385,2,0,P|157:312|235:306,1,110,8|0,0:0|0:0,0:0:0:0:
290,274,194985,1,0,0:0:0:0:
342,338,195185,6,0,P|376:346|415:341,1,55,2|0,0:0|0:0,0:0:0:0:
463,297,195585,1,0,0:0:0:0:
402,142,195985,2,0,P|368:119|294:129,1,110,8|0,0:0|0:0,0:0:0:0:
231,168,196585,1,0,0:0:0:0:
164,118,196785,6,0,L|160:56,2,55,6|0|0,0:0|0:0|0:0,0:0:0:0:
248,259,197585,2,0,P|297:255|342:210,1,110,8|0,0:0|0:0,0:0:0:0:
239,83,198385,5,2,0:0:0:0:
164,118,198585,2,0,L|88:114,2,55,0|0|0,0:0|0:0|0:0,0:0:0:0:
137,196,199185,2,0,P|101:201|40:164,1,110,8|0,0:0|0:0,0:0:0:0:
139,32,199985,5,2,0:0:0:0:
217,61,200185,2,0,P|249:66|275:64,1,55,0|0,0:0|0:0,0:0:0:0:
348,33,200585,1,0,0:0:0:0:
405,91,200785,2,0,P|427:138|407:198,1,110,8|0,0:0|0:0,0:0:0:0:
287,300,201585,5,2,0:0:0:0:
212,334,201785,2,0,L|142:325,2,55,0|0|0,0:0|0:0|0:0,0:0:0:0:
219,251,202385,2,0,P|220:212|182:150,1,110,8|0,0:0|0:0,0:0:0:0:
61,41,203185,6,0,P|109:57|125:58,1,55,6|0,0:0|0:0,0:0:0:0:
194,39,203585,2,0,P|232:37|256:43,1,55,0|0,0:0|0:0,0:0:0:0:
313,91,203985,1,8,0:0:0:0:
189,200,204385,2,0,P|149:203|118:200,1,55,8|8,0:0|0:0,0:0:0:0:
60,164,204785,5,6,0:0:0:0:
160,127,211185,6,0,L|276:117,1,110,8|8,0:0|0:0,0:0:0:0:
352,259,211985,2,0,L|236:269,1,110,8|8,0:0|0:0,0:0:0:0:
159,263,212585,1,8,0:0:0:0:
98,206,212785,6,0,P|75:162|78:98,1,110,8|8,0:0|0:0,0:0:0:0:
222,25,213585,2,0,P|245:69|242:133,1,110,8|8,0:0|0:0,0:0:0:0:
256,192,214385,12,2,215985,0:0:0:0:
129,291,217585,6,0,P|120:255|156:175,1,110,6|0,0:0|0:0,0:0:0:0:
308,185,218385,2,0,P|348:205|427:187,1,110,8|0,0:0|0:0,0:0:0:0:
483,158,218985,1,2,0:0:0:0:
504,237,219185,6,0,P|472:276|394:293,1,110,0|2,0:0|0:0,0:0:0:0:
252,281,219985,2,0,L|177:286,1,55,8|0,0:0|0:0,0:0:0:0:
148,351,220385,2,0,L|87:349,1,55,0|0,0:0|0:0,0:0:0:0:
44,281,220785,6,0,P|28:239|49:177,1,110,2|0,0:0|0:0,0:0:0:0:
194,104,221585,2,0,L|205:214,1,110,8|0,0:0|0:0,0:0:0:0:
266,267,222185,1,2,0:0:0:0:
337,225,222385,6,0,P|376:207|443:222,1,110,0|2,0:0|0:0,0:0:0:0:
320,334,223185,2,0,P|281:352|214:337,1,110,8|0,0:0|0:0,0:0:0:0:
149,291,223785,1,0,0:0:0:0:
72,321,223985,6,0,P|68:287|113:219,1,110,2|0,0:0|0:0,0:0:0:0:
265,186,224785,2,0,L|326:190,1,55,8|0,0:0|0:0,0:0:0:0:
395,223,225185,1,0,0:0:0:0:
472,195,225385,1,2,0:0:0:0:
383,55,225785,5,0,0:0:0:0:
316,103,225985,2,0,P|273:111|246:109,1,55,2|0,0:0|0:0,0:0:0:0:
180,98,226385,2,0,L|176:223,1,110,8|0,0:0|0:0,0:0:0:0:
313,299,227185,5,2,0:0:0:0:
436,189,227585,2,0,P|440:157|439:132,1,55,0|0,0:0|0:0,0:0:0:0:
378,78,227985,2,0,P|336:65|266:80,1,110,8|0,0:0|0:0,0:0:0:0:
198,113,228585,1,2,0:0:0:0:
121,81,228785,5,0,0:0:0:0:
144,244,229185,1,2,0:0:0:0:
302,199,229585,2,0,P|347:195|366:197,1,55,8|8,0:0|0:0,0:0:0:0:
417,251,229985,2,0,P|452:253|477:250,1,55,8|8,0:0|0:0,0:0:0:0:
429,90,230585,6,0,P|428:57|437:31,2,55,0|0|0,0:0|0:0|0:0,0:0:0:0:
450,169,231185,2,0,P|404:169|351:116,1,110,8|0,0:0|0:0,0:0:0:0:
296,73,231785,1,2,0:0:0:0:
220,106,231985,6,0,L|215:233,1,110,0|2,0:0|0:0,0:0:0:0:
350,311,232785,2,0,P|376:269|379:197,1,110,8|0,0:0|0:0,0:0:0:0:
343,136,233385,1,0,0:0:0:0:
268,101,233585,6,0,P|226:97|153:134,1,110,2|0,0:0|0:0,0:0:0:0:
116,280,234385,2,0,P|174:297|229:275,1,110,8|0,0:0|0:0,0:0:0:0:
279,225,234985,1,2,0:0:0:0:
352,262,235185,6,0,P|390:268|413:267,1,55,0|0,0:0|0:0,0:0:0:0:
481,231,235585,1,2,0:0:0:0:
385,96,235985,2,0,P|340:87|326:87,1,55,8|0,0:0|0:0,0:0:0:0:
268,140,236385,2,0,P|227:146|212:145,1,55,0|0,0:0|0:0,0:0:0:0:
135,118,236785,6,0,L|130:239,1,110,2|0,0:0|0:0,0:0:0:0:
294,247,237585,2,0,P|335:236|409:276,1,110,8|0,0:0|0:0,0:0:0:0:
336,317,238185,1,2,0:0:0:0:
253,324,238385,6,0,P|218:320|182:326,1,55,0|0,0:0|0:0,0:0:0:0:
118,343,238785,1,2,0:0:0:0:
68,185,239185,2,0,P|112:172|125:171,1,55,8|0,0:0|0:0,0:0:0:0:
199,199,239585,2,0,P|244:198|263:203,1,55,0|0,0:0|0:0,0:0:0:0:
328,233,239985,6,0,L|334:122,1,110,2|0,0:0|0:0,0:0:0:0:
484,55,240785,2,0,L|476:182,1,110,8|0,0:0|0:0,0:0:0:0:
256,192,241585,12,6,243185,0:0:0:0:
