osu file format v14

[General]
AudioFilename: audio.mp3
AudioLeadIn: 0
PreviewTime: 63985
Countdown: 0
SampleSet: Soft
StackLeniency: 0.7
Mode: 0
LetterboxInBreaks: 0
WidescreenStoryboard: 1

[Editor]
Bookmarks: 45985,83585
DistanceSpacing: 1.4
BeatDivisor: 4
GridSize: 8
TimelineZoom: 1.8

[Metadata]
Title:Deep In The Night
TitleUnicode:Deep In The Night
Artist:Snails & Pegboard Nerds
ArtistUnicode:Snails & Pegboard Nerds
Creator:vanucik
Version:Hard
Source:
Tags:monstercat dubstep vomitstep
BeatmapID:1092200
BeatmapSetID:513194

[Difficulty]
HPDrainRate:5
CircleSize:4
OverallDifficulty:6
ApproachRate:8
SliderMultiplier:1.2
SliderTickRate:1

[Events]
//Background and Video events
0,0,"Snails-Pegboard-Nerds-Deep-In-The-Night-Art-1000x600.jpg",0,0
//Break Periods
2,89785,95035
2,128185,139435
2,204985,210235
//Storyboard Layer 0 (Background)
//Storyboard Layer 1 (Fail)
//Storyboard Layer 2 (Pass)
//Storyboard Layer 3 (Foreground)
//Storyboard Sound Samples

[TimingPoints]
-15,400,4,2,1,40,1,0
6385,-142.857142857143,4,2,1,40,0,0
12785,-111.111111111111,4,2,1,40,0,0
25585,-100,4,2,1,35,0,0
38385,-90.9090909090909,4,2,1,50,0,0
51185,-83.3333333333333,4,2,1,60,0,0
57585,-71.4285714285714,4,2,1,70,0,0
62385,-125,4,2,1,70,0,0
63985,-62.5,4,2,1,70,0,1
64285,-62.5,4,2,1,5,0,1
64385,-83.3333333333333,4,2,1,70,0,1
67185,-62.5,4,2,1,70,0,1
67485,-62.5,4,2,1,5,0,1
67585,-83.3333333333333,4,2,1,70,0,1
70385,-62.5,4,2,1,70,0,1
70685,-62.5,4,2,1,5,0,1
70785,-83.3333333333333,4,2,1,70,0,1
73585,-62.5,4,2,1,70,0,1
73885,-62.5,4,2,1,5,0,1
73985,-83.3333333333333,4,2,1,70,0,1
76785,-58.8235294117647,4,2,1,70,0,1
77085,-58.8235294117647,4,2,1,5,0,1
77185,-76.9230769230769,4,2,1,70,0,1
82385,-62.5,4,2,1,70,0,1
82685,-62.5,4,2,1,5,0,1
82785,-76.9230769230769,4,2,1,70,0,1
83085,-76.9230769230769,4,2,1,5,0,1
83185,-71.4285714285714,4,2,1,70,0,1
87985,-90.9090909090909,4,2,1,70,0,1
89585,-100,4,2,1,70,0,0
95985,-71.4285714285714,4,2,1,70,0,0
100785,-125,4,2,1,70,0,0
102385,-62.5,4,2,1,70,0,1
102685,-62.5,4,2,1,5,0,1
102785,-71.4285714285714,4,2,1,70,0,1
105585,-62.5,4,2,1,70,0,1
105885,-62.5,4,2,1,5,0,1
105985,-71.4285714285714,4,2,1,70,0,1
108785,-62.5,4,2,1,70,0,1
109085,-62.5,4,2,1,5,0,1
109185,-71.4285714285714,4,2,1,70,0,1
111985,-62.5,4,2,1,70,0,1
112285,-62.5,4,2,1,5,0,1
112385,-71.4285714285714,4,2,1,70,0,1
115185,-100,4,2,1,70,0,1
116785,-71.4285714285714,4,2,1,70,0,1
121585,-62.5,4,2,1,70,0,1
121885,-62.5,4,2,1,5,0,1
121985,-71.4285714285714,4,2,1,70,0,1
124785,-62.5,4,2,1,70,0,1
125085,-62.5,4,2,1,5,0,1
125185,-71.4285714285714,4,2,1,70,0,1
127985,-100,4,2,1,60,0,0
140785,-125,4,2,1,60,0,0
153585,-90.9090909090909,4,2,1,70,0,0
166385,-83.3333333333333,4,2,1,70,0,0
172785,-71.4285714285714,4,2,1,70,0,0
177585,-125,4,2,1,70,0,0
179185,-62.5,4,2,1,70,0,1
179485,-62.5,4,2,1,5,0,1
179585,-83.3333333333333,4,2,1,70,0,1
182385,-62.5,4,2,1,70,0,1
182685,-62.5,4,2,1,5,0,1
182785,-83.3333333333333,4,2,1,70,0,1
185185,-62.5,4,2,1,70,0,1
185585,-83.3333333333333,4,2,1,70,0,1
188785,-66.6666666666667,4,2,1,70,0,1
191185,-83.3333333333333,4,2,1,70,0,1
191985,-58.8235294117647,4,2,1,70,0,1
192285,-58.8235294117647,4,2,1,5,0,1
192385,-71.4285714285714,4,2,1,70,0,1
197585,-62.5,4,2,1,70,0,1
197885,-62.5,4,2,1,5,0,1
197985,-76.9230769230769,4,2,1,70,0,1
198285,-76.9230769230769,4,2,1,5,0,1
198385,-71.4285714285714,4,2,1,70,0,1
203185,-83.3333333333333,4,2,1,70,0,1
204785,-100,4,2,1,70,0,0
211185,-71.4285714285714,4,2,1,70,0,0
215985,-125,4,2,1,70,0,0
217585,-58.8235294117647,4,2,1,70,0,1
217885,-58.8235294117647,4,2,1,5,0,1
217985,-71.4285714285714,4,2,1,70,0,1
220785,-58.8235294117647,4,2,1,70,0,1
221085,-58.8235294117647,4,2,1,5,0,1
221185,-71.4285714285714,4,2,1,70,0,1
223985,-58.8235294117647,4,2,1,70,0,1
224285,-58.8235294117647,4,2,1,5,0,1
224385,-71.4285714285714,4,2,1,70,0,1
227185,-58.8235294117647,4,2,1,70,0,1
227485,-58.8235294117647,4,2,1,5,0,1
227585,-71.4285714285714,4,2,1,70,0,1
233585,-62.5,4,2,1,70,0,1
233885,-62.5,4,2,1,5,0,1
233985,-71.4285714285714,4,2,1,70,0,1
236785,-62.5,4,2,1,70,0,1
237085,-62.5,4,2,1,5,0,1
237185,-71.4285714285714,4,2,1,70,0,1
239985,-62.5,4,2,1,70,0,1
240285,-62.5,4,2,1,5,0,1
240385,-71.4285714285714,4,2,1,70,0,1
243185,-83.3333333333333,4,2,1,70,0,0

[Colours]
Combo1 : 149,0,149
Combo2 : 255,68,68
Combo3 : 0,128,255
Combo4 : 0,168,147
Combo5 : 213,213,0

[HitObjects]
199,152,6385,6,0,P|254:113|314:128,2,125.999996154785,0|0|0,0:0|0:0|0:0,0:0:0:0:
154,260,7985,2,0,P|214:269|262:231,2,125.999996154785,0|0|2,0:0|0:0|0:0,0:0:0:0:
39,231,9585,6,0,L|35:359,2,125.999996154785,0|0|0,0:0|0:0|0:0,0:0:0:0:
124,150,11185,2,0,L|115:23,2,125.999996154785,0|0|2,0:0|0:0|0:0,0:0:0:0:
223,263,12785,6,0,P|259:271|330:243,1,107.999996704102,6|0,0:0|0:0,0:0:0:0:
374,190,13385,1,0,0:0:0:0:
263,87,13785,1,0,0:0:0:0:
200,130,13985,2,0,P|159:139|137:139,1,53.9999983520508,0|0,0:0|0:0,0:0:0:0:
75,114,14385,6,0,L|77:228,1,107.999996704102,0|0,0:0|0:0,0:0:0:0:
128,276,14985,1,0,0:0:0:0:
270,226,15385,1,0,0:0:0:0:
331,269,15585,2,0,P|370:276|396:274,1,53.9999983520508,8|0,0:0|0:0,0:0:0:0:
452,242,15985,6,0,L|459:128,1,107.999996704102,0|0,0:0|0:0,0:0:0:0:
429,64,16585,1,0,0:0:0:0:
303,148,16985,1,0,0:0:0:0:
235,182,17185,2,0,P|204:189|167:187,1,53.9999983520508,0|0,0:0|0:0,0:0:0:0:
106,178,17585,6,0,L|111:306,1,107.999996704102,0|0,0:0|0:0,0:0:0:0:
169,332,18185,1,0,0:0:0:0:
320,332,18585,1,0,0:0:0:0:
369,275,18785,1,8,0:0:0:0:
338,205,18985,1,0,0:0:0:0:
407,147,19185,6,0,P|419:115|399:44,1,107.999996704102,10|0,0:0|0:0,0:0:0:0:
327,26,19785,1,0,0:0:0:0:
263,163,20185,1,0,0:0:0:0:
208,215,20385,2,0,P|157:224|139:221,1,53.9999983520508,0|0,0:0|0:0,0:0:0:0:
82,205,20785,6,0,L|74:92,1,107.999996704102,0|0,0:0|0:0,0:0:0:0:
120,37,21385,1,0,0:0:0:0:
250,112,21785,1,0,0:0:0:0:
319,142,21985,2,0,P|364:143|386:134,1,53.9999983520508,8|0,0:0|0:0,0:0:0:0:
454,108,22385,6,0,L|450:239,1,107.999996704102,10|0,0:0|0:0,0:0:0:0:
398,270,22985,2,0,P|354:285|295:271,1,107.999996704102,0|0,0:0|0:0,0:0:0:0:
230,231,23585,2,0,L|177:234,1,53.9999983520508,0|0,0:0|0:0,0:0:0:0:
109,196,23985,6,0,P|69:189|1:223,1,107.999996704102,0|0,0:0|0:0,0:0:0:0:
19,289,24585,1,0,0:0:0:0:
170,290,24985,2,0,L|176:325,2,26.9999991760254,2|2|2,0:0|0:0|0:0,0:0:0:0:
223,218,25385,1,8,0:0:0:0:
290,311,25585,6,0,P|328:332|383:327,2,90,6|0|0,0:0|0:0|0:0,0:0:0:0:
347,250,26385,2,0,L|358:119,1,120,0|0,0:0|0:0,0:0:0:0:
309,60,26985,1,0,0:0:0:0:
236,102,27185,6,0,P|191:118|134:100,2,90,0|0|0,0:0|0:0|0:0,0:0:0:0:
309,60,27985,2,0,P|357:49|418:85,1,120,0|0,0:0|0:0,0:0:0:0:
447,160,28585,1,0,0:0:0:0:
406,233,28785,6,0,P|394:275|417:333,2,90,0|0|0,0:0|0:0|0:0,0:0:0:0:
355,165,29585,2,0,L|231:178,1,120,0|0,0:0|0:0,0:0:0:0:
160,139,30185,1,0,0:0:0:0:
97,194,30385,6,0,P|91:232|94:260,1,60,0|0,0:0|0:0,0:0:0:0:
107,292,30685,2,0,P|152:314|196:305,1,90,0|0,0:0|0:0,0:0:0:0:
255,254,31185,2,0,L|375:259,1,120,0|0,0:0|0:0,0:0:0:0:
444,211,31785,1,0,0:0:0:0:
406,81,31985,6,0,P|357:74|317:95,2,90,10|0|0,0:0|0:0|0:0,0:0:0:0:
372,158,32785,2,0,P|339:169|310:166,1,60,0|0,0:0|0:0,0:0:0:0:
237,133,33185,2,0,P|204:122|175:125,1,60,0|0,0:0|0:0,0:0:0:0:
112,174,33585,6,0,L|122:281,2,90,0|0|0,0:0|0:0|0:0,0:0:0:0:
188,208,34385,2,0,P|229:224|298:197,1,120,0|0,0:0|0:0,0:0:0:0:
355,137,34985,1,0,0:0:0:0:
424,226,35185,6,0,L|416:338,2,90,10|0|0,0:0|0:0|0:0,0:0:0:0:
347,260,35985,2,0,P|311:273|285:276,1,60,0|0,0:0|0:0,0:0:0:0:
220,229,36385,2,0,P|184:222|156:223,1,60,0|0,0:0|0:0,0:0:0:0:
102,302,36785,6,0,P|68:239|75:181,1,120,0|0,0:0|0:0,0:0:0:0:
101,114,37385,1,0,0:0:0:0:
159,53,37585,2,0,L|222:54,1,60,0|0,0:0|0:0,0:0:0:0:
252,131,37985,2,0,L|181:132,1,60,0|0,0:0|0:0,0:0:0:0:
187,259,38385,6,0,P|228:257|272:220,1,99.0000030212403,6|0,0:0|0:0,0:0:0:0:
306,185,38785,2,0,L|375:177,1,66.0000020141602,0|0,0:0|0:0,0:0:0:0:
432,247,39185,2,0,P|445:282|447:316,1,66.0000020141602,0|0,0:0|0:0,0:0:0:0:
353,299,39585,2,0,P|340:334|338:368,1,66.0000020141602,0|0,0:0|0:0,0:0:0:0:
223,308,39985,6,0,P|214:270|240:203,1,99.0000030212403,2|0,0:0|0:0,0:0:0:0:
268,186,40385,2,0,L|263:117,1,66.0000020141602,0|0,0:0|0:0,0:0:0:0:
188,64,40785,2,0,P|152:62|122:70,1,66.0000020141602,0|0,0:0|0:0,0:0:0:0:
72,147,41185,1,0,0:0:0:0:
164,152,41385,1,8,0:0:0:0:
93,241,41585,6,0,P|79:282|88:349,1,99.0000030212403,2|0,0:0|0:0,0:0:0:0:
111,374,41985,2,0,L|176:363,1,66.0000020141602,0|0,0:0|0:0,0:0:0:0:
254,312,42385,2,0,B|290:308|317:296|317:296|326:310|326:310|346:300|380:309,1,132.00000402832,0|0,0:0|0:0,0:0:0:0:
468,305,42985,1,0,0:0:0:0:
409,194,43185,5,2,0:0:0:0:
321,223,43385,2,0,P|296:226|285:226,2,33.0000010070801,0|0|0,0:0|0:0|0:0,0:0:0:0:
298,133,43785,1,0,0:0:0:0:
221,185,43985,2,0,P|208:227|210:253,1,66.0000020141602,0|0,0:0|0:0,0:0:0:0:
251,330,44385,1,0,0:0:0:0:
340,350,44585,1,8,0:0:0:0:
410,235,44785,6,0,P|369:219|307:226,1,99.0000030212403,6|0,0:0|0:0,0:0:0:0:
272,243,45185,2,0,P|262:213|260:176,1,66.0000020141602,0|0,0:0|0:0,0:0:0:0:
299,94,45585,2,0,P|259:106|176:68,1,132.00000402832,0|0,0:0|0:0,0:0:0:0:
99,25,46185,1,0,0:0:0:0:
77,114,46385,6,0,L|86:217,1,99.0000030212403,2|0,0:0|0:0,0:0:0:0:
99,257,46785,2,0,P|137:266|169:262,1,66.0000020141602,0|0,0:0|0:0,0:0:0:0:
233,202,47185,2,0,P|275:203|305:209,1,66.0000020141602,0|0,0:0|0:0,0:0:0:0:
376,257,47585,1,0,0:0:0:0:
414,340,47785,1,8,0:0:0:0:
459,218,47985,6,0,P|430:182|364:167,1,99.0000030212403,6|0,0:0|0:0,0:0:0:0:
337,181,48385,2,0,P|297:185|265:178,1,66.0000020141602,0|0,0:0|0:0,0:0:0:0:
205,114,48785,2,0,B|172:129|133:116|133:116|107:129|107:129|62:124,1,132.00000402832,0|0,0:0|0:0,0:0:0:0:
30,198,49385,1,0,0:0:0:0:
126,269,49585,6,0,P|167:280|224:249,1,99.0000030212403,2|0,0:0|0:0,0:0:0:0:
246,222,49985,2,0,L|315:228,1,66.0000020141602,0|0,0:0|0:0,0:0:0:0:
371,154,50385,2,0,P|376:117|367:82,1,66.0000020141602,0|0,0:0|0:0,0:0:0:0:
296,32,50785,1,0,0:0:0:0:
227,93,50985,1,8,0:0:0:0:
114,44,51185,6,0,L|110:167,1,107.999996704102,6|8,0:0|0:0,0:0:0:0:
135,196,51585,2,0,P|148:235|146:269,1,71.9999978027344,2|8,0:0|0:0,0:0:0:0:
210,344,51985,1,2,0:0:0:0:
210,344,52085,1,8,0:0:0:0:
210,344,52185,1,0,0:0:0:0:
210,344,52285,1,0,0:0:0:0:
210,344,52385,2,0,L|285:340,1,71.9999978027344,2|0,0:0|0:0,0:0:0:0:
398,266,52785,6,0,P|360:242|285:244,1,107.999996704102,2|8,0:0|0:0,0:0:0:0:
251,258,53185,2,0,L|244:181,1,71.9999978027344,2|8,0:0|0:0,0:0:0:0:
291,97,53585,1,2,0:0:0:0:
291,97,53685,1,8,0:0:0:0:
291,97,53785,1,0,0:0:0:0:
291,97,53885,1,0,0:0:0:0:
291,97,53985,2,0,L|368:93,1,71.9999978027344,2|0,0:0|0:0,0:0:0:0:
303,195,54385,6,0,P|258:193|205:146,1,107.999996704102,2|8,0:0|0:0,0:0:0:0:
192,107,54785,2,0,L|110:110,1,71.9999978027344,2|8,0:0|0:0,0:0:0:0:
66,195,55185,1,2,0:0:0:0:
66,195,55285,1,8,0:0:0:0:
66,195,55385,1,0,0:0:0:0:
66,195,55485,1,0,0:0:0:0:
66,195,55585,2,0,P|76:239|74:274,1,71.9999978027344,2|0,0:0|0:0,0:0:0:0:
48,362,55985,6,0,P|100:343|166:354,1,107.999996704102,2|8,0:0|0:0,0:0:0:0:
199,365,56385,2,0,L|272:354,1,71.9999978027344,2|8,0:0|0:0,0:0:0:0:
331,274,56785,2,0,L|378:277,2,35.9999989013672,2|8|0,0:0|0:0|0:0,0:0:0:0:
259,202,57185,1,2,0:0:0:0:
169,247,57385,1,8,0:0:0:0:
169,247,57485,1,8,0:0:0:0:
169,247,57585,6,0,P|124:256|81:247,1,83.9999974365235,8|2,0:0|0:0,0:0:0:0:
139,143,57985,2,0,P|184:134|227:143,1,83.9999974365235,8|2,0:0|0:0,0:0:0:0:
346,224,58385,2,0,P|301:233|258:224,1,83.9999974365235,8|2,0:0|0:0,0:0:0:0:
316,120,58785,1,8,0:0:0:0:
439,151,58985,1,8,0:0:0:0:
439,151,59085,1,8,0:0:0:0:
439,151,59185,6,0,L|443:235,1,83.9999974365235,8|2,0:0|0:0,0:0:0:0:
349,307,59585,2,0,L|345:223,1,83.9999974365235,8|2,0:0|0:0,0:0:0:0:
243,164,59985,2,0,L|247:248,1,83.9999974365235,8|2,0:0|0:0,0:0:0:0:
153,320,60385,1,8,0:0:0:0:
86,222,60585,1,8,0:0:0:0:
92,195,60685,1,8,0:0:0:0:
98,168,60785,6,0,P|119:162|142:161,3,41.9999987182618,8|8|8|8,0:0|0:0|0:0|0:0,0:0:0:0:
190,191,61185,2,0,P|211:197|234:198,3,41.9999987182618,8|8|8|8,0:0|0:0|0:0|0:0,0:0:0:0:
279,163,61585,2,0,P|300:157|323:156,3,41.9999987182618,8|8|8|8,0:0|0:0|0:0|0:0,0:0:0:0:
371,186,61985,2,0,P|392:192|415:193,3,41.9999987182618,8|8|8|8,0:0|0:0|0:0|0:0,0:0:0:0:
450,150,62385,6,0,B|425:114|430:69|430:69|386:79|386:79|352:56|352:56|317:78|273:73,1,240,2|0,0:0|0:0,0:0:0:0:
221,50,63585,2,0,L|155:56,1,48,8|0,0:0|0:0,0:0:0:0:
93,163,63985,6,0,P|126:214|201:205,1,144,6|0,0:0|0:0,0:0:0:0:
247,185,64385,6,0,L|329:193,1,71.9999978027344,0|0,0:0|0:0,0:0:0:0:
440,139,64785,1,8,0:0:0:0:
496,222,64985,1,0,0:0:0:0:
456,314,65185,1,0,0:0:0:0:
358,338,65385,1,0,0:0:0:0:
372,220,65585,5,2,0:0:0:0:
279,178,65785,2,0,P|236:173|205:180,2,71.9999978027344,0|0|0,0:0|0:0|0:0,0:0:0:0:
243,287,66385,2,0,P|201:300|173:300,1,71.9999978027344,8|0,0:0|0:0,0:0:0:0:
93,236,66785,1,0,0:0:0:0:
81,135,66985,1,0,0:0:0:0:
204,59,67185,6,0,P|250:85|266:170,1,144,2|0,0:0|0:0,0:0:0:0:
243,214,67585,6,0,L|319:218,1,71.9999978027344,0|0,0:0|0:0,0:0:0:0:
441,130,67985,1,8,0:0:0:0:
340,142,68185,1,0,0:0:0:0:
394,226,68385,1,0,0:0:0:0:
494,214,68585,1,0,0:0:0:0:
340,142,68785,6,0,P|304:139|266:148,1,71.9999978027344,2|0,0:0|0:0,0:0:0:0:
177,188,69185,2,0,P|141:191|103:182,1,71.9999978027344,0|0,0:0|0:0,0:0:0:0:
115,66,69585,1,8,0:0:0:0:
208,27,69785,1,0,0:0:0:0:
283,93,69985,2,0,P|323:113|356:113,1,71.9999978027344,0|0,0:0|0:0,0:0:0:0:
487,76,70385,6,0,B|495:111|490:139|490:139|505:148|505:148|487:180|492:218,1,144,2|0,0:0|0:0,0:0:0:0:
489,258,70785,6,0,P|445:279|409:281,1,71.9999978027344,0|0,0:0|0:0,0:0:0:0:
290,210,71185,2,0,L|370:212,1,71.9999978027344,8|0,0:0|0:0,0:0:0:0:
331,115,71585,2,0,L|256:117,1,71.9999978027344,0|0,0:0|0:0,0:0:0:0:
151,177,71985,5,2,0:0:0:0:
93,94,72185,1,0,0:0:0:0:
154,14,72385,1,0,0:0:0:0:
255,44,72585,1,0,0:0:0:0:
290,147,72785,2,0,P|331:160|363:161,1,71.9999978027344,8|0,0:0|0:0,0:0:0:0:
436,94,73185,2,0,P|471:96|505:108,1,71.9999978027344,0|0,0:0|0:0,0:0:0:0:
438,224,73585,6,0,B|411:247|379:241|379:241|371:258|371:258|336:252|298:269,1,144,2|0,0:0|0:0,0:0:0:0:
264,285,73985,6,0,P|217:298|185:293,1,71.9999978027344,0|0,0:0|0:0,0:0:0:0:
83,226,74385,1,8,0:0:0:0:
150,151,74585,1,0,0:0:0:0:
150,151,74685,1,0,0:0:0:0:
150,151,74785,2,0,P|184:139|226:140,1,71.9999978027344,0|0,0:0|0:0,0:0:0:0:
335,182,75185,5,2,0:0:0:0:
405,109,75385,2,0,P|402:84|395:69,2,35.9999989013672,0|0|0,0:0|0:0|0:0,0:0:0:0:
307,80,75785,1,0,0:0:0:0:
269,211,75985,2,0,P|267:255|272:289,1,71.9999978027344,8|0,0:0|0:0,0:0:0:0:
394,356,76385,1,8,0:0:0:0:
399,221,76585,1,8,0:0:0:0:
302,354,76785,6,0,P|238:360|175:302,1,153.000002918243,6|0,0:0|0:0,0:0:0:0:
165,249,77185,5,0,0:0:0:0:
207,148,77385,1,0,0:0:0:0:
207,148,77485,1,0,0:0:0:0:
207,148,77585,1,8,0:0:0:0:
309,111,77785,1,0,0:0:0:0:
309,111,77885,1,0,0:0:0:0:
309,111,77985,2,0,P|327:115|355:117,2,38.9999982147218,0|0|0,0:0|0:0|0:0,0:0:0:0:
198,40,78385,5,2,0:0:0:0:
109,103,78585,1,0,0:0:0:0:
207,148,78785,2,0,P|217:172|218:201,2,38.9999982147218,0|0|0,0:0|0:0|0:0,0:0:0:0:
100,214,79185,1,8,0:0:0:0:
100,214,79285,1,0,0:0:0:0:
100,214,79385,1,0,0:0:0:0:
148,311,79585,1,0,0:0:0:0:
247,266,79785,1,0,0:0:0:0:
323,365,79985,5,2,0:0:0:0:
426,329,80185,2,0,P|472:320|513:334,2,77.9999964294435,0|0|0,0:0|0:0|0:0,0:0:0:0:
334,239,80785,2,0,P|317:204|312:162,1,77.9999964294435,8|0,0:0|0:0,0:0:0:0:
400,102,81185,2,0,P|402:66|389:23,1,77.9999964294435,0|0,0:0|0:0,0:0:0:0:
294,45,81585,5,6,0:0:0:0:
276,61,81685,1,0,0:0:0:0:
256,73,81785,1,0,0:0:0:0:
233,80,81885,1,0,0:0:0:0:
209,81,81985,2,0,P|169:77|131:59,1,77.9999964294435,0|0,0:0|0:0,0:0:0:0:
43,199,82385,6,0,P|86:237|167:211,1,144,8|0,0:0|0:0,0:0:0:0:
202,176,82785,6,0,B|210:194|204:209|204:209|209:221|208:236|208:236|203:253|207:261|207:261|205:280|211:294|211:294,1,116.999994644165,0|0,0:0|0:0,0:0:0:0:
219,348,83185,5,2,0:0:0:0:
335,330,83385,1,0,0:0:0:0:
316,213,83585,1,0,0:0:0:0:
432,228,83785,1,0,0:0:0:0:
346,121,83985,2,0,P|298:116|260:134,1,83.9999974365235,8|0,0:0|0:0,0:0:0:0:
169,197,84385,2,0,P|121:202|83:184,1,83.9999974365235,0|0,0:0|0:0,0:0:0:0:
29,66,84785,5,2,0:0:0:0:
142,35,84985,1,0,0:0:0:0:
228,114,85185,2,0,P|272:124|313:116,1,83.9999974365235,0|0,0:0|0:0,0:0:0:0:
445,54,85585,2,0,L|358:49,1,83.9999974365235,8|0,0:0|0:0,0:0:0:0:
425,147,85985,2,0,L|508:142,1,83.9999974365235,0|0,0:0|0:0,0:0:0:0:
374,234,86385,5,2,0:0:0:0:
289,151,86585,1,0,0:0:0:0:
250,262,86785,2,0,P|222:281|162:291,1,83.9999974365235,0|0,0:0|0:0,0:0:0:0:
56,195,87185,2,0,L|146:199,1,83.9999974365235,8|0,0:0|0:0,0:0:0:0:
213,107,87585,2,0,L|119:114,1,83.9999974365235,0|0,0:0|0:0,0:0:0:0:
259,189,87985,5,2,0:0:0:0:
272,180,88085,1,0,0:0:0:0:
284,169,88185,1,0,0:0:0:0:
347,101,88385,2,0,P|382:92|419:90,1,66.0000020141602,0|0,0:0|0:0,0:0:0:0:
455,207,88785,2,0,P|422:204|390:195,1,66.0000020141602,8|2,0:0|0:0,0:0:0:0:
327,262,89185,2,0,P|292:253|281:253,2,33.0000010070801,2|0|8,0:0|0:0|0:0,0:0:0:0:
367,335,89585,5,2,0:0:0:0:
98,131,95785,5,8,0:0:0:0:
98,131,95885,1,8,0:0:0:0:
98,131,95985,6,0,L|105:231,1,83.9999974365235,8|2,0:0|0:0,0:0:0:0:
202,278,96385,2,0,L|195:178,1,83.9999974365235,8|2,0:0|0:0,0:0:0:0:
284,116,96785,2,0,L|291:216,1,83.9999974365235,8|2,0:0|0:0,0:0:0:0:
384,270,97185,1,8,0:0:0:0:
449,172,97385,1,8,0:0:0:0:
449,172,97485,1,8,0:0:0:0:
449,172,97585,6,0,P|391:155|349:161,1,83.9999974365235,8|2,0:0|0:0,0:0:0:0:
280,234,97985,2,0,P|222:251|180:245,1,83.9999974365235,8|2,0:0|0:0,0:0:0:0:
153,140,98385,2,0,P|95:123|53:129,1,83.9999974365235,8|2,0:0|0:0,0:0:0:0:
5,221,98785,1,8,0:0:0:0:
61,324,98985,1,8,0:0:0:0:
82,335,99085,1,8,0:0:0:0:
103,346,99185,6,0,P|133:349|154:346,3,41.9999987182618,8|8|8|8,0:0|0:0|0:0|0:0,0:0:0:0:
181,301,99585,2,0,P|210:296|230:287,3,41.9999987182618,8|8|8|8,0:0|0:0|0:0|0:0,0:0:0:0:
240,235,99985,2,0,P|267:222|284:209,3,41.9999987182618,8|8|8|8,0:0|0:0|0:0|0:0,0:0:0:0:
269,157,100385,2,0,P|292:137|305:120,3,41.9999987182618,8|8|8|8,0:0|0:0|0:0|0:0,0:0:0:0:
307,73,100785,6,0,B|272:37|219:51|219:51|183:28|183:28|150:80|96:79,1,240,2|0,0:0|0:0,0:0:0:0:
67,148,101985,2,0,P|96:156|123:153,1,48,8|0,0:0|0:0,0:0:0:0:
240,244,102385,6,0,P|197:281|111:259,1,144,6|0,0:0|0:0,0:0:0:0:
69,229,102785,6,0,P|60:283|65:329,1,83.9999974365235,0|0,0:0|0:0,0:0:0:0:
171,211,103185,1,8,0:0:0:0:
87,128,103385,1,0,0:0:0:0:
204,120,103585,1,0,0:0:0:0:
120,37,103785,1,0,0:0:0:0:
171,211,103985,5,2,0:0:0:0:
285,239,104185,1,0,0:0:0:0:
365,152,104385,2,0,P|361:104|343:72,1,83.9999974365235,0|0,0:0|0:0,0:0:0:0:
229,43,104785,1,8,0:0:0:0:
127,102,104985,1,0,0:0:0:0:
245,143,105185,1,0,0:0:0:0:
123,199,105385,1,0,0:0:0:0:
253,251,105585,6,0,P|286:272|236:357,1,144,2|0,0:0|0:0,0:0:0:0:
197,353,105985,6,0,P|151:345|107:351,1,83.9999974365235,0|0,0:0|0:0,0:0:0:0:
8,283,106385,1,8,0:0:0:0:
114,237,106585,1,0,0:0:0:0:
43,142,106785,1,0,0:0:0:0:
8,283,106985,1,0,0:0:0:0:
135,322,107185,6,0,P|187:322|226:306,1,83.9999974365235,2|0,0:0|0:0,0:0:0:0:
312,242,107585,2,0,P|366:229|409:231,1,83.9999974365235,0|0,0:0|0:0,0:0:0:0:
487,117,107985,1,8,0:0:0:0:
378,73,108185,1,0,0:0:0:0:
273,155,108385,1,0,0:0:0:0:
148,79,108585,1,0,0:0:0:0:
165,232,108785,6,0,B|202:252|240:235|240:235|256:252|256:252|277:244|302:243,1,144,2|0,0:0|0:0,0:0:0:0:
356,256,109185,6,0,P|368:301|365:348,1,83.9999974365235,0|0,0:0|0:0,0:0:0:0:
465,274,109585,2,0,P|473:233|462:187,1,83.9999974365235,8|0,0:0|0:0,0:0:0:0:
356,145,109985,2,0,P|346:104|354:58,1,83.9999974365235,0|0,0:0|0:0,0:0:0:0:
461,19,110385,5,2,0:0:0:0:
478,135,110585,2,0,L|471:227,2,83.9999974365235,0|0|0,0:0|0:0|0:0,0:0:0:0:
389,57,111185,2,0,P|345:48|300:53,1,83.9999974365235,8|0,0:0|0:0,0:0:0:0:
200,104,111585,2,0,P|141:109|105:98,1,83.9999974365235,0|0,0:0|0:0,0:0:0:0:
110,237,111985,6,0,P|160:254|236:204,1,144,2|0,0:0|0:0,0:0:0:0:
259,156,112385,6,0,L|349:161,1,83.9999974365235,0|0,0:0|0:0,0:0:0:0:
453,77,112785,1,8,0:0:0:0:
347,88,112985,1,0,0:0:0:0:
420,179,113185,2,0,P|461:189|507:178,1,83.9999974365235,0|0,0:0|0:0,0:0:0:0:
405,275,113585,6,0,P|355:296|313:296,1,83.9999974365235,2|0,0:0|0:0,0:0:0:0:
220,247,113985,2,0,P|172:246|133:258,1,83.9999974365235,0|0,0:0|0:0,0:0:0:0:
15,310,114385,1,8,0:0:0:0:
146,338,114585,1,8,0:0:0:0:
57,237,114785,1,8,0:0:0:0:
71,370,114985,1,8,0:0:0:0:
144,215,115385,6,0,L|139:151,2,60,0|0|0,0:0|0:0|0:0,0:0:0:0:
210,270,115985,1,8,0:0:0:0:
302,259,116185,1,0,0:0:0:0:
302,259,116285,1,0,0:0:0:0:
302,259,116385,1,0,0:0:0:0:
340,174,116585,1,2,0:0:0:0:
397,276,116785,6,0,P|375:325|346:348,1,83.9999974365235,0|0,0:0|0:0,0:0:0:0:
235,330,117185,2,0,P|189:348|143:348,1,83.9999974365235,2|0,0:0|0:0,0:0:0:0:
104,243,117585,2,0,B|86:207|86:207|95:170|95:170|62:138|55:82,1,167.999994873047,8|0,0:0|0:0,0:0:0:0:
173,78,118185,1,0,0:0:0:0:
217,194,118385,6,0,P|258:202|303:193,1,83.9999974365235,2|0,0:0|0:0,0:0:0:0:
384,123,118785,2,0,P|437:115|474:125,1,83.9999974365235,0|0,0:0|0:0,0:0:0:0:
377,44,119185,2,0,L|287:38,1,83.9999974365235,8|0,0:0|0:0,0:0:0:0:
206,118,119585,1,0,0:0:0:0:
98,70,119785,1,2,0:0:0:0:
115,201,119985,5,0,0:0:0:0:
115,201,120085,1,0,0:0:0:0:
115,201,120185,1,0,0:0:0:0:
204,277,120385,2,0,P|251:287|292:279,1,83.9999974365235,2|0,0:0|0:0,0:0:0:0:
387,219,120785,1,8,0:0:0:0:
434,326,120985,1,0,0:0:0:0:
511,237,121185,1,0,0:0:0:0:
509,354,121385,1,0,0:0:0:0:
387,219,121585,6,0,P|337:202|269:255,1,144,6|0,0:0|0:0,0:0:0:0:
255,310,121985,6,0,P|210:327|166:322,1,83.9999974365235,0|0,0:0|0:0,0:0:0:0:
116,214,122385,2,0,P|157:212|196:228,1,83.9999974365235,8|0,0:0|0:0,0:0:0:0:
34,263,122785,2,0,P|19:215|27:172,1,83.9999974365235,0|0,0:0|0:0,0:0:0:0:
108,74,123185,5,2,0:0:0:0:
204,141,123385,1,0,0:0:0:0:
215,23,123585,1,0,0:0:0:0:
108,74,123785,1,0,0:0:0:0:
148,216,123985,2,0,P|187:234|240:227,1,83.9999974365235,8|0,0:0|0:0,0:0:0:0:
324,166,124385,2,0,P|363:148|416:155,1,83.9999974365235,0|0,0:0|0:0,0:0:0:0:
422,299,124785,6,0,P|369:327|288:293,1,144,2|0,0:0|0:0,0:0:0:0:
256,254,125185,6,0,L|168:261,1,83.9999974365235,0|0,0:0|0:0,0:0:0:0:
81,149,125585,2,0,P|120:140|166:145,1,83.9999974365235,8|0,0:0|0:0,0:0:0:0:
275,180,125985,2,0,P|322:185|369:171,1,83.9999974365235,0|0,0:0|0:0,0:0:0:0:
431,84,126385,5,0,0:0:0:0:
431,84,126485,1,0,0:0:0:0:
431,84,126585,2,0,L|428:42,2,41.9999987182618,0|0|0,0:0|0:0|0:0,0:0:0:0:
313,76,126985,1,0,0:0:0:0:
306,60,127085,1,0,0:0:0:0:
298,44,127185,2,0,P|261:35|246:34,3,41.9999987182618,0|0|2|2,0:0|0:0|0:0|0:0,0:0:0:0:
207,66,127585,2,0,P|161:81|115:75,1,83.9999974365235,2|8,0:0|0:0,0:0:0:0:
37,39,127985,5,6,0:0:0:0:
465,169,140185,6,0,L|432:153,2,30,2|2|2,0:0|0:0|0:0,0:0:0:0:
476,272,140585,1,8,0:0:0:0:
365,189,140785,6,0,P|359:141|425:78,2,144,6|0|0,0:0|0:0|0:0,0:0:0:0:
292,302,142385,2,0,B|224:328|224:328|151:309,2,144,0|0|0,0:0|0:0|0:0,0:0:0:0:
327,172,143985,6,0,L|478:180,2,144,0|0|0,0:0|0:0|0:0,0:0:0:0:
227,81,145585,2,0,L|378:73,2,144,0|0|0,0:0|0:0|0:0,0:0:0:0:
154,85,146985,1,0,0:0:0:0:
102,143,147185,6,0,P|96:181|147:271,2,144,0|0|0,0:0|0:0|0:0,0:0:0:0:
217,212,148785,2,0,P|260:267|259:338,2,144,0|0|0,0:0|0:0|0:0,0:0:0:0:
274,90,150385,6,0,B|302:44|302:44|283:90|307:146,2,144,0|0|0,0:0|0:0|0:0,0:0:0:0:
408,85,151985,2,0,B|440:130|416:184|416:184|429:236,2,144,0|0|2,0:0|0:0|0:0,0:0:0:0:
347,44,153385,1,8,0:0:0:0:
264,101,153585,6,0,P|211:121|157:110,1,99.0000030212403,6|0,0:0|0:0,0:0:0:0:
126,99,153985,2,0,L|132:183,1,66.0000020141602,0|0,0:0|0:0,0:0:0:0:
222,267,154385,2,0,P|230:218|223:189,1,66.0000020141602,0|0,0:0|0:0,0:0:0:0:
125,251,154785,2,0,P|122:283|130:315,1,66.0000020141602,0|0,0:0|0:0,0:0:0:0:
211,360,155185,6,0,P|265:364|312:331,1,99.0000030212403,0|0,0:0|0:0,0:0:0:0:
327,302,155585,2,0,L|392:309,1,66.0000020141602,0|0,0:0|0:0,0:0:0:0:
419,220,155985,2,0,L|351:227,1,66.0000020141602,0|0,0:0|0:0,0:0:0:0:
260,222,156385,1,0,0:0:0:0:
194,157,156585,1,0,0:0:0:0:
209,65,156785,6,0,P|248:47|306:59,1,99.0000030212403,0|0,0:0|0:0,0:0:0:0:
334,88,157185,2,0,L|413:78,1,66.0000020141602,0|0,0:0|0:0,0:0:0:0:
422,169,157585,2,0,P|381:205|291:198,1,132.00000402832,0|0,0:0|0:0,0:0:0:0:
220,170,158185,1,0,0:0:0:0:
186,256,158385,6,0,L|196:326,1,66.0000020141602,0|0,0:0|0:0,0:0:0:0:
149,322,158685,2,0,P|113:284|116:228,1,99.0000030212403,0|0,0:0|0:0,0:0:0:0:
121,147,159185,2,0,P|83:148|56:156,1,66.0000020141602,0|0,0:0|0:0,0:0:0:0:
12,237,159585,1,0,0:0:0:0:
34,326,159785,1,0,0:0:0:0:
143,345,159985,6,0,P|186:345|241:305,1,99.0000030212403,12|0,0:0|0:0,0:0:0:0:
241,270,160385,2,0,L|235:192,1,66.0000020141602,0|0,0:0|0:0,0:0:0:0:
273,119,160785,2,0,P|317:159|326:228,1,132.00000402832,0|0,0:0|0:0,0:0:0:0:
241,270,161385,1,0,0:0:0:0:
163,219,161585,6,0,P|125:211|64:224,1,99.0000030212403,0|0,0:0|0:0,0:0:0:0:
24,243,161985,2,0,L|19:169,1,66.0000020141602,0|0,0:0|0:0,0:0:0:0:
88,84,162385,2,0,P|128:77|155:78,1,66.0000020141602,0|0,0:0|0:0,0:0:0:0:
207,153,162785,2,0,P|258:156|289:150,1,66.0000020141602,0|0,0:0|0:0,0:0:0:0:
351,77,163185,6,0,P|380:124|376:184,1,99.0000030212403,2|0,0:0|0:0,0:0:0:0:
366,210,163585,2,0,L|433:223,1,66.0000020141602,0|0,0:0|0:0,0:0:0:0:
391,306,163985,2,0,P|319:303|276:256,1,132.00000402832,0|0,0:0|0:0,0:0:0:0:
246,175,164585,1,0,0:0:0:0:
161,212,164785,6,0,L|59:215,1,99.0000030212403,0|0,0:0|0:0,0:0:0:0:
28,247,165185,2,0,P|17:282|20:313,1,66.0000020141602,0|0,0:0|0:0,0:0:0:0:
109,287,165585,2,0,P|141:287|183:297,1,66.0000020141602,0|0,0:0|0:0,0:0:0:0:
259,329,165985,1,0,0:0:0:0:
351,323,166185,1,0,0:0:0:0:
423,223,166385,6,0,P|382:205|304:208,1,107.999996704102,6|8,0:0|0:0,0:0:0:0:
271,219,166785,2,0,L|260:138,1,71.9999978027344,2|8,0:0|0:0,0:0:0:0:
174,96,167185,1,2,0:0:0:0:
174,96,167285,1,8,0:0:0:0:
174,96,167385,1,0,0:0:0:0:
174,96,167485,1,0,0:0:0:0:
174,96,167585,2,0,P|172:141|164:166,1,71.9999978027344,2|0,0:0|0:0,0:0:0:0:
71,251,167985,6,0,P|115:234|182:251,1,107.999996704102,2|8,0:0|0:0,0:0:0:0:
215,274,168385,2,0,L|291:264,1,71.9999978027344,2|8,0:0|0:0,0:0:0:0:
331,181,168785,1,2,0:0:0:0:
331,181,168885,1,8,0:0:0:0:
331,181,168985,1,0,0:0:0:0:
331,181,169085,1,0,0:0:0:0:
331,181,169185,2,0,P|310:153|275:127,1,71.9999978027344,10|2,0:0|0:0,0:0:0:0:
190,212,169585,6,0,P|154:226|79:202,1,107.999996704102,6|8,0:0|0:0,0:0:0:0:
47,180,169985,2,0,L|41:263,1,71.9999978027344,2|8,0:0|0:0,0:0:0:0:
114,321,170385,1,2,0:0:0:0:
114,321,170485,1,8,0:0:0:0:
114,321,170585,1,0,0:0:0:0:
114,321,170685,1,0,0:0:0:0:
114,321,170785,2,0,P|150:314|191:322,1,71.9999978027344,2|0,0:0|0:0,0:0:0:0:
277,245,171185,6,0,L|272:129,1,107.999996704102,2|8,0:0|0:0,0:0:0:0:
300,95,171585,2,0,P|302:54|291:24,1,71.9999978027344,2|8,0:0|0:0,0:0:0:0:
205,70,171985,1,2,0:0:0:0:
110,35,172185,2,0,P|87:33|63:36,2,35.9999989013672,0|0|2,0:0|0:0|0:0,0:0:0:0:
117,136,172585,1,8,0:0:0:0:
117,136,172685,1,8,0:0:0:0:
117,136,172785,6,0,L|125:229,1,83.9999974365235,8|2,0:0|0:0,0:0:0:0:
226,279,173185,2,0,L|218:186,1,83.9999974365235,8|2,0:0|0:0,0:0:0:0:
304,113,173585,2,0,L|312:206,1,83.9999974365235,8|2,0:0|0:0,0:0:0:0:
412,257,173985,1,8,0:0:0:0:
484,164,174185,1,8,0:0:0:0:
484,164,174285,1,8,0:0:0:0:
484,164,174385,6,0,P|434:151|397:156,1,83.9999974365235,8|2,0:0|0:0,0:0:0:0:
302,216,174785,2,0,P|252:229|215:224,1,83.9999974365235,8|2,0:0|0:0,0:0:0:0:
142,137,175185,2,0,L|244:133,1,83.9999974365235,8|2,0:0|0:0,0:0:0:0:
328,75,175585,1,8,0:0:0:0:
405,163,175785,1,8,0:0:0:0:
405,163,175885,1,8,0:0:0:0:
405,163,175985,6,0,P|381:180|360:187,3,41.9999987182618,8|8|8|8,0:0|0:0|0:0|0:0,0:0:0:0:
338,234,176385,2,0,P|309:241|287:241,3,41.9999987182618,8|8|8|8,0:0|0:0|0:0|0:0,0:0:0:0:
247,274,176785,2,0,P|217:271|197:263,3,41.9999987182618,8|8|8|8,0:0|0:0|0:0|0:0,0:0:0:0:
147,275,177185,2,0,P|120:262|103:248,3,41.9999987182618,8|8|8|8,0:0|0:0|0:0|0:0,0:0:0:0:
55,233,177585,6,0,B|46:198|50:164|50:164|86:170|86:170|59:95|103:44,1,240,2|0,0:0|0:0,0:0:0:0:
170,23,178785,2,0,L|230:28,1,48,8|0,0:0|0:0,0:0:0:0:
298,134,179185,6,0,P|343:160|432:134,1,144,6|0,0:0|0:0,0:0:0:0:
466,104,179585,6,0,P|469:141|456:195,1,71.9999978027344,8|0,0:0|0:0,0:0:0:0:
383,237,179985,2,0,P|367:270|328:310,1,71.9999978027344,2|0,0:0|0:0,0:0:0:0:
244,301,180385,2,0,P|213:322|160:337,1,71.9999978027344,8|0,0:0|0:0,0:0:0:0:
69,285,180785,5,2,0:0:0:0:
111,193,180985,1,0,0:0:0:0:
210,210,181185,2,0,P|248:213|293:194,1,71.9999978027344,8|0,0:0|0:0,0:0:0:0:
301,104,181585,2,0,P|263:101|218:120,1,71.9999978027344,2|0,0:0|0:0,0:0:0:0:
111,193,181985,1,8,0:0:0:0:
156,87,182185,1,8,0:0:0:0:
210,210,182385,6,0,P|246:238|347:221,1,144,2|0,0:0|0:0,0:0:0:0:
376,193,182785,6,0,L|378:272,1,71.9999978027344,8|0,0:0|0:0,0:0:0:0:
475,237,183185,2,0,L|477:158,1,71.9999978027344,2|0,0:0|0:0,0:0:0:0:
419,82,183585,1,8,0:0:0:0:
318,71,183785,1,0,0:0:0:0:
234,147,183985,6,0,P|186:159|157:152,1,71.9999978027344,6|0,0:0|0:0,0:0:0:0:
95,81,184385,2,0,L|176:71,1,71.9999978027344,8|0,0:0|0:0,0:0:0:0:
84,159,184785,2,0,L|7:151,1,71.9999978027344,2|0,0:0|0:0,0:0:0:0:
47,281,185185,6,0,P|96:290|144:270,1,96,8|0,0:0|0:0,0:0:0:0:
209,202,185585,6,0,L|294:210,1,71.9999978027344,2|0,0:0|0:0,0:0:0:0:
369,256,185985,1,8,0:0:0:0:
349,157,186185,1,0,0:0:0:0:
445,187,186385,1,2,0:0:0:0:
401,96,186585,1,0,0:0:0:0:
501,102,186785,1,8,0:0:0:0:
437,23,186985,1,0,0:0:0:0:
324,81,187185,6,0,P|275:93|247:90,1,71.9999978027344,2|0,0:0|0:0,0:0:0:0:
156,66,187585,2,0,P|120:65|85:76,1,71.9999978027344,8|0,0:0|0:0,0:0:0:0:
32,162,187985,2,0,P|66:172|102:172,1,71.9999978027344,2|0,0:0|0:0,0:0:0:0:
197,139,188385,2,0,P|231:128|267:128,1,71.9999978027344,8|0,0:0|0:0,0:0:0:0:
353,221,188785,6,0,L|246:229,1,90.0000034332277,8|2,0:0|0:0,0:0:0:0:
172,315,189185,2,0,L|65:323,1,90.0000034332277,8|2,0:0|0:0,0:0:0:0:
55,198,189585,1,8,0:0:0:0:
180,193,189785,1,2,0:0:0:0:
180,193,189885,1,2,0:0:0:0:
180,193,189985,1,8,0:0:0:0:
138,74,190185,1,2,0:0:0:0:
263,79,190385,6,0,L|265:124,3,45.0000017166138,8|2|8|2,0:0|0:0|0:0|0:0,0:0:0:0:
326,115,190785,2,0,L|330:178,3,45.0000017166138,8|2|8|2,0:0|0:0|0:0|0:0,0:0:0:0:
379,163,191185,6,0,P|394:206|393:238,1,71.9999978027344,8|0,0:0|0:0,0:0:0:0:
327,308,191585,2,0,L|247:304,1,71.9999978027344,8|0,0:0|0:0,0:0:0:0:
182,182,191985,6,0,P|136:159|43:204,1,153.000002918243,6|0,0:0|0:0,0:0:0:0:
29,251,192385,5,0,0:0:0:0:
126,316,192585,1,0,0:0:0:0:
126,316,192685,1,0,0:0:0:0:
126,316,192785,1,8,0:0:0:0:
232,265,192985,1,0,0:0:0:0:
232,265,193085,1,0,0:0:0:0:
232,265,193185,2,0,P|269:267|292:271,2,41.9999987182618,0|0|0,0:0|0:0|0:0,0:0:0:0:
203,138,193585,5,2,0:0:0:0:
310,90,193785,1,0,0:0:0:0:
396,169,193985,2,0,P|396:206|393:221,2,41.9999987182618,0|0|0,0:0|0:0|0:0,0:0:0:0:
289,219,194385,1,8,0:0:0:0:
289,219,194485,1,0,0:0:0:0:
289,219,194585,1,0,0:0:0:0:
203,138,194785,2,0,P|193:98|203:54,1,83.9999974365235,0|0,0:0|0:0,0:0:0:0:
340,26,195185,5,2,0:0:0:0:
373,138,195385,1,0,0:0:0:0:
289,219,195585,2,0,P|280:280|285:302,1,83.9999974365235,0|0,0:0|0:0,0:0:0:0:
465,322,195985,1,8,0:0:0:0:
383,236,196185,1,0,0:0:0:0:
284,301,196385,2,0,P|235:310|194:299,1,83.9999974365235,0|0,0:0|0:0,0:0:0:0:
103,238,196785,5,6,0:0:0:0:
98,215,196885,1,0,0:0:0:0:
94,191,196985,1,0,0:0:0:0:
90,167,197085,1,0,0:0:0:0:
86,143,197185,2,0,L|94:56,1,83.9999974365235,0|0,0:0|0:0,0:0:0:0:
237,53,197585,6,0,B|253:58|254:74|254:74|265:85|262:103|262:103|271:118|262:130|262:130|265:148|252:158|252:158|246:179|226:180,1,144,8|0,0:0|0:0,0:0:0:0:
207,221,197985,6,0,B|244:233|244:233|280:218|280:218|318:228,1,116.999994644165,0|0,0:0|0:0,0:0:0:0:
358,271,198385,5,2,0:0:0:0:
455,205,198585,1,0,0:0:0:0:
509,309,198785,2,0,P|460:324|430:314,1,83.9999974365235,0|0,0:0|0:0,0:0:0:0:
372,184,199185,1,8,0:0:0:0:
265,233,199385,1,0,0:0:0:0:
305,122,199585,2,0,P|342:98|389:97,1,83.9999974365235,0|0,0:0|0:0,0:0:0:0:
265,233,199985,5,2,0:0:0:0:
162,175,200185,1,0,0:0:0:0:
201,64,200385,2,0,P|165:55|116:66,1,83.9999974365235,0|0,0:0|0:0,0:0:0:0:
37,148,200785,1,8,0:0:0:0:
43,265,200985,1,0,0:0:0:0:
143,325,201185,2,0,P|190:331|236:320,1,83.9999974365235,0|0,0:0|0:0,0:0:0:0:
354,251,201585,5,2,0:0:0:0:
461,297,201785,2,0,P|488:335|496:375,2,83.9999974365235,0|0|0,0:0|0:0|0:0,0:0:0:0:
338,338,202385,1,8,0:0:0:0:
261,248,202585,1,0,0:0:0:0:
321,146,202785,2,0,P|364:145|413:168,1,83.9999974365235,0|0,0:0|0:0,0:0:0:0:
464,248,203185,6,0,L|381:255,1,71.9999978027344,6|0,0:0|0:0,0:0:0:0:
338,338,203585,1,0,0:0:0:0:
245,298,203785,1,0,0:0:0:0:
147,355,203985,2,0,P|110:364|64:358,1,71.9999978027344,8|0,0:0|0:0,0:0:0:0:
47,225,204385,1,8,0:0:0:0:
171,258,204585,1,8,0:0:0:0:
132,149,204785,5,6,0:0:0:0:
132,145,210985,5,8,0:0:0:0:
132,145,211085,1,8,0:0:0:0:
132,145,211185,6,0,P|179:136|216:147,1,83.9999974365235,8|2,0:0|0:0,0:0:0:0:
303,68,211585,2,0,P|312:115|301:152,1,83.9999974365235,8|2,0:0|0:0,0:0:0:0:
380,239,211985,2,0,P|333:248|296:237,1,83.9999974365235,8|2,0:0|0:0,0:0:0:0:
197,298,212385,1,8,0:0:0:0:
116,212,212585,1,8,0:0:0:0:
116,212,212685,1,8,0:0:0:0:
116,212,212785,6,0,L|109:120,1,83.9999974365235,8|2,0:0|0:0,0:0:0:0:
194,47,213185,2,0,L|201:139,1,83.9999974365235,8|2,0:0|0:0,0:0:0:0:
299,194,213585,2,0,L|292:102,1,83.9999974365235,8|2,0:0|0:0,0:0:0:0:
377,29,213985,1,8,0:0:0:0:
475,93,214185,1,8,0:0:0:0:
475,93,214285,1,8,0:0:0:0:
475,93,214385,6,0,P|445:109|425:109,3,41.9999987182618,8|8|8|8,0:0|0:0|0:0|0:0,0:0:0:0:
415,164,214785,2,0,P|393:182|382:202,3,41.9999987182618,8|8|8|8,0:0|0:0|0:0|0:0,0:0:0:0:
326,188,215185,2,0,P|292:191|271:188,3,41.9999987182618,8|8|8|8,0:0|0:0|0:0|0:0,0:0:0:0:
235,224,215585,2,0,P|227:265|232:288,3,41.9999987182618,8|8|8|8,0:0|0:0|0:0|0:0,0:0:0:0:
263,307,215985,6,0,B|305:298|341:319|341:319|351:282|351:282|410:324|463:280,1,240,2|0,0:0|0:0,0:0:0:0:
406,229,217185,2,0,P|399:209|398:176,1,48,8|0,0:0|0:0,0:0:0:0:
435,43,217585,6,0,P|382:19|309:70,1,153.000002918243,6|0,0:0|0:0,0:0:0:0:
295,125,217985,6,0,P|246:136|203:124,1,83.9999974365235,0|0,0:0|0:0,0:0:0:0:
101,92,218385,2,0,L|96:186,1,83.9999974365235,8|0,0:0|0:0,0:0:0:0:
173,265,218785,1,0,0:0:0:0:
281,219,218985,1,2,0:0:0:0:
356,325,219185,6,0,P|406:339|447:329,1,83.9999974365235,0|0,0:0|0:0,0:0:0:0:
510,240,219585,2,0,B|419:238|420:238,1,83.9999974365235,2|0,0:0|0:0,0:0:0:0:
344,153,219985,1,8,0:0:0:0:
456,118,220185,1,0,0:0:0:0:
347,72,220385,1,0,0:0:0:0:
459,36,220585,1,0,0:0:0:0:
344,153,220785,6,0,P|292:160|219:92,1,153.000002918243,2|0,0:0|0:0,0:0:0:0:
204,41,221185,6,0,L|114:47,1,83.9999974365235,0|0,0:0|0:0,0:0:0:0:
76,155,221585,1,8,0:0:0:0:
190,182,221785,1,0,0:0:0:0:
121,277,221985,1,0,0:0:0:0:
269,286,222185,1,2,0:0:0:0:
296,160,222385,6,0,L|292:64,1,83.9999974365235,0|0,0:0|0:0,0:0:0:0:
401,32,222785,2,0,L|400:125,1,83.9999974365235,2|0,0:0|0:0,0:0:0:0:
394,235,223185,1,8,0:0:0:0:
292,312,223385,1,0,0:0:0:0:
218,195,223585,1,0,0:0:0:0:
136,328,223785,1,0,0:0:0:0:
151,180,223985,6,0,B|189:178|218:195|218:195|244:185|244:185|271:201|307:193,1,153.000002918243,2|0,0:0|0:0,0:0:0:0:
355,180,224385,6,0,P|372:216|371:262,1,83.9999974365235,0|0,0:0|0:0,0:0:0:0:
284,121,224785,2,0,P|283:79|300:41,1,83.9999974365235,8|0,0:0|0:0,0:0:0:0:
417,18,225185,1,0,0:0:0:0:
473,121,225385,2,0,P|478:169|468:213,1,83.9999974365235,2|0,0:0|0:0,0:0:0:0:
386,285,225785,5,0,0:0:0:0:
280,233,225985,2,0,P|227:225|195:232,1,83.9999974365235,2|0,0:0|0:0,0:0:0:0:
73,281,226385,2,0,P|62:233|71:191,1,83.9999974365235,8|0,0:0|0:0,0:0:0:0:
150,115,226785,2,0,P|161:67|152:25,1,83.9999974365235,0|0,0:0|0:0,0:0:0:0:
237,149,227185,6,0,B|270:166|306:160|306:160|341:178|341:178|365:165|392:163,1,153.000002918243,2|0,0:0|0:0,0:0:0:0:
439,155,227585,6,0,P|461:190|470:235,1,83.9999974365235,0|0,0:0|0:0,0:0:0:0:
359,271,227985,2,0,P|346:322|326:352,1,83.9999974365235,8|0,0:0|0:0,0:0:0:0:
213,371,228385,1,0,0:0:0:0:
133,284,228585,1,2,0:0:0:0:
224,209,228785,6,0,P|237:178|233:126,1,83.9999974365235,0|0,0:0|0:0,0:0:0:0:
170,29,229185,2,0,P|212:42|256:40,1,83.9999974365235,2|0,0:0|0:0,0:0:0:0:
386,20,229585,1,8,0:0:0:0:
433,136,229785,1,8,0:0:0:0:
310,108,229985,1,8,0:0:0:0:
348,233,230185,1,8,0:0:0:0:
348,233,230585,6,0,P|305:225|266:246,2,83.9999974365235,0|0|0,0:0|0:0|0:0,0:0:0:0:
266,320,231185,1,8,0:0:0:0:
162,269,231385,1,0,0:0:0:0:
162,269,231485,1,0,0:0:0:0:
162,269,231585,1,0,0:0:0:0:
162,151,231785,1,2,0:0:0:0:
269,198,231985,6,0,P|308:203|359:187,1,83.9999974365235,0|0,0:0|0:0,0:0:0:0:
388,79,232385,2,0,P|349:74|298:90,1,83.9999974365235,2|0,0:0|0:0,0:0:0:0:
188,79,232785,2,0,B|153:86|121:65|121:65|91:81|91:81|58:67|23:76,1,167.999994873047,8|0,0:0|0:0,0:0:0:0:
51,190,233385,1,0,0:0:0:0:
164,261,233585,6,0,P|220:265|224:180,1,144,2|0,0:0|0:0,0:0:0:0:
195,148,233985,6,0,P|244:159|283:150,1,83.9999974365235,0|0,0:0|0:0,0:0:0:0:
381,88,234385,1,8,0:0:0:0:
404,203,234585,1,0,0:0:0:0:
296,251,234785,1,0,0:0:0:0:
369,342,234985,1,2,0:0:0:0:
251,348,235185,5,0,0:0:0:0:
251,348,235285,1,0,0:0:0:0:
251,348,235385,1,0,0:0:0:0:
171,261,235585,2,0,P|129:246|80:247,1,83.9999974365235,2|0,0:0|0:0,0:0:0:0:
177,166,235985,2,0,L|262:151,1,83.9999974365235,8|0,0:0|0:0,0:0:0:0:
347,71,236385,2,0,L|263:61,1,83.9999974365235,0|0,0:0|0:0,0:0:0:0:
133,96,236785,6,0,P|97:144|119:226,1,144,2|0,0:0|0:0,0:0:0:0:
149,269,237185,6,0,P|151:321|137:356,1,83.9999974365235,0|0,0:0|0:0,0:0:0:0:
36,293,237585,2,0,L|31:200,1,83.9999974365235,8|0,0:0|0:0,0:0:0:0:
109,120,237985,1,0,0:0:0:0:
230,164,238185,2,0,P|275:167|322:146,1,83.9999974365235,2|0,0:0|0:0,0:0:0:0:
389,65,238585,1,0,0:0:0:0:
403,181,238785,2,0,P|353:229|326:239,1,83.9999974365235,2|0,0:0|0:0,0:0:0:0:
232,283,239185,2,0,P|178:277|135:287,1,83.9999974365235,8|0,0:0|0:0,0:0:0:0:
21,204,239585,2,0,L|118:207,1,83.9999974365235,0|0,0:0|0:0,0:0:0:0:
257,191,239985,6,0,P|286:149|238:57,1,144,2|0,0:0|0:0,0:0:0:0:
206,36,240385,6,0,P|256:48|302:38,1,83.9999974365235,0|0,0:0|0:0,0:0:0:0:
400,9,240785,1,8,0:0:0:0:
512,44,240985,1,0,0:0:0:0:
423,121,241185,2,0,P|383:129|330:116,1,83.9999974365235,0|0,0:0|0:0,0:0:0:0:
248,48,241585,5,0,0:0:0:0:
248,48,241685,1,0,0:0:0:0:
248,48,241785,2,0,P|213:45|193:50,2,41.9999987182618,0|0|0,0:0|0:0|0:0,0:0:0:0:
224,163,242185,1,0,0:0:0:0:
224,163,242285,1,0,0:0:0:0:
224,163,242385,2,0,P|246:171|273:174,3,41.9999987182618,0|0|2|2,0:0|0:0|0:0|0:0,0:0:0:0:
322,167,242785,2,0,L|325:259,1,83.9999974365235,2|8,0:0|0:0,0:0:0:0:
226,334,243185,5,6,0:0:0:0:
