osu file format v14

[General]
AudioFilename: audio.mp3
AudioLeadIn: 0
PreviewTime: 63985
Countdown: 0
SampleSet: Soft
StackLeniency: 0.7
Mode: 0
LetterboxInBreaks: 0
WidescreenStoryboard: 0

[Editor]
Bookmarks: 45985,83585
DistanceSpacing: 0.9
BeatDivisor: 4
GridSize: 8
TimelineZoom: 1.9

[Metadata]
Title:Deep In The Night
TitleUnicode:Deep In The Night
Artist:Snails & Pegboard Nerds
ArtistUnicode:Snails & Pegboard Nerds
Creator:vanucik
Version:Insane
Source:
Tags:monstercat dubstep vomitstep
BeatmapID:1129145
BeatmapSetID:513194

[Difficulty]
HPDrainRate:6
CircleSize:4
OverallDifficulty:8
ApproachRate:9
SliderMultiplier:1.4
SliderTickRate:1

[Events]
//Background and Video events
0,0,"Snails-Pegboard-Nerds-Deep-In-The-Night-Art-1000x600.jpg",0,0
//Break Periods
2,89785,95185
2,128185,139585
2,204985,210385
//Storyboard Layer 0 (Background)
//Storyboard Layer 1 (Fail)
//Storyboard Layer 2 (Pass)
//Storyboard Layer 3 (Foreground)
//Storyboard Sound Samples

[TimingPoints]
-15,400,4,2,1,40,1,0
6385,-125,4,2,1,40,0,0
12785,-111.111111111111,4,2,1,40,0,0
25585,-100,4,2,1,35,0,0
38385,-83.3333333333333,4,2,1,60,0,0
51185,-76.9230769230769,4,2,1,70,0,0
57585,-66.6666666666667,4,2,1,80,0,0
59185,-62.5,4,2,1,80,0,0
62385,-125,4,2,1,70,0,0
63985,-58.8235294117647,4,2,1,80,0,1
64285,-58.8235294117647,4,2,1,5,0,1
64385,-71.4285714285714,4,2,1,80,0,1
65585,-62.5,4,2,1,80,0,1
65685,-62.5,4,2,1,5,0,1
65785,-71.4285714285714,4,2,1,80,0,1
67185,-58.8235294117647,4,2,1,80,0,1
67485,-58.8235294117647,4,2,1,5,0,1
67585,-71.4285714285714,4,2,1,80,0,1
68785,-62.5,4,2,1,80,0,1
70385,-58.8235294117647,4,2,1,80,0,1
70685,-58.8235294117647,4,2,1,5,0,1
70785,-76.9230769230769,4,2,1,80,0,1
71985,-62.5,4,2,1,80,0,1
72085,-62.5,4,2,1,5,0,1
72185,-76.9230769230769,4,2,1,80,0,1
73585,-58.8235294117647,4,2,1,80,0,1
73885,-58.8235294117647,4,2,1,5,0,1
73985,-76.9230769230769,4,2,1,80,0,1
76785,-55.5555555555556,4,2,1,80,0,1
77085,-55.5555555555556,4,2,1,5,0,1
77185,-66.6666666666667,4,2,1,80,0,1
78385,-71.4285714285714,4,2,1,80,0,1
82385,-62.5,4,2,1,80,0,1
82685,-62.5,4,2,1,5,0,1
82785,-76.9230769230769,4,2,1,80,0,1
83085,-76.9230769230769,4,2,1,5,0,1
83185,-71.4285714285714,4,2,1,80,0,1
87985,-90.9090909090909,4,2,1,80,0,1
89585,-100,4,2,1,70,0,0
95985,-66.6666666666667,4,2,1,80,0,0
97585,-62.5,4,2,1,80,0,0
100785,-125,4,2,1,80,0,0
102385,-55.5555555555556,4,2,1,80,0,1
102685,-55.5555555555556,4,2,1,5,0,1
102785,-71.4285714285714,4,2,1,80,0,1
103985,-62.5,4,2,1,80,0,1
104085,-62.5,4,2,1,5,0,1
104185,-62.5,4,2,1,80,0,1
105585,-55.5555555555556,4,2,1,80,0,1
105885,-55.5555555555556,4,2,1,5,0,1
105985,-71.4285714285714,4,2,1,80,0,1
108785,-62.5,4,2,1,70,0,1
109085,-62.5,4,2,1,5,0,1
109185,-71.4285714285714,4,2,1,70,0,1
111985,-62.5,4,2,1,70,0,1
112285,-62.5,4,2,1,5,0,1
112385,-71.4285714285714,4,2,1,70,0,1
114385,-71.4285714285714,4,2,1,90,0,1
115185,-71.4285714285714,4,2,1,70,0,1
121585,-62.5,4,2,1,70,0,1
121885,-62.5,4,2,1,5,0,1
121985,-71.4285714285714,4,2,1,70,0,1
123185,-62.5,4,2,1,70,0,1
123285,-62.5,4,2,1,5,0,1
123385,-62.5,4,2,1,70,0,1
125085,-62.5,4,2,1,5,0,1
125185,-71.4285714285714,4,2,1,70,0,1
127985,-100,4,2,1,60,0,0
140785,-125,4,2,1,60,0,0
153585,-83.3333333333333,4,2,1,70,0,0
166385,-76.9230769230769,4,2,1,70,0,0
172785,-66.6666666666667,4,2,1,70,0,0
174385,-62.5,4,2,1,70,0,0
177585,-125,4,2,1,70,0,0
179185,-62.5,4,2,1,70,0,1
179485,-62.5,4,2,1,5,0,1
179585,-83.3333333333333,4,2,1,70,0,1
180785,-62.5,4,2,1,70,0,1
180885,-62.5,4,2,1,5,0,1
180985,-83.3333333333333,4,2,1,70,0,1
182385,-62.5,4,2,1,70,0,1
182685,-62.5,4,2,1,5,0,1
182785,-83.3333333333333,4,2,1,70,0,1
185185,-62.5,4,2,1,70,0,1
185585,-83.3333333333333,4,2,1,70,0,1
188785,-66.6666666666667,4,2,1,70,0,1
191185,-58.8235294117647,4,2,1,70,0,1
191585,-50,4,2,1,70,0,1
191985,-58.8235294117647,4,2,1,70,0,1
192285,-58.8235294117647,4,2,1,5,0,1
192385,-71.4285714285714,4,2,1,70,0,1
197585,-62.5,4,2,1,70,0,1
197885,-62.5,4,2,1,5,0,1
197985,-76.9230769230769,4,2,1,70,0,1
198285,-76.9230769230769,4,2,1,5,0,1
198385,-62.5,4,2,1,70,0,1
198485,-71.4285714285714,4,2,1,5,0,1
198585,-71.4285714285714,4,2,1,70,0,1
203185,-83.3333333333333,4,2,1,70,0,1
204785,-100,4,2,1,70,0,0
211185,-66.6666666666667,4,2,1,70,0,0
212785,-62.5,4,2,1,70,0,0
215985,-125,4,2,1,70,0,0
217585,-55.5555555555556,4,2,1,70,0,1
217885,-55.5555555555556,4,2,1,5,0,1
217985,-66.6666666666667,4,2,1,70,0,1
219185,-58.8235294117647,4,2,1,70,0,1
219285,-62.5,4,2,1,5,0,1
219385,-66.6666666666667,4,2,1,70,0,1
220785,-58.8235294117647,4,2,1,70,0,1
221085,-58.8235294117647,4,2,1,30,0,1
221185,-66.6666666666667,4,2,1,70,0,1
223985,-58.8235294117647,4,2,1,70,0,1
224285,-58.8235294117647,4,2,1,5,0,1
224385,-76.9230769230769,4,2,1,70,0,1
227185,-58.8235294117647,4,2,1,70,0,1
227485,-58.8235294117647,4,2,1,5,0,1
227585,-71.4285714285714,4,2,1,70,0,1
229585,-71.4285714285714,4,2,1,90,0,1
230385,-71.4285714285714,4,2,1,70,0,1
233585,-62.5,4,2,1,70,0,1
233885,-62.5,4,2,1,5,0,1
233985,-71.4285714285714,4,2,1,70,0,1
236785,-62.5,4,2,1,70,0,1
237085,-62.5,4,2,1,5,0,1
237185,-71.4285714285714,4,2,1,70,0,1
238385,-62.5,4,2,1,70,0,1
238485,-62.5,4,2,1,5,0,1
238585,-71.4285714285714,4,2,1,70,0,1
239985,-62.5,4,2,1,70,0,1
240285,-62.5,4,2,1,5,0,1
240385,-71.4285714285714,4,2,1,70,0,1
243185,-83.3333333333333,4,2,1,70,0,0

[Colours]
Combo1 : 149,0,149
Combo2 : 255,68,68
Combo3 : 0,128,255
Combo4 : 0,168,147
Combo5 : 213,213,0

[HitObjects]
169,230,6385,6,0,P|190:268|304:288,2,168
141,115,7985,2,0,P|75:85|-9:130,2,168,0|0|2,0:0|0:0|0:0,0:0:0:0:
360,193,9585,6,0,B|384:129|362:106|341:86|362:23,2,168
296,292,11185,2,0,P|243:225|252:145,2,168,0|0|2,0:0|0:0|0:0,0:0:0:0:
108,268,12785,6,0,L|102:137,1,125.999996154785,6|0,0:0|0:0,0:0:0:0:
175,72,13385,1,0,0:0:0:0:
232,266,13785,1,0,0:0:0:0:
322,221,13985,2,0,P|354:219|386:229,1,62.9999980773926
274,356,14385,6,0,P|228:367|151:328,1,125.999996154785
100,259,14985,1,0,0:0:0:0:
239,139,15385,1,0,0:0:0:0:
304,215,15585,2,0,L|301:279,1,62.9999980773926,8|0,0:0|0:0,0:0:0:0:
475,158,15985,6,0,P|450:136|358:134,1,125.999996154785
304,215,16585,1,0,0:0:0:0:
113,147,16985,1,0,0:0:0:0:
200,96,17185,1,0,0:0:0:0:
201,196,17385,1,0,0:0:0:0:
34,215,17585,6,0,L|26:89,1,125.999996154785
96,16,18185,1,0,0:0:0:0:
96,16,18585,1,0,0:0:0:0:
168,85,18785,2,0,P|197:95|236:93,1,62.9999980773926,8|0,0:0|0:0,0:0:0:0:
423,38,19185,6,0,L|295:29,1,125.999996154785,10|0,0:0|0:0,0:0:0:0:
229,94,19785,1,0,0:0:0:0:
305,278,20185,1,0,0:0:0:0:
363,195,20385,1,0,0:0:0:0:
262,187,20585,1,0,0:0:0:0:
422,274,20785,6,0,P|451:241|457:159,1,125.999996154785
406,73,21385,1,0,0:0:0:0:
228,170,21785,1,0,0:0:0:0:
318,121,21985,2,0,L|326:187,1,62.9999980773926,8|0,0:0|0:0,0:0:0:0:
145,242,22385,6,0,P|122:204|127:124,1,125.999996154785,10|0,0:0|0:0,0:0:0:0:
201,56,22985,1,0,0:0:0:0:
381,133,23385,1,0,0:0:0:0:
302,195,23585,1,0,0:0:0:0:
289,95,23785,1,0,0:0:0:0:
396,234,23985,6,0,L|402:366,1,125.999996154785
315,300,24585,1,0,0:0:0:0:
486,293,24785,1,0,0:0:0:0:
397,156,24985,1,2,0:0:0:0:
397,156,25085,1,2,0:0:0:0:
397,156,25185,1,2,0:0:0:0:
401,359,25385,1,8,0:0:0:0:
473,108,25585,6,0,P|438:74|376:68,2,105,6|0|0,0:0|0:0|0:0,0:0:0:0:
468,231,26385,2,0,P|416:262|340:248,1,140
253,163,26985,1,0,0:0:0:0:
142,223,27185,6,0,B|135:250|140:277|140:277|134:301|134:301|137:340,2,105
259,269,27985,2,0,P|297:280|384:234,1,140
369,111,28585,1,0,0:0:0:0:
244,129,28785,6,0,P|190:130|146:100,2,105
369,111,29585,2,0,L|365:252,1,140
256,315,30185,1,0,0:0:0:0:
152,243,30385,6,0,P|111:236|76:238,1,70
53,248,30685,2,0,L|43:136,1,105
121,43,31185,2,0,P|160:91|166:177,1,140
240,271,31785,1,0,0:0:0:0:
351,133,31985,6,0,L|219:117,2,105,10|0|0,0:0|0:0|0:0,0:0:0:0:
448,52,32785,2,0,P|412:44|378:45,1,70
441,154,33185,2,0,P|475:154|509:146,1,70
337,144,33585,6,0,B|334:187|358:220|358:220|353:254,2,105
224,89,34385,2,0,L|213:228,1,140
111,303,34985,1,0,0:0:0:0:
59,111,35185,6,0,P|93:144|103:205,2,105,10|0|0,0:0|0:0|0:0,0:0:0:0:
171,138,35985,2,0,P|205:146|251:138,1,70
354,91,36385,2,0,P|388:83|434:91,1,70
496,217,36785,6,0,P|444:260|359:228,1,140
288,156,37385,1,0,0:0:0:0:
201,246,37585,2,0,L|284:249,1,70
118,301,37985,2,0,L|41:302,1,70
158,95,38385,6,0,P|240:105|289:156,1,125.999996154785,6|0,0:0|0:0,0:0:0:0:
288,156,38785,2,0,L|293:69,1,83.9999974365235
132,181,39185,2,0,L|138:268,1,83.9999974365235
252,335,39585,1,0,0:0:0:0:
252,335,39785,1,0,0:0:0:0:
406,186,39985,6,0,P|365:167|280:181,1,125.999996154785,2|0,0:0|0:0,0:0:0:0:
260,192,40385,2,0,P|219:195|176:182,1,83.9999974365235
261,52,40785,2,0,P|298:38|342:37,1,83.9999974365235
176,101,41185,1,0,0:0:0:0:
318,133,41385,1,8,0:0:0:0:
135,29,41585,6,0,P|103:60|99:139,1,125.999996154785,2|0,0:0|0:0,0:0:0:0:
100,167,41985,2,0,L|93:251,1,83.9999974365235
244,319,42385,2,0,L|226:148,1,167.999994873047
315,62,42985,1,0,0:0:0:0:
456,199,43185,5,2,0:0:0:0:
316,184,43385,1,0,0:0:0:0:
316,184,43485,1,0,0:0:0:0:
316,184,43585,1,0,0:0:0:0:
423,96,43785,1,0,0:0:0:0:
362,269,43985,2,0,P|320:282|271:272,1,83.9999974365235
159,224,44385,1,0,0:0:0:0:
316,184,44585,1,8,0:0:0:0:
168,349,44785,6,0,L|158:223,1,125.999996154785,6|0,0:0|0:0,0:0:0:0:
175,192,45185,2,0,P|182:163|174:109,1,83.9999974365235
78,271,45585,2,0,P|68:311|68:353,1,83.9999974365235
273,276,45985,2,0,P|272:237|258:193,1,83.9999974365235
149,58,46385,6,0,P|187:85|264:79,1,125.999996154785,2|0,0:0|0:0,0:0:0:0:
288,61,46785,2,0,P|328:52|373:60,1,83.9999974365235
469,151,47185,2,0,P|431:160|385:152,1,83.9999974365235
257,191,47585,1,0,0:0:0:0:
429,253,47785,1,8,0:0:0:0:
310,85,47985,6,0,P|258:71|186:99,1,125.999996154785,6|0,0:0|0:0,0:0:0:0:
167,109,48385,2,0,P|163:71|175:25,1,83.9999974365235
257,191,48785,2,0,L|173:202,1,83.9999974365235
53,268,49185,2,0,L|137:280,1,83.9999974365235
345,241,49585,6,0,P|359:178|299:101,1,167.999994873047,2|0,0:0|0:0,0:0:0:0:
176,66,50185,1,0,0:0:0:0:
163,203,50385,2,0,P|196:211|248:196,1,83.9999974365235
354,127,50785,1,0,0:0:0:0:
177,67,50985,1,8,0:0:0:0:
294,277,51185,6,0,P|351:290|420:244,1,136.499993751526,6|8,0:0|0:0,0:0:0:0:
424,213,51585,2,0,L|517:221,1,90.9999958343508,2|8,0:0|0:0,0:0:0:0:
250,199,51985,1,2,0:0:0:0:
218,227,52085,1,8,0:0:0:0:
204,266,52185,1,0,0:0:0:0:
208,307,52285,1,0,0:0:0:0:
230,342,52385,1,2,0:0:0:0:
336,197,52585,1,0,0:0:0:0:
166,86,52785,6,0,P|118:86|49:143,1,136.499993751526,2|8,0:0|0:0,0:0:0:0:
35,175,53185,2,0,L|30:83,1,90.9999958343508,2|8,0:0|0:0,0:0:0:0:
148,191,53585,1,2,0:0:0:0:
131,229,53685,1,8,0:0:0:0:
101,259,53785,1,0,0:0:0:0:
62,276,53885,1,0,0:0:0:0:
20,277,53985,1,2,0:0:0:0:
110,113,54185,1,0,0:0:0:0:
214,309,54385,6,0,P|262:327|341:292,1,136.499993751526,2|8,0:0|0:0,0:0:0:0:
359,272,54785,2,0,L|352:365,1,90.9999958343508,2|8,0:0|0:0,0:0:0:0:
267,207,55185,2,0,P|259:182|258:159,1,45.4999979171754,2|8,0:0|0:0,0:0:0:0:
381,103,55385,2,0,P|379:123|371:147,1,45.4999979171754
260,61,55585,1,2,0:0:0:0:
373,18,55785,1,0,0:0:0:0:
449,191,55985,6,0,P|395:237|323:227,1,136.499993751526,2|8,0:0|0:0,0:0:0:0:
307,213,56385,2,0,L|313:314,1,90.9999958343508,2|8,0:0|0:0,0:0:0:0:
101,188,56785,2,0,L|155:183,1,45.4999979171754,2|8,0:0|0:0,0:0:0:0:
209,114,56985,2,0,L|256:117,1,45.4999979171754
341,83,57185,1,2,0:0:0:0:
375,257,57385,1,8,0:0:0:0:
375,257,57485,1,8,0:0:0:0:
375,257,57585,6,8,P|314:282|266:275,1,105.000004005432,8|2,0:0|0:0,0:0:0:0:
137,127,57985,2,8,P|198:102|246:109,1,105.000004005432,8|2,0:0|0:0,0:0:0:0:
165,350,58385,2,0,L|159:246,1,105.000004005432,8|2,0:0|0:0,0:0:0:0:
341,43,58785,2,0,L|334:147,1,105.000004005432,8|8,0:0|0:0,0:0:0:0:
327,245,59085,1,8,0:0:0:0:
327,245,59185,6,0,P|372:259|433:243,1,112,8|2,0:0|0:0,0:0:0:0:
185,139,59585,2,0,P|140:125|75:140,1,112,8|2,0:0|0:0,0:0:0:0:
380,153,59985,2,0,P|394:108|372:43,1,112,8|2,0:0|0:0,0:0:0:0:
130,230,60385,2,0,P|116:275|135:342,1,112,8|8,0:0|0:0,0:0:0:0:
228,280,60685,1,8,0:0:0:0:
228,280,60785,5,8,0:0:0:0:
238,232,60885,1,8,0:0:0:0:
228,183,60985,1,8,0:0:0:0:
197,144,61085,1,8,0:0:0:0:
152,123,61185,1,8,0:0:0:0:
103,124,61285,1,8,0:0:0:0:
57,148,61385,1,8,0:0:0:0:
30,189,61485,1,8,0:0:0:0:
82,200,61585,5,8,0:0:0:0:
135,194,61685,1,8,0:0:0:0:
183,169,61785,1,8,0:0:0:0:
233,151,61885,1,8,0:0:0:0:
286,143,61985,1,8,0:0:0:0:
339,150,62085,1,8,0:0:0:0:
385,177,62185,1,8,0:0:0:0:
414,222,62285,1,8,0:0:0:0:
423,274,62385,6,0,B|391:322|335:310|335:310|311:360|311:360|249:326|193:361,1,280,2|0,0:0|0:0,0:0:0:0:
108,353,63485,1,0,0:0:0:0:
108,353,63585,2,0,L|40:364,1,56,8|0,0:0|0:0,0:0:0:0:
233,275,63985,6,0,P|278:230|260:122,1,178.500003404617,6|0,0:0|0:0,0:0:0:0:
212,57,64385,5,0,0:0:0:0:
339,63,64585,1,0,0:0:0:0:
132,121,64785,2,0,P|110:80|115:23,1,97.9999970092774,8|0,0:0|0:0,0:0:0:0:
292,179,65185,2,0,P|294:227|272:270,1,97.9999970092774
51,310,65585,6,0,P|52:286|66:255,1,56,2|0,0:0|0:0,0:0:0:0:
190,209,65785,5,0,0:0:0:0:
151,353,65985,1,0,0:0:0:0:
107,151,66185,1,0,0:0:0:0:
365,157,66385,1,8,0:0:0:0:
247,49,66585,1,0,0:0:0:0:
289,218,66785,1,0,0:0:0:0:
343,62,66985,1,0,0:0:0:0:
188,169,67185,6,0,P|131:185|50:102,1,178.500003404617,2|0,0:0|0:0,0:0:0:0:
139,96,67585,5,0,0:0:0:0:
244,248,67785,1,0,0:0:0:0:
31,282,67985,1,8,0:0:0:0:
142,195,68185,1,0,0:0:0:0:
138,351,68385,1,0,0:0:0:0:
104,175,68585,1,0,0:0:0:0:
317,311,68785,5,2,0:0:0:0:
461,236,68985,1,0,0:0:0:0:
356,148,69185,1,0,0:0:0:0:
463,56,69385,1,0,0:0:0:0:
461,236,69585,2,0,L|455:353,1,112,8|0,0:0|0:0,0:0:0:0:
356,148,69985,2,0,B|383:143|383:143|406:149|406:149|434:133|465:134,1,112
247,265,70385,6,0,B|227:267|212:255|212:255|196:253|196:237|179:233|179:233|175:215|161:200|161:200|165:186|156:167|156:167|165:159|162:138|162:138,1,178.500003404617,2|0,0:0|0:0,0:0:0:0:
264,167,70785,5,0,0:0:0:0:
234,356,70985,1,0,0:0:0:0:
57,172,71185,1,8,0:0:0:0:
175,212,71385,1,0,0:0:0:0:
21,255,71585,1,0,0:0:0:0:
156,218,71785,1,0,0:0:0:0:
195,77,71985,6,0,P|172:68|139:66,1,56,2|0,0:0|0:0,0:0:0:0:
290,153,72185,5,0,0:0:0:0:
297,45,72385,1,0,0:0:0:0:
190,178,72585,1,0,0:0:0:0:
430,131,72785,1,8,0:0:0:0:
297,45,72985,1,0,0:0:0:0:
380,197,73185,2,0,P|420:214|470:204,1,90.9999958343508
233,203,73585,6,0,P|186:206|232:136,1,178.500003404617,2|0,0:0|0:0,0:0:0:0:
271,271,73985,6,0,P|233:288|176:287,1,90.9999958343508
333,85,74385,1,8,0:0:0:0:
427,212,74585,2,0,P|433:238|431:258,2,45.4999979171754
341,334,74985,1,0,0:0:0:0:
208,142,75185,5,2,0:0:0:0:
333,154,75385,2,0,P|339:180|338:199,2,45.4999979171754
279,41,75785,1,0,0:0:0:0:
102,105,75985,2,0,P|95:147|109:194,1,90.9999958343508,8|0,0:0|0:0,0:0:0:0:
337,215,76385,1,8,0:0:0:0:
279,41,76585,1,8,0:0:0:0:
218,271,76785,6,0,B|245:302|282:313|282:313|330:274|389:303,1,188.999994232178,6|0,0:0|0:0,0:0:0:0:
341,376,77185,5,0,0:0:0:0:
281,180,77385,2,0,P|310:171|331:170,1,52.5000020027161
487,250,77585,1,8,0:0:0:0:
242,306,77785,2,0,P|228:278|225:249,1,52.5000020027161
417,163,77985,2,0,P|415:197|404:219,1,52.5000020027161
212,94,78185,1,0,0:0:0:0:
444,38,78385,5,2,0:0:0:0:
417,163,78585,1,0,0:0:0:0:
327,64,78785,2,0,P|322:40|327:15,2,48.9999985046387
454,257,79185,2,0,P|424:266|401:263,1,48.9999985046387,8|0,0:0|0:0,0:0:0:0:
298,224,79385,1,0,0:0:0:0:
417,163,79585,1,0,0:0:0:0:
285,132,79785,1,0,0:0:0:0:
334,356,79985,5,2,0:0:0:0:
206,263,80185,2,0,P|148:264|106:285,2,97.9999970092774
438,277,80785,1,8,0:0:0:0:
316,152,80985,1,0,0:0:0:0:
273,323,81185,1,0,0:0:0:0:
339,238,81385,1,0,0:0:0:0:
103,230,81585,6,0,P|96:252|94:280,1,48.9999985046387,6|0,0:0|0:0,0:0:0:0:
232,165,81785,2,0,P|229:142|221:118,1,48.9999985046387
140,29,81985,2,0,P|183:46|239:36,1,97.9999970092774
450,96,82385,6,0,P|400:81|422:157,1,168,8|0,0:0|0:0,0:0:0:0:
397,48,82785,6,0,B|383:40|369:49|369:49|355:37|346:44|346:44|334:51|321:42|321:42|305:51|305:51|292:43|283:49|283:49|261:43,1,136.499993751526
201,87,83185,6,0,P|245:125|297:123,1,97.9999970092774,2|0,0:0|0:0,0:0:0:0:
431,114,83585,1,0,0:0:0:0:
270,45,83785,1,0,0:0:0:0:
319,280,83985,1,8,0:0:0:0:
365,159,84185,1,0,0:0:0:0:
213,221,84385,2,0,P|168:233|111:223,1,97.9999970092774
270,45,84785,5,2,0:0:0:0:
365,159,84985,1,0,0:0:0:0:
177,117,85185,2,0,P|156:81|153:24,1,97.9999970092774
326,252,85585,1,8,0:0:0:0:
225,255,85785,1,0,0:0:0:0:
365,159,85985,1,0,0:0:0:0:
392,332,86185,1,0,0:0:0:0:
237,135,86385,5,2,0:0:0:0:
343,49,86585,2,0,P|387:47|435:69,2,97.9999970092774
290,246,87185,2,0,P|246:261|196:251,1,97.9999970092774,8|0,0:0|0:0,0:0:0:0:
88,161,87585,1,0,0:0:0:0:
228,80,87785,1,0,0:0:0:0:
193,337,87985,5,2,0:0:0:0:
159,328,88085,1,0,0:0:0:0:
132,306,88185,1,0,0:0:0:0:
115,275,88285,1,0,0:0:0:0:
112,240,88385,2,0,P|155:221|204:224,1,77.0000023498536
413,272,88785,1,8,0:0:0:0:
302,327,88985,1,2,0:0:0:0:
302,327,89085,1,2,0:0:0:0:
302,327,89185,1,2,0:0:0:0:
309,209,89385,1,8,0:0:0:0:
413,272,89585,5,2,0:0:0:0:
107,137,95785,5,8,0:0:0:0:
107,137,95885,1,8,0:0:0:0:
107,137,95985,6,0,L|216:128,1,105.000004005432,8|2,0:0|0:0,0:0:0:0:
311,43,96385,2,0,L|320:152,1,105.000004005432,8|2,0:0|0:0,0:0:0:0:
405,247,96785,2,0,L|296:256,1,105.000004005432,8|2,0:0|0:0,0:0:0:0:
201,341,97185,2,0,L|192:232,1,105.000004005432,8|8,0:0|0:0,0:0:0:0:
97,193,97485,1,8,0:0:0:0:
97,193,97585,6,0,P|86:245|108:300,1,112,8|2,0:0|0:0,0:0:0:0:
249,35,97985,2,0,P|197:24|139:44,1,112,8|2,0:0|0:0,0:0:0:0:
416,193,98385,2,0,P|427:141|404:83,1,112,8|2,0:0|0:0,0:0:0:0:
263,349,98785,2,0,P|315:360|370:340,1,112,8|8,0:0|0:0,0:0:0:0:
310,253,99085,1,8,0:0:0:0:
310,253,99185,5,8,0:0:0:0:
262,241,99285,1,8,0:0:0:0:
212,253,99385,1,8,0:0:0:0:
169,295,99485,1,8,0:0:0:0:
155,342,99585,1,8,0:0:0:0:
135,296,99685,1,8,0:0:0:0:
98,263,99785,1,8,0:0:0:0:
51,246,99885,1,8,0:0:0:0:
2,251,99985,5,8,0:0:0:0:
20,200,100085,1,8,0:0:0:0:
58,161,100185,1,8,0:0:0:0:
109,144,100285,1,8,0:0:0:0:
162,144,100385,1,8,0:0:0:0:
211,165,100485,1,8,0:0:0:0:
263,177,100585,1,8,0:0:0:0:
316,172,100685,1,8,0:0:0:0:
362,145,100785,6,0,B|406:105|395:46|395:46|418:82|418:82|460:93|460:93|451:137|469:179|469:179,1,280,2|0,0:0|0:0,0:0:0:0:
405,239,101885,1,0,0:0:0:0:
396,223,101985,1,8,0:0:0:0:
298,67,102185,1,0,0:0:0:0:
119,224,102385,6,0,P|180:249|273:176,1,188.999994232178,6|0,0:0|0:0,0:0:0:0:
181,154,102785,5,0,0:0:0:0:
187,339,102985,1,0,0:0:0:0:
457,231,103185,1,8,0:0:0:0:
271,182,103385,1,0,0:0:0:0:
402,335,103585,1,0,0:0:0:0:
422,128,103785,1,0,0:0:0:0:
292,320,103985,6,0,P|259:328|233:324,1,56,2|0,0:0|0:0,0:0:0:0:
98,293,104185,5,0,0:0:0:0:
163,187,104385,1,0,0:0:0:0:
169,357,104585,1,0,0:0:0:0:
72,140,104785,1,8,0:0:0:0:
259,206,104985,1,0,0:0:0:0:
35,149,105185,1,0,0:0:0:0:
316,98,105385,1,0,0:0:0:0:
367,310,105585,6,0,B|328:342|281:319|281:319|241:340|241:340|183:327,1,188.999994232178,2|0,0:0|0:0,0:0:0:0:
120,304,105985,5,0,0:0:0:0:
214,150,106185,1,0,0:0:0:0:
367,310,106385,1,8,0:0:0:0:
341,108,106585,1,0,0:0:0:0:
247,336,106785,1,0,0:0:0:0:
419,184,106985,1,0,0:0:0:0:
109,212,107185,5,2,0:0:0:0:
259,86,107385,1,0,0:0:0:0:
279,246,107585,1,0,0:0:0:0:
150,71,107785,1,0,0:0:0:0:
411,113,107985,1,8,0:0:0:0:
123,184,108185,1,0,0:0:0:0:
444,228,108385,1,0,0:0:0:0:
95,296,108585,1,0,0:0:0:0:
350,335,108785,6,0,P|355:274|249:232,1,168,2|0,0:0|0:0,0:0:0:0:
282,299,109185,5,0,0:0:0:0:
457,317,109385,1,0,0:0:0:0:
308,131,109585,2,0,P|265:124|205:151,1,97.9999970092774,8|0,0:0|0:0,0:0:0:0:
103,267,109985,2,0,P|60:274|0:247,1,97.9999970092774
116,80,110385,5,2,0:0:0:0:
209,229,110585,2,0,P|216:285|195:329,2,97.9999970092774
16,128,111185,1,8,0:0:0:0:
106,266,111385,1,0,0:0:0:0:
203,137,111585,1,0,0:0:0:0:
109,183,111785,1,0,0:0:0:0:
345,220,111985,6,0,P|379:171|299:159,1,168,2|0,0:0|0:0,0:0:0:0:
297,299,112385,6,0,P|346:315|396:298,1,97.9999970092774
212,164,112785,1,8,0:0:0:0:
103,321,112985,1,0,0:0:0:0:
235,257,113185,1,0,0:0:0:0:
81,225,113385,1,0,0:0:0:0:
312,174,113585,5,2,0:0:0:0:
273,346,113785,1,0,0:0:0:0:
212,164,113985,1,0,0:0:0:0:
346,264,114185,1,0,0:0:0:0:
104,299,114385,5,8,0:0:0:0:
110,75,114585,1,8,0:0:0:0:
240,255,114785,1,8,0:0:0:0:
23,186,114985,1,8,0:0:0:0:
239,122,115385,5,0,0:0:0:0:
237,143,115585,1,0,0:0:0:0:
235,164,115785,1,0,0:0:0:0:
329,269,115985,5,8,0:0:0:0:
332,94,116185,1,0,0:0:0:0:
332,94,116285,1,0,0:0:0:0:
332,94,116385,1,0,0:0:0:0:
197,168,116585,1,2,0:0:0:0:
410,144,116785,6,0,P|425:108|411:46,1,97.9999970092774
269,236,117185,2,0,P|257:282|273:328,1,97.9999970092774,2|0,0:0|0:0,0:0:0:0:
314,131,117585,2,0,P|228:127|154:212,1,195.999994018555,8|0,0:0|0:0,0:0:0:0:
269,236,118185,1,0,0:0:0:0:
407,52,118385,6,0,L|293:46,1,97.9999970092774,2|0,0:0|0:0,0:0:0:0:
102,146,118785,2,0,L|199:140,1,97.9999970092774
398,319,119185,2,0,P|352:325|298:302,1,97.9999970092774,8|0,0:0|0:0,0:0:0:0:
231,213,119585,1,0,0:0:0:0:
54,337,119785,6,0,P|94:355|157:346,1,97.9999970092774,2|0,0:0|0:0,0:0:0:0:
115,247,120085,1,0,0:0:0:0:
115,247,120185,2,0,P|86:241|62:240,1,48.9999985046387
212,274,120385,2,0,P|218:240|188:177,1,97.9999970092774,2|0,0:0|0:0,0:0:0:0:
81,83,120785,1,8,0:0:0:0:
266,97,120985,1,0,0:0:0:0:
49,174,121185,1,0,0:0:0:0:
175,49,121385,1,0,0:0:0:0:
199,251,121585,6,0,P|251:297|347:262,1,168,6|0,0:0|0:0,0:0:0:0:
276,208,121985,5,0,0:0:0:0:
164,336,122185,1,0,0:0:0:0:
98,101,122385,1,8,0:0:0:0:
191,214,122585,1,0,0:0:0:0:
190,71,122785,1,0,0:0:0:0:
100,187,122985,1,0,0:0:0:0:
340,127,123185,6,0,P|367:129|394:138,1,56,2|0,0:0|0:0,0:0:0:0:
266,222,123385,5,0,0:0:0:0:
283,47,123585,1,0,0:0:0:0:
402,55,123785,1,0,0:0:0:0:
144,137,123985,1,8,0:0:0:0:
174,30,124185,1,0,0:0:0:0:
259,218,124385,1,0,0:0:0:0:
255,117,124585,1,0,0:0:0:0:
175,276,124785,6,0,P|223:319|322:300,1,168,2|0,0:0|0:0,0:0:0:0:
388,215,125185,5,0,0:0:0:0:
255,117,125385,1,0,0:0:0:0:
244,324,125585,1,8,0:0:0:0:
297,203,125785,1,0,0:0:0:0:
179,222,125985,1,0,0:0:0:0:
321,285,126185,1,0,0:0:0:0:
255,117,126385,5,0,0:0:0:0:
217,94,126485,1,0,0:0:0:0:
173,90,126585,1,0,0:0:0:0:
131,105,126685,1,0,0:0:0:0:
102,138,126785,1,0,0:0:0:0:
187,187,126985,6,0,P|215:197|241:196,1,48.9999985046387
335,149,127185,2,0,P|362:143|388:146,1,48.9999985046387
459,199,127385,1,2,0:0:0:0:
456,220,127485,1,2,0:0:0:0:
449,237,127585,1,2,0:0:0:0:
288,241,127785,1,8,0:0:0:0:
471,118,127985,5,6,0:0:0:0:
113,137,140185,6,0,P|90:135|74:139,2,35,2|2|2,0:0|0:0|0:0,0:0:0:0:
210,201,140585,1,8,0:0:0:0:
335,101,140785,6,0,P|302:58|178:75,2,168,6|0|0,0:0|0:0|0:0,0:0:0:0:
353,234,142385,2,0,B|430:269|430:269|517:240,2,168
229,180,143985,6,0,L|60:201,2,168
272,307,145585,2,0,L|103:286,2,168
355,294,146985,1,0,0:0:0:0:
366,211,147185,6,0,P|340:190|201:198,2,168
272,307,148785,2,0,P|191:323|118:286,2,168
322,182,150385,6,0,P|348:145|428:208,2,168
189,202,151985,2,0,P|163:239|83:176,2,168,0|0|2,0:0|0:0|0:0,0:0:0:0:
213,82,153385,1,8,0:0:0:0:
370,148,153585,6,0,P|383:195|361:277,1,125.999996154785,6|0,0:0|0:0,0:0:0:0:
349,294,153985,2,0,L|433:305,1,83.9999974365235
260,203,154385,2,0,L|177:213,1,83.9999974365235
54,129,154785,2,0,L|145:141,1,83.9999974365235
265,64,155185,6,0,P|316:59|377:105,1,125.999996154785
386,127,155585,2,0,P|426:139|473:134,1,83.9999974365235
320,202,155985,2,0,P|282:214|235:210,1,83.9999974365235
131,143,156385,1,0,0:0:0:0:
131,143,156585,1,0,0:0:0:0:
126,280,156785,6,0,P|171:311|243:298,1,125.999996154785
261,284,157185,2,0,P|269:328|262:369,1,83.9999974365235
195,224,157585,2,0,P|191:185|269:88,1,167.999994873047
388,67,158185,1,0,0:0:0:0:
400,203,158385,6,0,P|359:217|302:205,1,83.9999974365235
295,205,158685,1,0,0:0:0:0:
295,205,158785,1,0,0:0:0:0:
175,158,158985,1,0,0:0:0:0:
211,283,159185,2,0,P|250:295|300:290,1,83.9999974365235
404,241,159585,2,0,P|443:229|498:233,1,83.9999974365235
376,113,159985,6,0,P|321:103|261:144,1,125.999996154785,12|0,0:0|0:0,0:0:0:0:
252,166,160385,2,0,P|208:179|167:177,1,83.9999974365235
115,55,160785,2,0,B|237:51|237:51|211:52|190:67,1,167.999994873047
94,142,161385,1,0,0:0:0:0:
153,257,161585,6,0,P|194:276|271:243,1,125.999996154785
288,231,161985,2,0,P|302:284|295:320,1,83.9999974365235
206,196,162385,2,0,P|201:154|215:112,1,83.9999974365235
334,67,162785,1,0,0:0:0:0:
334,67,162985,1,0,0:0:0:0:
397,196,163185,6,0,P|356:232|279:226,1,125.999996154785,2|0,0:0|0:0,0:0:0:0:
263,217,163585,2,0,P|255:259|264:307,1,83.9999974365235
325,151,163985,2,0,P|266:128|177:188,1,167.999994873047
108,278,164585,1,0,0:0:0:0:
69,146,164785,6,0,L|76:19,1,125.999996154785
103,51,165185,2,0,P|134:70|186:75,1,83.9999974365235
299,42,165585,2,0,P|341:30|389:31,1,83.9999974365235
473,115,165985,1,0,0:0:0:0:
345,128,166185,1,0,0:0:0:0:
392,294,166385,6,0,P|438:305|502:236,1,136.499993751526,6|8,0:0|0:0,0:0:0:0:
498,218,166785,2,0,P|453:208|408:215,1,90.9999958343508,2|8,0:0|0:0,0:0:0:0:
282,276,167185,1,2,0:0:0:0:
242,290,167285,1,8,0:0:0:0:
200,290,167385,1,0,0:0:0:0:
162,271,167485,1,0,0:0:0:0:
137,236,167585,1,2,0:0:0:0:
226,195,167785,1,0,0:0:0:0:
344,326,167985,6,0,P|390:341|466:284,1,136.499993751526,2|8,0:0|0:0,0:0:0:0:
465,266,168385,2,0,L|459:175,1,90.9999958343508,2|8,0:0|0:0,0:0:0:0:
363,103,168785,1,2,0:0:0:0:
343,140,168885,1,8,0:0:0:0:
337,181,168985,1,0,0:0:0:0:
346,221,169085,1,0,0:0:0:0:
367,257,169185,1,10,0:0:0:0:
490,340,169385,1,2,0:0:0:0:
314,346,169585,6,0,P|263:338|215:273,1,136.499993751526,6|8,0:0|0:0,0:0:0:0:
211,241,169985,2,0,P|165:236|113:250,1,90.9999958343508,2|8,0:0|0:0,0:0:0:0:
310,256,170385,1,2,0:0:0:0:
307,214,170485,1,8,0:0:0:0:
286,177,170585,1,0,0:0:0:0:
251,152,170685,1,0,0:0:0:0:
209,144,170785,1,2,0:0:0:0:
78,170,170985,1,0,0:0:0:0:
185,38,171185,6,0,P|229:33|301:85,1,136.499993751526,2|8,0:0|0:0,0:0:0:0:
316,113,171585,2,0,P|358:120|403:104,1,90.9999958343508,2|8,0:0|0:0,0:0:0:0:
363,261,171985,1,2,0:0:0:0:
327,283,172085,1,8,0:0:0:0:
285,287,172185,1,0,0:0:0:0:
246,269,172285,1,0,0:0:0:0:
219,236,172385,2,0,P|198:193|198:147,1,90.9999958343508,2|8,0:0|0:0,0:0:0:0:
282,95,172685,1,8,0:0:0:0:
282,95,172785,6,0,L|300:200,1,105.000004005432,8|2,0:0|0:0,0:0:0:0:
142,338,173185,2,0,L|124:232,1,105.000004005432,8|2,0:0|0:0,0:0:0:0:
382,123,173585,2,0,L|400:228,1,105.000004005432,8|2,0:0|0:0,0:0:0:0:
242,366,173985,2,0,L|224:260,1,105.000004005432,8|8,0:0|0:0,0:0:0:0:
154,184,174285,1,8,0:0:0:0:
154,184,174385,6,0,P|103:181|46:209,1,112,8|2,0:0|0:0,0:0:0:0:
358,200,174785,2,0,P|409:203|464:176,1,112,8|2,0:0|0:0,0:0:0:0:
186,87,175185,2,0,P|137:82|80:116,1,112,8|2,0:0|0:0,0:0:0:0:
326,297,175585,2,0,P|375:302|432:268,1,112,8|8,0:0|0:0,0:0:0:0:
358,200,175885,1,8,0:0:0:0:
358,200,175985,5,8,0:0:0:0:
309,196,176085,1,8,0:0:0:0:
264,215,176185,1,8,0:0:0:0:
233,253,176285,1,8,0:0:0:0:
223,301,176385,1,8,0:0:0:0:
217,252,176485,1,8,0:0:0:0:
211,202,176585,1,8,0:0:0:0:
205,152,176685,1,8,0:0:0:0:
198,98,176785,5,8,0:0:0:0:
148,118,176885,1,8,0:0:0:0:
112,158,176985,1,8,0:0:0:0:
102,210,177085,1,8,0:0:0:0:
118,260,177185,1,8,0:0:0:0:
155,298,177285,1,8,0:0:0:0:
205,313,177385,1,8,0:0:0:0:
257,303,177485,1,8,0:0:0:0:
303,271,177585,6,0,P|320:236|164:108,1,280,2|0,0:0|0:0,0:0:0:0:
211,198,178685,1,0,0:0:0:0:
211,198,178785,2,0,P|233:206|246:177,1,56,8|0,0:0|0:0,0:0:0:0:
109,158,179185,6,0,B|78:152|54:176|54:176|30:153|30:153|32:196|-1:219,1,168,6|0,0:0|0:0,0:0:0:0:
24,297,179585,6,0,P|70:311|128:291,1,83.9999974365235,8|0,0:0|0:0,0:0:0:0:
211,198,179985,2,0,P|257:183|315:206,1,83.9999974365235,2|0,0:0|0:0,0:0:0:0:
410,290,180385,2,0,P|368:307|312:298,1,83.9999974365235,8|0,0:0|0:0,0:0:0:0:
129,234,180785,6,0,P|122:204|124:178,1,56,2|0,0:0|0:0,0:0:0:0:
187,96,180985,5,0,0:0:0:0:
320,225,181185,1,8,0:0:0:0:
293,115,181385,1,0,0:0:0:0:
210,260,181585,1,2,0:0:0:0:
309,366,181785,1,0,0:0:0:0:
320,225,181985,1,8,0:0:0:0:
198,353,182185,1,8,0:0:0:0:
386,288,182385,6,0,P|408:245|351:140,1,168,2|0,0:0|0:0,0:0:0:0:
310,71,182785,6,0,P|354:57|396:65,1,83.9999974365235,8|0,0:0|0:0,0:0:0:0:
242,170,183185,2,0,P|200:175|161:161,1,83.9999974365235,2|0,0:0|0:0,0:0:0:0:
58,78,183585,2,0,L|149:71,1,83.9999974365235,8|0,0:0|0:0,0:0:0:0:
182,261,183985,5,6,0:0:0:0:
89,231,184185,1,0,0:0:0:0:
233,101,184385,1,8,0:0:0:0:
253,195,184585,1,0,0:0:0:0:
70,136,184785,1,2,0:0:0:0:
141,71,184985,1,0,0:0:0:0:
182,261,185185,6,0,P|229:292|297:280,1,112,8|0,0:0|0:0,0:0:0:0:
423,146,185585,6,0,L|330:138,1,83.9999974365235,2|0,0:0|0:0,0:0:0:0:
143,113,185985,1,8,0:0:0:0:
190,217,186185,1,0,0:0:0:0:
249,58,186385,1,2,0:0:0:0:
257,165,186585,1,0,0:0:0:0:
361,29,186785,1,8,0:0:0:0:
339,138,186985,1,0,0:0:0:0:
143,113,187185,6,0,P|193:96|234:99,1,83.9999974365235,2|0,0:0|0:0,0:0:0:0:
115,238,187585,2,0,P|73:237|34:221,1,83.9999974365235,8|0,0:0|0:0,0:0:0:0:
267,196,187985,2,0,P|290:242|286:296,1,83.9999974365235,2|0,0:0|0:0,0:0:0:0:
141,148,188385,2,0,P|144:106|165:70,1,83.9999974365235,8|0,0:0|0:0,0:0:0:0:
430,125,188785,5,8,0:0:0:0:
267,196,188985,1,2,0:0:0:0:
433,34,189185,1,8,0:0:0:0:
431,218,189385,1,2,0:0:0:0:
294,49,189585,1,8,0:0:0:0:
208,252,189785,1,2,0:0:0:0:
208,252,189885,1,2,0:0:0:0:
208,252,189985,2,0,P|259:279|310:266,1,105.000004005432,8|2,0:0|0:0,0:0:0:0:
85,249,190385,6,0,P|83:286|85:307,1,52.5000020027161,8|2,0:0|0:0,0:0:0:0:
208,130,190585,2,0,P|210:93|208:72,1,52.5000020027161,8|2,0:0|0:0,0:0:0:0:
67,261,190785,2,0,P|65:298|67:319,1,52.5000020027161,8|2,0:0|0:0,0:0:0:0:
228,119,190985,2,0,P|230:82|228:61,1,52.5000020027161,8|2,0:0|0:0,0:0:0:0:
242,269,191185,6,0,B|332:270|332:270|317:240,1,119.000002269745,8|0,0:0|0:0,0:0:0:0:
230,296,191585,6,0,B|300:300|300:300|254:356,1,140,8|0,0:0|0:0,0:0:0:0:
89,191,191985,6,0,B|84:164|96:142|96:142|82:123|82:123|95:101|88:73|88:73|99:48|90:20,1,178.500003404617,6|0,0:0|0:0,0:0:0:0:
167,177,192385,5,0,0:0:0:0:
0,138,192585,2,0,P|2:107|9:86,1,48.9999985046387
172,21,192785,1,8,0:0:0:0:
202,251,192985,2,0,P|178:259|153:259,1,48.9999985046387
336,126,193185,2,0,P|360:125|384:134,1,48.9999985046387
382,283,193385,1,0,0:0:0:0:
203,158,193585,5,2,0:0:0:0:
327,215,193785,1,0,0:0:0:0:
189,277,193985,1,0,0:0:0:0:
190,262,194085,1,0,0:0:0:0:
192,248,194185,1,0,0:0:0:0:
88,152,194385,2,0,P|62:159|41:171,1,48.9999985046387,8|0,0:0|0:0,0:0:0:0:
6,292,194585,1,0,0:0:0:0:
189,277,194785,1,0,0:0:0:0:
96,242,194985,1,0,0:0:0:0:
228,370,195185,5,2,0:0:0:0:
405,284,195385,2,0,P|409:244|385:192,2,97.9999970092774
209,189,195985,1,8,0:0:0:0:
320,74,196185,1,0,0:0:0:0:
298,232,196385,1,0,0:0:0:0:
223,91,196585,1,0,0:0:0:0:
423,196,196785,6,0,P|433:220|437:244,1,48.9999985046387,6|0,0:0|0:0,0:0:0:0:
460,39,196985,2,0,P|482:65|490:84,1,48.9999985046387
378,119,197185,2,0,P|317:137|281:131,1,97.9999970092774
128,89,197585,6,0,P|90:52|154:72,1,168,8|0,0:0|0:0,0:0:0:0:
133,166,197985,6,0,B|114:170|101:165|101:165|85:167|79:157|65:155|65:155|58:145|44:144|41:133|41:133|32:127|26:115|26:115|19:106,1,136.499993751526
66,210,198385,6,0,P|75:238|78:270,1,56,2|0,0:0|0:0,0:0:0:0:
52,347,198585,5,0,0:0:0:0:
205,339,198785,1,0,0:0:0:0:
169,232,198985,1,0,0:0:0:0:
21,356,199185,1,8,0:0:0:0:
66,210,199385,1,0,0:0:0:0:
296,225,199585,1,0,0:0:0:0:
196,96,199785,1,0,0:0:0:0:
179,309,199985,5,2,0:0:0:0:
296,225,200185,2,0,P|304:184|283:127,2,97.9999970092774
83,222,200785,1,8,0:0:0:0:
179,115,200985,1,0,0:0:0:0:
182,265,201185,1,0,0:0:0:0:
82,86,201385,1,0,0:0:0:0:
322,102,201585,5,2,0:0:0:0:
223,34,201785,1,0,0:0:0:0:
166,200,201985,1,0,0:0:0:0:
288,210,202185,1,0,0:0:0:0:
140,105,202385,2,0,P|88:91|32:99,1,97.9999970092774,8|0,0:0|0:0,0:0:0:0:
303,242,202785,2,0,P|351:245|398:232,1,97.9999970092774
471,73,203185,5,6,0:0:0:0:
343,82,203385,1,0,0:0:0:0:
488,172,203585,1,0,0:0:0:0:
489,48,203785,1,0,0:0:0:0:
368,200,203985,2,0,P|323:203|282:186,1,83.9999974365235,8|0,0:0|0:0,0:0:0:0:
145,55,204385,1,8,0:0:0:0:
343,82,204585,1,8,0:0:0:0:
122,177,204785,5,6,0:0:0:0:
288,82,210985,5,8,0:0:0:0:
288,82,211085,1,8,0:0:0:0:
288,82,211185,6,0,P|340:67|386:83,1,105.000004005432,8|2,0:0|0:0,0:0:0:0:
247,263,211585,2,0,P|194:278|149:262,1,105.000004005432,8|2,0:0|0:0,0:0:0:0:
395,162,211985,2,0,P|448:147|493:163,1,105.000004005432,8|2,0:0|0:0,0:0:0:0:
354,343,212385,2,0,P|302:358|256:342,1,105.000004005432,8|8,0:0|0:0,0:0:0:0:
152,263,212685,1,8,0:0:0:0:
152,263,212785,6,0,L|160:376,1,112,8|2,0:0|0:0,0:0:0:0:
185,88,213185,2,0,L|72:96,1,112,8|2,0:0|0:0,0:0:0:0:
360,121,213585,2,0,L|352:8,1,112,8|2,0:0|0:0,0:0:0:0:
327,296,213985,2,0,L|440:288,1,112,8|8,0:0|0:0,0:0:0:0:
373,197,214285,1,8,0:0:0:0:
373,197,214385,5,8,0:0:0:0:
325,186,214485,1,8,0:0:0:0:
277,199,214585,1,8,0:0:0:0:
240,231,214685,1,8,0:0:0:0:
219,275,214785,1,8,0:0:0:0:
198,319,214885,1,8,0:0:0:0:
157,347,214985,1,8,0:0:0:0:
109,358,215085,1,8,0:0:0:0:
57,345,215185,5,8,0:0:0:0:
20,305,215285,1,8,0:0:0:0:
5,253,215385,1,8,0:0:0:0:
20,202,215485,1,8,0:0:0:0:
60,167,215585,1,8,0:0:0:0:
111,155,215685,1,8,0:0:0:0:
163,159,215785,1,8,0:0:0:0:
214,173,215885,1,8,0:0:0:0:
266,175,215985,6,0,B|337:169|352:103|352:103|363:150|363:150|404:103|466:122,1,280,2|0,0:0|0:0,0:0:0:0:
434,207,217085,1,0,0:0:0:0:
434,207,217185,2,0,P|413:224|383:234,1,56,8|0,0:0|0:0,0:0:0:0:
260,75,217585,6,0,P|207:67|139:174,1,188.999994232178,6|0,0:0|0:0,0:0:0:0:
222,151,217985,5,0,0:0:0:0:
111,32,218185,1,0,0:0:0:0:
44,248,218385,1,8,0:0:0:0:
222,151,218585,1,0,0:0:0:0:
169,354,218785,1,0,0:0:0:0:
30,146,218985,1,2,0:0:0:0:
196,232,219185,6,0,P|224:237|256:231,1,59.5000011348725
370,166,219385,5,0,0:0:0:0:
297,346,219585,1,2,0:0:0:0:
227,129,219785,1,0,0:0:0:0:
439,228,219985,2,0,P|401:255|343:257,1,105.000004005432,8|0,0:0|0:0,0:0:0:0:
126,117,220385,2,0,P|175:110|229:130,1,105.000004005432
405,324,220785,6,0,P|338:350|257:265,1,178.500003404617,2|0,0:0|0:0,0:0:0:0:
282,195,221185,5,0,0:0:0:0:
402,233,221385,1,0,0:0:0:0:
154,248,221585,1,8,0:0:0:0:
204,104,221785,1,0,0:0:0:0:
402,233,221985,1,0,0:0:0:0:
321,57,222185,1,2,0:0:0:0:
246,301,222385,5,0,0:0:0:0:
402,233,222585,1,0,0:0:0:0:
155,248,222785,1,2,0:0:0:0:
311,178,222985,1,0,0:0:0:0:
117,54,223185,1,8,0:0:0:0:
68,261,223385,1,0,0:0:0:0:
311,178,223585,1,0,0:0:0:0:
380,375,223785,1,0,0:0:0:0:
224,159,223985,6,0,P|259:105|368:112,1,178.500003404617,2|0,0:0|0:0,0:0:0:0:
439,193,224385,5,0,0:0:0:0:
418,37,224585,1,0,0:0:0:0:
311,178,224785,1,8,0:0:0:0:
450,310,224985,1,0,0:0:0:0:
439,193,225185,1,0,0:0:0:0:
274,287,225385,2,0,P|227:304|172:290,1,90.9999958343508,2|0,0:0|0:0,0:0:0:0:
219,177,225785,5,0,0:0:0:0:
109,348,225985,2,0,P|56:345|14:313,1,90.9999958343508,2|0,0:0|0:0,0:0:0:0:
79,118,226385,2,0,P|113:153|119:208,1,90.9999958343508,8|0,0:0|0:0,0:0:0:0:
185,26,226785,2,0,P|205:84|184:126,1,90.9999958343508
365,291,227185,6,0,P|380:241|302:270,1,178.500003404617,2|0,0:0|0:0,0:0:0:0:
239,321,227585,5,0,0:0:0:0:
394,365,227785,1,0,0:0:0:0:
308,139,227985,1,8,0:0:0:0:
248,221,228185,1,0,0:0:0:0:
428,217,228385,1,0,0:0:0:0:
368,64,228585,1,2,0:0:0:0:
248,221,228785,6,0,P|188:238|136:229,1,97.9999970092774
51,94,229185,2,0,L|160:107,1,97.9999970092774,2|0,0:0|0:0,0:0:0:0:
335,243,229585,5,8,0:0:0:0:
269,29,229785,1,8,0:0:0:0:
190,235,229985,1,8,0:0:0:0:
379,111,230185,1,8,0:0:0:0:
259,181,230585,5,0,0:0:0:0:
262,199,230785,1,0,0:0:0:0:
265,219,230985,1,0,0:0:0:0:
369,109,231185,5,8,0:0:0:0:
204,120,231385,1,0,0:0:0:0:
204,120,231485,1,0,0:0:0:0:
204,120,231585,1,0,0:0:0:0:
374,217,231785,1,2,0:0:0:0:
269,52,231985,6,0,P|223:29|174:33,1,97.9999970092774
374,217,232385,2,0,P|422:219|465:196,1,97.9999970092774,2|0,0:0|0:0,0:0:0:0:
294,142,232785,2,0,P|263:195|327:309,1,195.999994018555,8|0,0:0|0:0,0:0:0:0:
488,307,233385,1,0,0:0:0:0:
412,146,233585,6,0,P|467:103|481:172,1,168,2|0,0:0|0:0,0:0:0:0:
308,240,233985,5,0,0:0:0:0:
341,82,234185,1,0,0:0:0:0:
427,280,234385,1,8,0:0:0:0:
290,320,234585,1,0,0:0:0:0:
325,161,234785,1,0,0:0:0:0:
502,253,234985,1,2,0:0:0:0:
290,320,235185,5,0,0:0:0:0:
290,320,235285,1,0,0:0:0:0:
290,320,235385,1,0,0:0:0:0:
325,161,235585,2,0,P|368:140|427:144,1,97.9999970092774,2|0,0:0|0:0,0:0:0:0:
149,235,235985,1,8,0:0:0:0:
181,87,236185,1,0,0:0:0:0:
293,229,236385,1,0,0:0:0:0:
127,319,236585,1,0,0:0:0:0:
280,132,236785,6,0,B|293:123|307:132|307:132|322:123|332:138|332:138|348:131|354:151|354:151|367:148|372:169|372:169|384:178|384:192|384:192|391:203|389:217|389:217|395:226,1,168,2|0,0:0|0:0,0:0:0:0:
293,229,237185,5,0,0:0:0:0:
336,55,237385,1,0,0:0:0:0:
461,246,237585,1,8,0:0:0:0:
289,204,237785,1,0,0:0:0:0:
490,160,237985,1,0,0:0:0:0:
363,271,238185,1,2,0:0:0:0:
261,91,238385,6,0,P|231:84|196:87,1,56
118,126,238585,5,0,0:0:0:0:
326,162,238785,2,0,P|353:120|354:71,1,97.9999970092774,2|0,0:0|0:0,0:0:0:0:
189,229,239185,2,0,P|190:277|217:317,1,97.9999970092774,8|0,0:0|0:0,0:0:0:0:
415,355,239585,1,0,0:0:0:0:
352,229,239785,1,0,0:0:0:0:
217,317,239985,6,0,P|148:332|161:255,1,168,2|0,0:0|0:0,0:0:0:0:
280,255,240385,6,0,P|304:310|297:357,1,97.9999970092774
158,115,240785,1,8,0:0:0:0:
307,130,240985,1,0,0:0:0:0:
202,237,241185,1,0,0:0:0:0:
362,205,241385,1,0,0:0:0:0:
255,61,241585,5,0,0:0:0:0:
213,46,241685,1,0,0:0:0:0:
169,54,241785,1,0,0:0:0:0:
132,78,241885,1,0,0:0:0:0:
120,120,241985,1,0,0:0:0:0:
169,234,242185,6,0,P|193:244|218:246,1,48.9999985046387
313,206,242385,2,0,P|346:202|374:209,1,48.9999985046387
408,279,242585,1,2,0:0:0:0:
392,290,242685,1,2,0:0:0:0:
371,295,242785,1,2,0:0:0:0:
456,183,242985,1,8,0:0:0:0:
500,363,243185,5,6,0:0:0:0:
