osu file format v14

[General]
AudioFilename: audio.mp3
AudioLeadIn: 0
PreviewTime: 63985
Countdown: 0
SampleSet: Soft
StackLeniency: 0.7
Mode: 0
LetterboxInBreaks: 0
WidescreenStoryboard: 1

[Editor]
Bookmarks: 45985,83585
DistanceSpacing: 1.1
BeatDivisor: 2
GridSize: 8
TimelineZoom: 0.8999997

[Metadata]
Title:Deep In The Night
TitleUnicode:Deep In The Night
Artist:Snails & Pegboard Nerds
ArtistUnicode:Snails & Pegboard Nerds
Creator:vanucik
Version:Easy
Source:
Tags:monstercat dubstep vomitstep
BeatmapID:1109405
BeatmapSetID:513194

[Difficulty]
HPDrainRate:3
CircleSize:2.7
OverallDifficulty:3
ApproachRate:3
SliderMultiplier:0.8
SliderTickRate:1

[Events]
//Background and Video events
0,0,"Snails-Pegboard-Nerds-Deep-In-The-Night-Art-1000x600.jpg",0,0
//Break Periods
2,89785,94545
2,128185,139345
2,204985,209745
//Storyboard Layer 0 (Background)
//Storyboard Layer 1 (Fail)
//Storyboard Layer 2 (Pass)
//Storyboard Layer 3 (Foreground)
//Storyboard Sound Samples

[TimingPoints]
-15,400,4,2,1,40,1,0
25585,-100,4,2,1,35,0,0
38385,-100,4,2,1,50,0,0
51185,-100,4,2,1,60,0,0
57585,-100,4,2,1,70,0,0
63985,-100,4,2,1,70,0,1
89585,-100,4,2,1,70,0,0
102385,-100,4,2,1,70,0,1
115185,-100,4,2,1,20,0,1
115985,-100,4,2,1,70,0,1
127985,-100,4,2,1,50,0,0
166385,-100,4,2,1,60,0,0
179185,-100,4,2,1,70,0,1
204785,-100,4,2,1,70,0,0
217585,-100,4,2,1,70,0,1
230385,-100,4,2,1,20,0,1
231185,-100,4,2,1,70,0,1
243185,-100,4,2,1,70,0,0

[Colours]
Combo1 : 149,0,149
Combo2 : 255,68,68
Combo3 : 0,128,255
Combo4 : 0,168,147
Combo5 : 213,213,0

[HitObjects]
64,159,12785,6,0,P|123:130|175:143,2,120,6|0|0,0:0|0:0|0:0,0:0:0:0:
130,217,14385,2,0,L|262:228,1,120,0|0,0:0|0:0,0:0:0:0:
372,179,15585,1,8,0:0:0:0:
316,111,15985,6,0,P|262:91|196:119,2,120,0|0|0,0:0|0:0|0:0,0:0:0:0:
260,179,17585,2,0,P|203:199|140:173,1,120,0|0,0:0|0:0,0:0:0:0:
53,88,18785,1,8,0:0:0:0:
53,176,19185,6,0,L|61:310,2,120,10|0|0,0:0|0:0|0:0,0:0:0:0:
100,102,20785,2,0,P|139:149|124:228,2,120,0|0|8,0:0|0:0|0:0,0:0:0:0:
179,64,22385,6,0,P|237:58|300:83,1,120,10|0,0:0|0:0,0:0:0:0:
396,162,23585,1,0,0:0:0:0:
345,235,23985,2,0,B|275:277|232:240|191:202|115:253,1,240,0|2,0:0|0:0,0:0:0:0:
178,316,25585,6,0,B|241:311|285:363|285:363|336:309|409:313,1,240,6|0,0:0|0:0,0:0:0:0:
462,265,27185,2,0,B|421:209|349:232|349:232|353:165|296:135,1,240,0|0,0:0|0:0,0:0:0:0:
259,215,28785,6,0,B|248:277|300:314|300:314|233:304|176:336,1,240,0|0,0:0|0:0,0:0:0:0:
111,279,30385,2,0,B|103:219|103:219|131:172|131:172|95:105|145:52,1,240,0|0,0:0|0:0,0:0:0:0:
204,118,31985,6,0,P|249:133|353:86,1,160,10|0,0:0|0:0,0:0:0:0:
412,31,33185,1,0,0:0:0:0:
450,109,33585,2,0,B|444:162|407:183|407:183|394:222|394:222|338:204|282:237,1,240,0|0,0:0|0:0,0:0:0:0:
200,244,35185,6,0,P|232:165|327:151,1,160,10|0,0:0|0:0,0:0:0:0:
385,161,36385,1,0,0:0:0:0:
455,107,36785,2,0,B|414:57|348:79|348:79|291:51|291:51|227:64,1,240,0|0,0:0|0:0,0:0:0:0:
188,137,38385,6,0,L|193:233,1,80,6|0,0:0|0:0,0:0:0:0:
277,236,39185,2,0,L|272:140,1,80,0|0,0:0|0:0,0:0:0:0:
359,171,39985,2,0,P|385:241|349:319,1,160,2|0,0:0|0:0,0:0:0:0:
268,342,41185,1,0,0:0:0:0:
193,295,41585,6,0,P|166:284|111:282,1,80,2|0,0:0|0:0,0:0:0:0:
141,197,42385,2,0,P|173:189|224:192,1,80,0|0,0:0|0:0,0:0:0:0:
306,205,43185,2,0,P|331:208|395:187,1,80,2|0,0:0|0:0,0:0:0:0:
422,115,43985,1,0,0:0:0:0:
351,61,44385,1,0,0:0:0:0:
269,94,44785,6,0,P|236:107|134:47,1,160,6|0,0:0|0:0,0:0:0:0:
218,21,45985,1,0,0:0:0:0:
305,23,46385,2,0,P|369:37|396:33,1,80,2|0,0:0|0:0,0:0:0:0:
470,26,47185,2,0,L|466:116,1,80,0|0,0:0|0:0,0:0:0:0:
408,171,47985,6,0,P|367:186|323:179,1,80,6|0,0:0|0:0,0:0:0:0:
243,178,48785,1,0,0:0:0:0:
211,260,49185,1,0,0:0:0:0:
264,332,49585,2,0,P|307:339|392:262,1,160,2|0,0:0|0:0,0:0:0:0:
364,185,50785,1,0,0:0:0:0:
298,244,51185,6,0,P|250:241|211:245,1,80,6|2,0:0|0:0,0:0:0:0:
131,259,51985,1,2,0:0:0:0:
51,296,52385,1,2,0:0:0:0:
114,356,52785,2,0,P|155:360|206:347,1,80,2|2,0:0|0:0,0:0:0:0:
248,284,53585,2,0,P|286:266|318:235,1,80,2|2,0:0|0:0,0:0:0:0:
237,198,54385,6,0,P|189:198|151:208,1,80,2|2,0:0|0:0,0:0:0:0:
86,255,55185,1,2,0:0:0:0:
55,337,55585,1,2,0:0:0:0:
140,359,55985,2,0,P|159:321|166:277,1,80,2|2,0:0|0:0,0:0:0:0:
117,210,56785,2,0,P|102:169|102:131,1,80,2|2,0:0|0:0,0:0:0:0:
107,45,57585,6,0,P|148:22|208:30,1,80,8|8,0:0|0:0,0:0:0:0:
249,75,58385,1,8,0:0:0:0:
336,77,58785,1,8,0:0:0:0:
417,44,59185,2,0,L|428:128,1,80,8|8,0:0|0:0,0:0:0:0:
391,203,59985,1,8,0:0:0:0:
306,177,60385,1,8,0:0:0:0:
256,192,60785,12,2,62385,0:0:0:0:
130,107,63985,6,0,P|179:126|287:90,1,160,6|8,0:0|0:0,0:0:0:0:
366,102,65185,1,0,0:0:0:0:
378,189,65585,2,0,B|339:204|339:204|293:193,1,80,2|0,0:0|0:0,0:0:0:0:
218,166,66385,1,8,0:0:0:0:
130,176,66785,1,0,0:0:0:0:
63,234,67185,6,0,P|65:290|159:347,1,160,2|8,0:0|0:0,0:0:0:0:
224,312,68385,1,0,0:0:0:0:
306,342,68785,2,0,P|346:354|391:347,1,80,2|0,0:0|0:0,0:0:0:0:
458,303,69585,1,8,0:0:0:0:
470,215,69985,1,0,0:0:0:0:
416,145,70385,5,2,0:0:0:0:
241,125,71185,1,8,0:0:0:0:
157,153,71585,1,0,0:0:0:0:
128,236,71985,2,0,P|159:262|198:277,1,80,2|0,0:0|0:0,0:0:0:0:
257,339,72785,2,0,P|304:346|344:341,1,80,8|0,0:0|0:0,0:0:0:0:
380,266,73585,6,0,P|351:226|241:219,1,160,2|8,0:0|0:0,0:0:0:0:
167,251,74785,1,0,0:0:0:0:
157,163,75185,2,0,P|188:128|298:123,1,160,2|8,0:0|0:0,0:0:0:0:
377,151,76385,1,8,0:0:0:0:
461,124,76785,6,0,P|475:163|471:208,1,80,6|0,0:0|0:0,0:0:0:0:
452,286,77585,1,8,0:0:0:0:
376,331,77985,1,0,0:0:0:0:
288,326,78385,2,0,B|235:311|188:352|188:352|136:338,1,160,2|8,0:0|0:0,0:0:0:0:
76,275,79585,1,0,0:0:0:0:
76,187,79985,6,0,P|116:169|159:172,1,80,2|0,0:0|0:0,0:0:0:0:
232,204,80785,1,8,0:0:0:0:
319,200,81185,1,0,0:0:0:0:
402,173,81585,2,0,B|410:202|402:232|402:232|416:271|416:271|397:299|402:335,1,160,6|8,0:0|0:0,0:0:0:0:
489,320,82785,1,0,0:0:0:0:
499,232,83185,6,0,L|497:147,1,80,2|0,0:0|0:0,0:0:0:0:
422,104,83985,1,8,0:0:0:0:
339,135,84385,1,0,0:0:0:0:
325,222,84785,2,0,P|324:261|339:298,1,80,2|0,0:0|0:0,0:0:0:0:
427,318,85585,2,0,P|428:278|413:241,1,80,8|0,0:0|0:0,0:0:0:0:
422,153,86385,5,2,0:0:0:0:
469,79,86785,1,0,0:0:0:0:
386,48,87185,2,0,L|302:52,1,80,8|0,0:0|0:0,0:0:0:0:
256,192,87985,12,2,89585,0:0:0:0:
108,76,95985,6,0,L|201:70,1,80,8|8,0:0|0:0,0:0:0:0:
259,122,96785,1,8,0:0:0:0:
339,86,97185,1,8,0:0:0:0:
408,139,97585,2,0,P|420:184|418:222,1,80,8|8,0:0|0:0,0:0:0:0:
369,290,98385,1,8,0:0:0:0:
282,304,98785,1,8,0:0:0:0:
256,192,99185,12,2,100785,0:0:0:0:
276,205,102385,6,0,B|237:211|237:211|197:201,1,80,6|0,0:0|0:0,0:0:0:0:
119,160,103185,2,0,B|79:150|79:150|40:156,1,80,8|0,0:0|0:0,0:0:0:0:
49,243,103985,1,2,0:0:0:0:
136,252,104385,1,0,0:0:0:0:
126,339,104785,2,0,P|171:354|210:351,1,80,8|0,0:0|0:0,0:0:0:0:
242,274,105585,6,0,L|258:108,1,160,2|8,0:0|0:0,0:0:0:0:
330,65,106785,1,0,0:0:0:0:
369,143,107185,2,0,P|372:181|359:220,1,80,2|0,0:0|0:0,0:0:0:0:
283,266,107985,1,8,0:0:0:0:
253,348,108385,1,0,0:0:0:0:
166,334,108785,5,2,0:0:0:0:
29,222,109585,2,0,P|19:180|18:140,1,80,8|0,0:0|0:0,0:0:0:0:
56,64,110385,1,2,0:0:0:0:
143,52,110785,1,0,0:0:0:0:
202,116,111185,2,0,P|246:123|293:107,1,80,8|0,0:0|0:0,0:0:0:0:
343,174,111985,6,0,B|388:186|388:186|427:169|427:169|461:192|500:185,1,160,2|8,0:0|0:0,0:0:0:0:
484,98,113185,1,0,0:0:0:0:
404,60,113585,2,0,P|363:59|325:75,1,80,2|0,0:0|0:0,0:0:0:0:
245,105,114385,2,0,P|201:113|121:38,1,160,8|0,0:0|0:0,0:0:0:0:
176,207,115985,5,8,0:0:0:0:
351,220,116785,2,0,P|369:269|365:301,1,80,0|2,0:0|0:0,0:0:0:0:
281,273,117585,2,0,P|263:224|267:192,1,80,8|0,0:0|0:0,0:0:0:0:
317,126,118385,6,0,P|272:110|182:172,1,160,2|8,0:0|0:0,0:0:0:0:
157,249,119585,1,0,0:0:0:0:
83,203,119985,2,0,P|66:172|59:126,1,80,0|2,0:0|0:0,0:0:0:0:
102,52,120785,1,8,0:0:0:0:
188,34,121185,1,0,0:0:0:0:
253,93,121585,6,0,B|293:118|343:99|343:99|365:115|365:115|393:103|422:109,1,160,6|8,0:0|0:0,0:0:0:0:
405,195,122785,1,0,0:0:0:0:
321,223,123185,1,2,0:0:0:0:
234,208,123585,1,0,0:0:0:0:
155,248,123985,2,0,P|139:292|140:328,1,80,8|0,0:0|0:0,0:0:0:0:
221,356,124785,6,0,B|266:357|294:329|294:329|323:337|323:337|342:325|392:326,1,160,2|8,0:0|0:0,0:0:0:0:
457,342,125985,1,0,0:0:0:0:
256,192,126385,12,6,127985,0:0:0:0:
227,245,140785,6,0,B|210:205|220:165|220:165|208:108,2,120,6|0|0,0:0|0:0|0:0,0:0:0:0:
289,307,142385,2,0,P|334:315|404:255,2,120,0|0|0,0:0|0:0|0:0,0:0:0:0:
202,322,143985,6,0,B|158:332|158:332|124:324|124:324|81:333,2,120,0|0|0,0:0|0:0|0:0,0:0:0:0:
164,242,145585,2,0,B|159:211|141:187|141:187|143:163|143:163|132:146|129:121,2,120,0|0|0,0:0|0:0|0:0,0:0:0:0:
251,240,147185,6,0,P|311:226|374:268,2,120,0|0|0,0:0|0:0|0:0,0:0:0:0:
300,312,148785,2,0,P|353:337|410:323,2,120,0|0|0,0:0|0:0|0:0,0:0:0:0:
211,317,150385,6,0,B|183:326|153:315|153:315|132:326|132:326|107:322|82:327,2,120,0|0|0,0:0|0:0|0:0,0:0:0:0:
186,232,151985,2,0,P|168:167|186:101,2,120,0|0|2,0:0|0:0|0:0,0:0:0:0:
271,254,153585,6,0,L|368:244,1,80,6|0,0:0|0:0,0:0:0:0:
408,179,154385,2,0,L|499:186,1,80,0|0,0:0|0:0,0:0:0:0:
487,273,155185,1,0,0:0:0:0:
424,334,155585,1,0,0:0:0:0:
336,328,155985,2,0,P|294:322|253:330,1,80,0|0,0:0|0:0,0:0:0:0:
174,358,156785,6,0,P|159:314|216:221,1,160,0|0,0:0|0:0,0:0:0:0:
292,186,157985,1,0,0:0:0:0:
358,128,158385,2,0,P|373:87|366:45,1,80,0|0,0:0|0:0,0:0:0:0:
295,1,159185,2,0,P|280:42|287:84,1,80,0|0,0:0|0:0,0:0:0:0:
283,165,159985,6,0,P|219:185|141:140,1,160,12|0,0:0|0:0,0:0:0:0:
111,58,161185,1,0,0:0:0:0:
49,120,161585,2,0,P|35:171|36:203,1,80,0|0,0:0|0:0,0:0:0:0:
103,253,162385,2,0,P|115:304|131:333,1,80,0|0,0:0|0:0,0:0:0:0:
206,367,163185,6,0,P|215:316|193:271,1,80,2|0,0:0|0:0,0:0:0:0:
171,210,163985,1,0,0:0:0:0:
87,183,164385,1,0,0:0:0:0:
149,121,164785,2,0,P|213:127|263:206,1,160,0|0,0:0|0:0,0:0:0:0:
255,289,165985,1,0,0:0:0:0:
320,348,166385,6,0,P|370:352|404:340,1,80,6|2,0:0|0:0,0:0:0:0:
443,267,167185,2,0,L|360:255,1,80,2|2,0:0|0:0,0:0:0:0:
282,221,167985,1,2,0:0:0:0:
239,143,168385,1,2,0:0:0:0:
270,60,168785,2,0,P|322:43|349:43,1,80,2|10,0:0|0:0,0:0:0:0:
413,101,169585,6,0,P|413:142|402:187,1,80,6|2,0:0|0:0,0:0:0:0:
316,185,170385,2,0,P|297:224|267:256,1,80,2|2,0:0|0:0,0:0:0:0:
187,228,171185,1,2,0:0:0:0:
108,267,171585,1,2,0:0:0:0:
29,228,171985,2,0,P|14:198|16:146,1,80,2|2,0:0|0:0,0:0:0:0:
77,91,172785,6,0,L|183:91,1,80,8|8,0:0|0:0,0:0:0:0:
223,148,173585,1,8,0:0:0:0:
309,162,173985,1,8,0:0:0:0:
392,132,174385,2,0,P|415:185|418:214,1,80,8|8,0:0|0:0,0:0:0:0:
399,292,175185,1,8,0:0:0:0:
326,342,175585,1,8,0:0:0:0:
256,192,175985,12,2,177585,0:0:0:0:
135,80,179185,6,0,L|28:84,2,80,6|8|2,0:0|0:0|0:0,0:0:0:0:
212,38,180385,1,8,0:0:0:0:
283,89,180785,2,0,P|290:135|284:177,1,80,2|8,0:0|0:0,0:0:0:0:
218,224,181585,1,2,0:0:0:0:
134,195,181985,1,8,0:0:0:0:
151,281,182385,6,0,P|187:309|242:310,1,80,2|8,0:0|0:0,0:0:0:0:
299,275,183185,1,2,0:0:0:0:
350,346,183585,1,8,0:0:0:0:
424,299,183985,2,0,P|439:262|440:216,1,80,6|8,0:0|0:0,0:0:0:0:
371,167,184785,2,0,P|358:114|364:75,1,80,2|8,0:0|0:0,0:0:0:0:
401,11,185585,6,0,L|298:15,1,80,2|8,0:0|0:0,0:0:0:0:
263,80,186385,1,2,0:0:0:0:
176,65,186785,1,8,0:0:0:0:
149,148,187185,2,0,L|146:250,1,80,2|8,0:0|0:0,0:0:0:0:
228,261,187985,2,0,L|230:175,1,80,2|8,0:0|0:0,0:0:0:0:
296,123,188785,6,0,P|316:159|315:205,1,80,8|8,0:0|0:0,0:0:0:0:
307,284,189585,1,8,0:0:0:0:
356,357,189985,1,8,0:0:0:0:
421,295,190385,2,0,B|431:266|428:232|428:232|453:226|453:226|440:188|450:153,1,160,8|8,0:0|0:0,0:0:0:0:
482,75,191585,1,8,0:0:0:0:
395,60,191985,6,0,P|351:61|311:65,1,80,6|0,0:0|0:0,0:0:0:0:
231,92,192785,1,8,0:0:0:0:
150,57,193185,1,0,0:0:0:0:
125,141,193585,2,0,P|155:173|188:191,1,80,2|0,0:0|0:0,0:0:0:0:
216,273,194385,2,0,P|276:288|310:286,1,80,8|0,0:0|0:0,0:0:0:0:
370,244,195185,5,2,0:0:0:0:
440,297,195585,1,0,0:0:0:0:
470,214,195985,2,0,L|476:130,1,80,8|0,0:0|0:0,0:0:0:0:
399,89,196785,2,0,P|343:89|272:175,1,160,6|8,0:0|0:0,0:0:0:0:
261,247,197985,1,0,0:0:0:0:
181,209,198385,6,0,P|141:199|90:219,1,80,2|0,0:0|0:0,0:0:0:0:
67,289,199185,2,0,P|107:299|158:279,1,80,8|0,0:0|0:0,0:0:0:0:
231,285,199985,1,2,0:0:0:0:
308,327,200385,1,0,0:0:0:0:
372,266,200785,2,0,P|384:227|380:186,1,80,8|0,0:0|0:0,0:0:0:0:
308,138,201585,5,2,0:0:0:0:
220,144,201985,1,0,0:0:0:0:
165,213,202385,2,0,P|112:223|75:213,1,80,8|0,0:0|0:0,0:0:0:0:
256,192,203185,12,6,204785,0:0:0:0:
147,349,211185,6,0,P|135:313|143:265,1,80,8|8,0:0|0:0,0:0:0:0:
211,220,211985,1,8,0:0:0:0:
223,305,212385,1,8,0:0:0:0:
291,249,212785,2,0,P|296:209|283:173,1,80,8|8,0:0|0:0,0:0:0:0:
203,133,213585,1,8,0:0:0:0:
211,220,213985,1,8,0:0:0:0:
256,192,214385,12,2,215985,0:0:0:0:
77,171,217585,6,0,P|130:194|228:139,1,160,6|8,0:0|0:0,0:0:0:0:
267,81,218785,1,0,0:0:0:0:
347,117,219185,1,0,0:0:0:0:
424,75,219585,1,2,0:0:0:0:
468,150,219985,2,0,P|440:181|403:197,1,80,8|0,0:0|0:0,0:0:0:0:
317,193,220785,6,0,P|257:188|179:260,1,160,2|8,0:0|0:0,0:0:0:0:
120,309,221985,1,0,0:0:0:0:
52,253,222385,1,0,0:0:0:0:
86,172,222785,1,2,0:0:0:0:
46,93,223185,2,0,P|39:53|53:9,1,80,8|0,0:0|0:0,0:0:0:0:
126,58,223985,6,0,P|176:93|223:93,1,80,2|0,0:0|0:0,0:0:0:0:
280,109,224785,2,0,P|276:61|216:11,2,120,8|2|2,0:0|0:0|0:0,0:0:0:0:
267,196,226385,2,0,P|251:244|224:277,1,80,8|0,0:0|0:0,0:0:0:0:
161,317,227185,5,2,0:0:0:0:
73,306,227585,1,0,0:0:0:0:
22,233,227985,2,0,P|12:191|17:152,1,80,8|0,0:0|0:0,0:0:0:0:
58,77,228785,1,0,0:0:0:0:
145,69,229185,1,2,0:0:0:0:
214,123,229585,2,0,P|255:141|302:132,2,80,8|8|0,0:0|0:0|0:0,0:0:0:0:
381,57,231185,5,8,0:0:0:0:
441,222,231985,2,0,P|399:239|356:239,1,80,0|2,0:0|0:0,0:0:0:0:
294,186,232785,2,0,P|240:185|206:197,1,80,8|0,0:0|0:0,0:0:0:0:
153,255,233585,5,2,0:0:0:0:
74,215,233985,1,0,0:0:0:0:
137,154,234385,2,0,P|160:114|162:75,1,80,8|0,0:0|0:0,0:0:0:0:
99,19,235185,1,0,0:0:0:0:
29,72,235585,1,2,0:0:0:0:
50,157,235985,2,0,P|52:203|43:238,1,80,8|0,0:0|0:0,0:0:0:0:
38,324,236785,6,0,P|83:338|176:279,1,160,2|8,0:0|0:0,0:0:0:0:
212,204,237985,1,0,0:0:0:0:
280,259,238385,1,0,0:0:0:0:
359,220,238785,1,2,0:0:0:0:
394,300,239185,2,0,P|441:317|481:309,1,80,8|0,0:0|0:0,0:0:0:0:
506,233,239985,5,2,0:0:0:0:
449,165,240385,1,0,0:0:0:0:
361,168,240785,2,0,P|314:164|276:142,1,80,8|0,0:0|0:0,0:0:0:0:
256,192,241585,12,6,243185,0:0:0:0:
