osu file format v14

[General]
AudioFilename: audio.mp3
AudioLeadIn: 0
PreviewTime: 53497
Countdown: 0
SampleSet: Normal
StackLeniency: 0.7
Mode: 0
LetterboxInBreaks: 0
WidescreenStoryboard: 0

[Editor]
Bookmarks: 10983,21954,43897,54869,76811,98754,109726,120697
DistanceSpacing: 2
BeatDivisor: 4
GridSize: 32
TimelineZoom: 1.9

[Metadata]
Title:Deep In The Night (Muzzy Remix)
TitleUnicode:Deep In The Night (Muzzy Remix)
Artist:Snails & Pegboard Nerds
ArtistUnicode:Snails & Pegboard Nerds
Creator:makc0h4uk
Version:Extreme
Source:
Tags:drum and bass dnb
BeatmapID:1959452
BeatmapSetID:938032

[Difficulty]
HPDrainRate:5
CircleSize:4
OverallDifficulty:8
ApproachRate:9.8
SliderMultiplier:1.4
SliderTickRate:1

[Events]
//Background and Video events
0,0,"jap6x5ahh7ky.png",0,0
//Break Periods
2,87983,120218
//Storyboard Layer 0 (Background)
//Storyboard Layer 1 (Fail)
//Storyboard Layer 2 (Pass)
//Storyboard Layer 3 (Foreground)
//Storyboard Layer 4 (Overlay)
//Storyboard Sound Samples

[TimingPoints]
12,342.857142857143,4,1,0,100,1,0
10983,-333.333333333333,4,1,0,100,0,0
16126,-33.3333333333333,4,1,0,100,0,0
16469,-333.333333333333,4,1,0,100,0,0
21954,-100,4,1,0,100,0,0
27097,-33.3333333333333,4,1,0,100,0,0
27440,-100,4,1,0,100,0,0
32583,-33.3333333333333,4,1,0,100,0,0
32926,-100,4,1,0,100,0,0
42526,-66.6666666666667,4,1,0,100,0,0
52126,-83.3333333333333,4,1,0,100,0,0
54869,-33.3333333333333,4,1,0,100,0,0
75440,-66.6666666666667,4,1,0,100,0,0
76812,-33.3333333333333,4,1,0,100,0,0
134069,-100,4,1,0,5,0,0

[HitObjects]
208,218,10983,6,0,L|212:189,3,20.9999993591309
293,125,11669,2,0,L|289:152,1,20.9999993591309
338,247,12012,2,0,L|342:217,1,20.9999993591309
412,132,12354,2,0,L|392:129,3,20.9999993591309
309,185,13040,2,0,L|286:180,1,20.9999993591309
251,83,13383,2,0,L|229:78,1,20.9999993591309
158,143,13726,2,0,L|150:171,3,20.9999993591309
231,213,14412,2,0,L|225:238,1,20.9999993591309
311,291,14754,2,0,L|306:316,1,20.9999993591309
410,231,15097,5,0,0:0:0:0:
388,134,15269,1,0,0:0:0:0:
321,222,15440,5,0,0:0:0:0:
299,125,15612,1,0,0:0:0:0:
232,213,15782,5,0,0:0:0:0:
210,116,15954,1,0,0:0:0:0:
146,192,16126,2,0,B|140:199|140:199|136:202|136:202|135:206|135:206|126:211|126:211|131:216|131:216|139:217|139:217|136:225|136:225|143:228|143:228|138:235|138:235|126:230|126:230|132:238|132:238|124:239|124:239|119:244|119:244|123:250|123:250|134:245|134:245|131:252|131:252|139:261|139:261|137:267|137:267|122:259|122:259|128:271|128:271|122:268|122:268|116:272|116:272|111:280|111:280|120:283|120:283|115:294|115:294|127:297|127:297|119:307|119:307|109:302|109:302|121:318|121:318|107:311|107:311,1,210.000008010865
233,269,16469,2,0,L|227:240,3,20.9999993591309
285,154,17155,2,0,L|289:180,1,20.9999993591309
365,256,17498,2,0,L|359:226,1,20.9999993591309
400,125,17840,2,0,L|379:128,3,20.9999993591309
318,206,18526,2,0,L|294:208,1,20.9999993591309
232,127,18869,2,0,L|209:129,1,20.9999993591309
256,192,19212,12,0,21612,0:0:0:0:
177,135,21954,6,0,P|234:129|294:126,1,105
351,131,22297,1,0,0:0:0:0:
330,270,22469,1,0,0:0:0:0:
229,173,22640,1,0,0:0:0:0:
215,312,22812,1,0,0:0:0:0:
353,293,22983,1,0,0:0:0:0:
325,156,23154,1,0,0:0:0:0:
203,206,23326,6,0,P|134:249|104:272,1,105
67,314,23669,1,0,0:0:0:0:
206,320,23840,1,0,0:0:0:0:
141,195,24012,1,0,0:0:0:0:
280,203,24183,1,0,0:0:0:0:
246,67,24354,1,0,0:0:0:0:
342,169,24526,1,0,0:0:0:0:
206,135,24697,6,0,P|145:121|89:112,1,105
32,112,25040,1,0,0:0:0:0:
79,244,25212,1,0,0:0:0:0:
218,236,25383,1,0,0:0:0:0:
114,329,25554,1,0,0:0:0:0:
254,334,25726,1,0,0:0:0:0:
189,210,25897,1,0,0:0:0:0:
300,125,26069,6,0,P|353:86|399:60,1,105
452,40,26412,1,0,0:0:0:0:
433,178,26583,1,0,0:0:0:0:
368,54,26754,1,0,0:0:0:0:
331,189,26926,1,0,0:0:0:0:
220,44,27097,2,0,B|209:62|209:62|213:81|213:81|202:100|202:100|206:121|206:121|196:142,1,105.000004005432
274,280,27269,2,0,B|285:262|285:262|281:243|281:243|292:224|292:224|288:203|288:203|298:182,1,105.000004005432
151,121,27440,6,0,P|145:178|142:238,1,105
147,295,27783,1,0,0:0:0:0:
286,274,27955,1,0,0:0:0:0:
189,173,28126,1,0,0:0:0:0:
328,159,28298,1,0,0:0:0:0:
309,297,28469,1,0,0:0:0:0:
172,269,28640,1,0,0:0:0:0:
286,187,28812,6,0,P|350:137|383:118,1,105
435,98,29155,1,0,0:0:0:0:
391,230,29326,1,0,0:0:0:0:
297,125,29498,1,0,0:0:0:0:
255,257,29669,1,0,0:0:0:0:
140,177,29840,1,0,0:0:0:0:
201,303,30012,1,0,0:0:0:0:
279,187,30183,6,0,P|317:137|355:95,1,105
399,60,30526,1,0,0:0:0:0:
445,192,30698,1,0,0:0:0:0:
333,273,30869,1,0,0:0:0:0:
472,280,31040,1,0,0:0:0:0:
367,371,31212,1,0,0:0:0:0:
339,234,31383,1,0,0:0:0:0:
199,238,31555,6,0,P|133:241|81:249,1,105
36,266,31898,1,0,0:0:0:0:
129,364,32069,1,0,0:0:0:0:
101,226,32240,1,0,0:0:0:0:
215,308,32412,1,0,0:0:0:0:
205,162,32583,2,0,B|223:173|223:173|242:169|242:169|261:180|261:180|282:176|282:176|303:186,1,105.000004005432
410,298,32755,2,0,B|392:287|392:287|373:291|373:291|354:280|354:280|333:284|333:284|312:274,1,105.000004005432
197,192,32926,6,0,B|230:169|237:119|200:63|200:63|271:78|374:55|374:55|416:75|424:198|389:218,1,490
358,291,34297,2,0,B|321:319|279:324|279:324|263:291|214:280,1,140
138,262,34812,2,0,B|133:212|133:212|114:175|129:155|129:155|162:154,1,140
274,148,35326,2,0,P|310:134|345:112,1,70
434,69,35669,6,0,B|449:158|411:218|456:252|469:290|469:290|408:312|378:284|349:326|349:326|272:264|222:279,1,490
130,295,37040,2,0,B|93:306|55:342|55:342|21:262|95:196|134:189|134:189|156:180|174:160|180:122,1,350
205,36,38069,1,0,0:0:0:0:
272,128,38240,1,0,0:0:0:0:
366,191,38412,6,0,B|408:218|441:212|441:212|451:249|465:310|409:356|308:354|264:330,1,350
174,281,39440,2,0,P|135:250|113:235,1,70
34,174,39783,2,0,B|16:142|2:108|42:60|42:60|99:71|172:51|172:51|202:50|241:73|251:102,1,350
296,196,40812,2,0,P|316:245|335:273,1,70
389,349,41154,6,0,B|428:356|462:358|462:358|405:377|317:376|240:339|249:306|249:306|254:279|246:248,1,350
238,147,42183,1,0,0:0:0:0:
118,107,42526,6,0,L|120:166,1,52.5000020027161
195,296,42697,2,0,L|189:236,1,52.5000020027161
236,94,42869,2,0,L|238:153,1,52.5000020027161
313,283,43040,2,0,L|307:223,1,52.5000020027161
354,81,43212,1,0,0:0:0:0:
384,287,43383,5,0,0:0:0:0:
394,320,43469,1,0,0:0:0:0:
425,342,43554,1,0,0:0:0:0:
498,154,43726,1,0,0:0:0:0:
256,64,43897,5,0,0:0:0:0:
67,157,44069,1,0,0:0:0:0:
276,144,44240,1,0,0:0:0:0:
93,249,44412,1,0,0:0:0:0:
292,183,44583,5,0,0:0:0:0:
168,352,44754,1,0,0:0:0:0:
26,195,44926,1,0,0:0:0:0:
235,182,45097,2,0,P|265:180|316:182,1,52.5000020027161
214,348,45269,5,0,0:0:0:0:
405,262,45440,1,0,0:0:0:0:
201,207,45612,1,0,0:0:0:0:
396,130,45783,1,0,0:0:0:0:
193,77,45954,5,0,0:0:0:0:
400,116,46126,1,0,0:0:0:0:
245,257,46297,1,0,0:0:0:0:
155,66,46469,2,0,P|136:42|109:24,1,52.5000020027161
54,189,46640,5,0,0:0:0:0:
243,97,46812,1,0,0:0:0:0:
168,292,46983,1,0,0:0:0:0:
300,130,47154,1,0,0:0:0:0:
290,340,47326,5,0,0:0:0:0:
348,138,47497,1,0,0:0:0:0:
137,124,47669,1,0,0:0:0:0:
248,301,47840,2,0,P|270:326|296:344,1,52.5000020027161
423,225,48012,5,0,0:0:0:0:
216,261,48183,1,0,0:0:0:0:
401,164,48354,1,0,0:0:0:0:
192,193,48526,1,0,0:0:0:0:
386,115,48697,5,0,0:0:0:0:
178,79,48869,1,0,0:0:0:0:
270,266,49040,1,0,0:0:0:0:
391,93,49212,1,0,0:0:0:0:
425,82,49297,1,0,0:0:0:0:
458,66,49383,5,0,0:0:0:0:
471,222,49554,1,0,0:0:0:0:
307,89,49726,6,0,L|350:136,1,52.5000020027161
406,307,49897,2,0,L|362:246,1,52.5000020027161
217,118,50069,6,0,L|261:165,1,52.5000020027161
323,335,50240,2,0,L|282:283,1,52.5000020027161
140,128,50412,6,0,L|180:187,1,52.5000020027161
208,337,50583,2,0,L|170:285,1,52.5000020027161
49,164,50754,5,0,0:0:0:0:
246,236,50926,1,0,0:0:0:0:
94,112,51097,6,0,L|152:125,1,52.5000020027161
376,87,51269,2,0,L|291:79,1,52.5000020027161
98,194,51440,6,0,L|158:211,1,52.5000020027161
379,163,51612,2,0,L|310:160,1,52.5000020027161
92,271,51783,6,0,L|156:291,1,52.5000020027161
383,247,51954,2,0,L|303:246,1,52.5000020027161
195,245,52126,5,0,0:0:0:0:
153,253,52211,1,0,0:0:0:0:
115,270,52297,1,0,0:0:0:0:
83,297,52383,1,0,0:0:0:0:
56,328,52468,5,0,0:0:0:0:
49,287,52554,1,0,0:0:0:0:
52,245,52640,1,0,0:0:0:0:
61,204,52725,1,0,0:0:0:0:
77,165,52811,5,0,0:0:0:0:
100,130,52897,1,0,0:0:0:0:
130,101,52983,1,0,0:0:0:0:
167,82,53068,1,0,0:0:0:0:
208,71,53154,5,0,0:0:0:0:
250,70,53240,1,0,0:0:0:0:
291,78,53325,1,0,0:0:0:0:
329,94,53411,1,0,0:0:0:0:
362,119,53497,5,0,0:0:0:0:
332,148,53583,1,0,0:0:0:0:
311,184,53668,1,0,0:0:0:0:
304,226,53754,1,0,0:0:0:0:
311,267,53840,5,0,0:0:0:0:
329,305,53925,1,0,0:0:0:0:
359,333,54011,5,0,0:0:0:0:
430,180,54183,1,0,0:0:0:0:
268,224,54354,1,0,0:0:0:0:
379,97,54526,5,0,0:0:0:0:
220,43,54697,1,0,0:0:0:0:
288,197,54869,6,0,B|288:204|288:204|296:200|296:200|296:211|296:211|297:212|304:210|304:210|299:219|299:219|305:218|305:218|303:224|303:224|307:224|307:224|306:233|306:233|314:234|314:234|311:240|311:240|312:246|312:246|315:247|315:247|313:255|313:255|319:256|319:256|317:271|317:271|326:278|326:278|321:281|321:281|324:289|324:289|321:291|321:291|330:304|330:304|325:306|325:306|328:318|328:318|323:314|323:314|323:324|323:324|322:324|322:324|327:333|327:333,1,210.000008010865
171,50,55212,1,0,0:0:0:0:
135,332,55383,1,0,0:0:0:0:
55,50,55554,1,0,0:0:0:0:
240,334,55726,5,0,0:0:0:0:
331,39,55897,1,0,0:0:0:0:
46,87,56069,1,0,0:0:0:0:
295,231,56240,6,0,B|298:238|298:238|310:233|310:233|308:241|308:241|314:244|314:244|315:247|315:247|327:241|327:241|323:251|323:251|336:248|336:248|333:258|333:258|341:255|341:255|342:258|342:258|349:255|349:255,1,105.000004005432
470,95,56412,1,0,0:0:0:0:
191,38,56583,1,0,0:0:0:0:
429,243,56754,1,0,0:0:0:0:
149,71,56926,1,0,0:0:0:0:
266,339,57097,5,0,0:0:0:0:
42,197,57269,1,0,0:0:0:0:
301,87,57440,1,0,0:0:0:0:
254,280,57612,6,0,B|248:284|248:284|248:289|248:289|239:292|239:292|245:300|245:300|246:300|237:299|237:299|236:309|236:309|232:309|232:309|233:317|233:317|228:314|228:314|227:323|227:323|219:315|219:315|214:324|214:324|209:317|209:317|210:326|210:326|205:327|205:327|200:333|200:333|197:325|197:325|192:333|192:333|190:327|190:327|184:333|184:333|182:332|182:332|180:338|180:338|173:329|173:329|173:336|173:336|166:331|166:331|165:331|165:337|165:337|159:335|159:335,1,210.000008010865
28,111,57954,1,0,0:0:0:0:
375,49,58126,1,0,0:0:0:0:
76,175,58297,1,0,0:0:0:0:
419,165,58469,5,0,0:0:0:0:
68,243,58640,1,0,0:0:0:0:
413,276,58812,1,0,0:0:0:0:
109,311,58983,5,0,0:0:0:0:
119,63,59154,1,0,0:0:0:0:
195,308,59326,1,0,0:0:0:0:
217,62,59497,1,0,0:0:0:0:
288,317,59669,5,0,0:0:0:0:
288,77,59840,1,0,0:0:0:0:
383,318,60012,2,0,B|396:307|396:307|406:300|406:300|395:296|395:296|406:288|406:288|401:274|401:274|416:268|416:268|415:253|415:253|404:250|404:250|411:237|411:237|425:230|425:230|423:227|423:227|413:222|413:222|419:204|419:204|428:207|428:207|432:189|432:189|426:186|426:186,1,210.000008010865
259,47,60354,6,0,B|250:53|250:53|250:58|250:58|245:58|245:58|247:67|247:67|241:66|241:66|241:76|241:76|237:69|237:69|234:79|234:79|228:77|228:77|226:84|226:84|232:92|232:92|227:90|227:90|226:102|226:102|218:102|218:102|219:109|219:109|214:107|214:107|213:112|213:112|209:111|209:111|211:120|211:120|203:115|203:115|201:123|201:123|197:120|197:120|195:131|195:131|187:129|187:129|185:136|185:136|178:130|178:130|178:139|178:139,1,210.000008010865
30,294,60697,1,0,0:0:0:0:
322,349,60869,1,0,0:0:0:0:
263,63,61040,1,0,0:0:0:0:
37,238,61212,5,0,0:0:0:0:
342,267,61383,1,0,0:0:0:0:
185,51,61554,1,0,0:0:0:0:
67,249,61726,6,0,B|64:255|64:255|68:261|68:261|62:262|62:262|63:272|63:272|57:269|57:269|62:279|62:279|57:279|57:279|58:290|58:290|53:288|53:288|56:299|56:299|53:299|53:299|53:312|53:312|48:306|48:306,1,105.000004005432
239,77,61897,1,0,0:0:0:0:
177,323,62069,1,0,0:0:0:0:
337,87,62240,1,0,0:0:0:0:
289,329,62412,1,0,0:0:0:0:
436,99,62583,5,0,0:0:0:0:
179,52,62754,1,0,0:0:0:0:
257,314,62926,1,0,0:0:0:0:
421,155,63097,6,0,B|425:146|425:146|425:145|425:145|412:140|412:140|426:131|426:131|420:142|420:142|418:132|418:132|421:113|421:113|430:117|430:117|427:108|427:108|416:101|416:101|419:83|419:83|408:91|408:91|411:80|411:80|401:76|401:76|401:65|401:65|394:69|394:69|390:56|390:56|395:53,1,210.000008010865
127,33,63440,1,0,0:0:0:0:
394,102,63612,1,0,0:0:0:0:
117,120,63783,1,0,0:0:0:0:
387,179,63954,6,0,L|265:190,1,105.000004005432
78,211,64126,1,0,0:0:0:0:
376,256,64297,1,0,0:0:0:0:
117,291,64469,5,0,0:0:0:0:
154,58,64640,2,0,L|167:170,1,105.000004005432
194,323,64812,1,0,0:0:0:0:
227,53,64983,1,0,0:0:0:0:
259,308,65154,5,0,0:0:0:0:
370,52,65326,1,0,0:0:0:0:
182,311,65497,5,0,0:0:0:0:
456,61,65669,1,0,0:0:0:0:
116,324,65840,6,0,B|106:320|106:320|105:321|105:321|100:321|100:321|99:326|99:326|92:315|92:315|85:324|85:324|79:319|79:319|76:319|76:319|76:310|76:310|68:316|68:316|69:311|69:309|63:314|63:314|64:308|64:308|54:311|55:311|56:307|56:307|52:304|52:304|52:297|52:297|48:297|48:297|49:289|49:289|42:292|42:292|43:284|43:284|39:284|39:284|43:272|43:272|33:277|33:277|36:266|36:266|39:266|39:266|37:260|37:260|31:263|31:263|33:254|33:254,1,210.000008010865
124,42,66183,1,0,0:0:0:0:
178,325,66354,2,0,P|189:272|205:220,1,105.000004005432
247,42,66526,1,0,0:0:0:0:
272,339,66697,6,0,P|287:281|304:225,1,105.000004005432
351,33,66869,2,0,P|367:89|378:142,1,105.000004005432
407,336,67040,1,0,0:0:0:0:
255,284,67212,6,0,B|247:288|247:288|239:285|239:285|233:289|233:289|231:285|231:285|228:288|228:288|225:280|225:280|220:286|220:286|214:280|214:280|211:288|211:288|212:276|212:276|205:281|205:281|207:272|207:272|198:277|198:277,1,105.000004005432
36,183,67383,1,0,0:0:0:0:
407,141,67554,2,0,P|350:133|297:125,1,105.000004005432
70,91,67726,1,0,0:0:0:0:
403,235,67897,2,0,P|339:225|282:211,1,105.000004005432
80,176,68069,5,0,0:0:0:0:
312,299,68240,1,0,0:0:0:0:
47,332,68412,1,0,0:0:0:0:
265,182,68583,6,0,B|271:177|271:177|279:166|279:166|274:166|274:166|284:152|284:152|277:151|277:151|277:152|291:139|291:139|282:140|282:140|286:134|286:134|281:134|281:134|292:121|292:121|284:122|284:122|283:122,1,105.000004005432
83,37,68754,1,0,0:0:0:0:
52,266,68926,1,0,0:0:0:0:
333,186,69097,1,0,0:0:0:0:
163,24,69269,1,0,0:0:0:0:
108,296,69440,5,0,0:0:0:0:
376,254,69612,1,0,0:0:0:0:
205,30,69783,1,0,0:0:0:0:
166,338,69954,6,0,P|166:291|164:221,1,105.000004005432
88,31,70126,2,0,P|93:106|94:151,1,105.000004005432
60,335,70297,1,0,0:0:0:0:
118,53,70469,5,0,0:0:0:0:
407,90,70640,1,0,0:0:0:0:
144,137,70812,5,0,0:0:0:0:
363,177,70983,1,0,0:0:0:0:
188,209,71154,1,0,0:0:0:0:
369,252,71326,6,0,B|386:264|386:264|384:254|384:254|395:258|395:258|389:269|389:269|397:272|397:272|391:276|391:276|402:279|402:279|399:285|399:285|406:288|406:288|401:291|401:291|420:291|420:291|420:300|420:300|407:300|407:300|413:309|413:309|419:309|419:309|429:309|429:309|426:314|426:314|431:314|431:314|431:321|431:321|437:321|438:321|435:328|435:328|442:327|442:327|451:329|451:329,1,210.000008010865
345,45,71669,1,0,0:0:0:0:
247,312,71840,5,0,0:0:0:0:
162,48,72012,1,0,0:0:0:0:
321,313,72183,1,0,0:0:0:0:
228,57,72354,5,0,0:0:0:0:
180,318,72526,1,0,0:0:0:0:
165,54,72697,5,0,0:0:0:0:
294,331,72869,1,0,0:0:0:0:
322,52,73040,1,0,0:0:0:0:
189,343,73212,5,0,0:0:0:0:
250,54,73383,1,0,0:0:0:0:
338,338,73554,1,0,0:0:0:0:
176,51,73726,5,0,0:0:0:0:
156,317,73897,1,0,0:0:0:0:
316,108,74069,5,0,0:0:0:0:
101,163,74240,1,0,0:0:0:0:
355,188,74412,1,0,0:0:0:0:
117,253,74583,5,0,0:0:0:0:
333,297,74754,1,0,0:0:0:0:
316,92,74926,1,0,0:0:0:0:
254,260,75097,5,0,0:0:0:0:
200,141,75269,1,0,0:0:0:0:
169,241,75440,6,0,P|129:303|91:330,2,105.000004005432
183,87,75954,1,0,0:0:0:0:
326,288,76126,6,0,P|316:254|290:214,1,52.5000020027161
265,61,76297,2,0,P|282:73|307:113,1,52.5000020027161
396,288,76469,1,0,0:0:0:0:
387,62,76640,1,0,0:0:0:0:
279,263,76812,6,0,B|282:273|282:273|281:275|274:280|274:280|280:282|280:282|272:290|272:290|278:297|278:297|274:301|274:301|275:309|275:309|270:309|270:309|273:322|273:322|265:318|265:318|268:330|268:330|263:326,1,105.000004005432
233,85,76983,1,0,0:0:0:0:
194,296,77154,1,0,0:0:0:0:
312,103,77326,1,0,0:0:0:0:
163,310,77497,1,0,0:0:0:0:
372,77,77669,5,0,0:0:0:0:
103,327,77840,1,0,0:0:0:0:
456,59,78012,1,0,0:0:0:0:
114,256,78183,6,0,B|106:260|106:260|108:268|108:268|98:264|98:264|97:278|97:278|86:272|86:272|88:283|88:283|78:275|78:275|76:288|76:288|69:279|69:279|67:289|67:289,1,105.000004005432
88,65,78354,1,0,0:0:0:0:
332,312,78526,1,0,0:0:0:0:
355,71,78697,1,0,0:0:0:0:
103,313,78869,1,0,0:0:0:0:
143,78,79040,5,0,0:0:0:0:
349,309,79212,1,0,0:0:0:0:
405,65,79383,1,0,0:0:0:0:
193,74,79554,6,0,B|187:88|187:88|183:75|183:75|179:84|179:84|173:81|173:81|165:89|165:89|164:80|164:80|156:82|156:82|152:74|152:74|134:87|134:87|132:75|132:75|119:81|119:81|119:75|119:75|113:78|113:78|111:75|111:75|108:74|108:74|104:66|104:66|98:76|98:76|97:65|97:65|87:71|87:71|87:65|87:65|78:69|78:69,1,210.000008010865
326,268,79897,1,0,0:0:0:0:
161,75,80069,1,0,0:0:0:0:
378,296,80240,1,0,0:0:0:0:
107,72,80412,5,0,0:0:0:0:
426,323,80583,1,0,0:0:0:0:
51,64,80754,1,0,0:0:0:0:
105,297,80926,5,0,0:0:0:0:
378,74,81097,1,0,0:0:0:0:
386,291,81269,1,0,0:0:0:0:
85,59,81440,1,0,0:0:0:0:
75,324,81612,1,0,0:0:0:0:
459,48,81783,5,0,0:0:0:0:
456,334,81954,1,0,0:0:0:0:
48,47,82126,1,0,0:0:0:0:
351,234,82297,6,0,B|357:235|357:235|356:237|357:241|357:241|367:236|367:236|366:240|363:243|363:243|369:245|369:245|378:239|378:239|379:243|379:243|375:247|375:247|379:252|379:252|390:246|390:246|388:251|388:251|396:260|396:260|402:252|402:252|408:256|408:256|405:264|405:264|411:264|411:264|417:269|417:269|414:270|414:270|413:275|413:275|416:281|416:281|413:283|413:283|422:285|422:285|418:290|418:290|425:296|425:296|422:298|422:298|429:298|429:298|428:303|428:303|430:304|433:304|433:304|431:313|431:313|435:313,1,210.000008010865
213,58,82640,1,0,0:0:0:0:
317,304,82812,1,0,0:0:0:0:
144,75,82983,1,0,0:0:0:0:
223,303,83154,5,0,0:0:0:0:
86,121,83326,1,0,0:0:0:0:
155,289,83497,1,0,0:0:0:0:
251,93,83669,5,0,0:0:0:0:
254,302,83840,1,0,0:0:0:0:
172,87,84012,1,0,0:0:0:0:
407,99,84183,1,0,0:0:0:0:
278,302,84354,1,0,0:0:0:0:
212,115,84526,5,0,0:0:0:0:
414,152,84697,1,0,0:0:0:0:
270,315,84869,1,0,0:0:0:0:
183,138,85040,6,0,B|176:135|176:135|177:134|177:134|173:131|173:131|175:126|175:126|171:126|171:126|172:123|172:123|165:123|165:123|165:120|165:120|163:119|163:119|162:116|162:116|154:115|154:115|154:106|154:106|146:107|146:107|148:104|148:104|143:104|142:104|138:98|138:98|135:101|135:101|136:96|136:96|131:96|131:96|128:93|128:92|122:94|122:94|107:76|107:76|114:87|114:87|109:86|109:86|106:91|106:91|105:87|105:86|101:78|101:78|98:80|98:80|95:77|95:77|93:80|93:80|89:72|89:72|86:75|86:75|83:72|83:72|81:76|81:76|74:67,1,210.000008010865
354,70,85383,1,0,0:0:0:0:
154,144,85554,1,0,0:0:0:0:
357,153,85726,1,0,0:0:0:0:
155,210,85897,5,0,0:0:0:0:
361,223,86069,1,0,0:0:0:0:
155,280,86240,1,0,0:0:0:0:
354,305,86412,5,0,0:0:0:0:
339,75,86583,1,0,0:0:0:0:
161,290,86754,1,0,0:0:0:0:
131,72,86926,1,0,0:0:0:0:
344,296,87097,5,0,0:0:0:0:
108,72,87269,1,0,0:0:0:0:
426,326,87440,5,0,0:0:0:0:
53,54,87612,1,0,0:0:0:0:
453,330,87783,5,0,0:0:0:0:
256,192,120697,12,0,134412,0:0:0:0:
