osu file format v14

[General]
AudioFilename: audio.mp3
AudioLeadIn: 0
PreviewTime: 131908
Countdown: 0
SampleSet: Soft
StackLeniency: 0.3
Mode: 0
LetterboxInBreaks: 0
WidescreenStoryboard: 1

[Editor]
Bookmarks: 12366,23358,34122,45343,56335,67328,72366,78320,89255,100305,111240,122232,133282,144217,155267,166374,177251,185553
DistanceSpacing: 0.8
BeatDivisor: 6
GridSize: 16
TimelineZoom: 2.799999

[Metadata]
Title:waiting for you, in snowing city.
TitleUnicode:雪の降る街で、あなたを待っている。
Artist:Snail's House
ArtistUnicode:Snail's House
Creator:Azuelle
Version:collab hard.
Source:
Tags:ujico* Snö sno chill out electronic downtempo instrumental jazz Japan chillout FORMless000 Calvaria KKipalt Quantum Rosta VoiceCore BinFhone OchiKouri [Paw]OchiKouri yuki no furu machi de, anata o matteiru.
BeatmapID:2796985
BeatmapSetID:1295033

[Difficulty]
HPDrainRate:4
CircleSize:3.6
OverallDifficulty:6
ApproachRate:7.5
SliderMultiplier:2
SliderTickRate:1

[Events]
//Background and Video events
0,0,"79731173_p0.jpg",0,0
//Break Periods
2,67528,77495
2,100505,110472
2,122290,131083
2,166459,176426
//Storyboard Layer 0 (Background)
//Storyboard Layer 1 (Fail)
//Storyboard Layer 2 (Pass)
//Storyboard Layer 3 (Foreground)
//Storyboard Layer 4 (Overlay)
//Storyboard Sound Samples

[TimingPoints]
1374,687.022900763356,2,2,1,20,1,0
1374,-66.6666666666667,3,2,1,20,0,0
13740,-66.6666666666667,3,2,1,15,0,0
15114,-66.6666666666667,3,2,1,20,0,0
16488,-66.6666666666667,3,2,1,15,0,0
17862,-66.6666666666667,3,2,1,25,0,0
19236,-66.6666666666667,3,2,1,20,0,0
20610,-66.6666666666667,3,2,1,15,0,0
21984,-66.6666666666667,3,2,1,40,0,0
22328,-83.3333333333333,3,2,1,40,0,0
22671,-83.3333333333333,3,2,22,55,0,0
22786,-83.3333333333333,3,2,22,50,0,0
23244,-83.3333333333333,3,2,22,45,0,0
23358,-66.6666666666667,3,2,22,50,0,0
24045,-66.6666666666667,3,2,22,55,0,0
24503,-66.6666666666667,3,2,22,45,0,0
24732,-66.6666666666667,3,2,22,50,0,0
25419,-66.6666666666667,3,2,22,55,0,0
25992,-66.6666666666667,3,2,22,50,0,0
26793,-66.6666666666667,3,2,22,55,0,0
27366,-66.6666666666667,3,2,22,50,0,0
28167,-66.6666666666667,3,2,22,55,0,0
28396,-66.6666666666667,3,2,22,45,0,0
28625,-66.6666666666667,3,2,22,50,0,0
29541,-66.6666666666667,3,2,22,55,0,0
30228,-66.6666666666667,3,2,22,50,0,0
30915,-66.6666666666667,3,2,22,55,0,0
31488,-66.6666666666667,3,2,22,50,0,0
32290,-66.6666666666667,3,2,22,55,0,0
32748,-66.6666666666667,3,2,22,45,0,0
32977,-66.6666666666667,3,2,22,50,0,0
33091,-66.6666666666667,3,2,22,55,0,0
33549,-66.6666666666667,3,2,22,45,0,0
33664,-66.6666666666667,3,2,22,55,0,0
33893,-66.6666666666667,3,2,22,50,0,0
34122,-66.6666666666667,3,2,22,45,0,0
34351,-66.6666666666667,3,2,22,50,0,0
35038,-66.6666666666667,3,2,22,55,0,0
35381,-66.6666666666667,3,2,22,45,0,0
35725,-66.6666666666667,3,2,22,50,0,0
35839,-66.6666666666667,3,2,22,45,0,0
36183,-66.6666666666667,3,2,22,50,0,0
36412,-66.6666666666667,3,2,22,55,0,0
36870,-66.6666666666667,3,2,22,45,0,0
37099,-66.6666666666667,3,2,22,50,0,0
37786,-66.6666666666667,3,2,22,55,0,0
38015,-66.6666666666667,3,2,22,45,0,0
38358,-66.6666666666667,3,2,22,50,0,0
38931,-66.6666666666667,3,2,22,55,0,0
39274,-66.6666666666667,3,2,22,45,0,0
39503,-66.6666666666667,3,2,22,50,0,0
39732,-66.6666666666667,3,2,22,55,0,0
39847,-66.6666666666667,3,2,22,50,0,0
40534,-66.6666666666667,3,2,22,55,0,0
41221,-66.6666666666667,3,2,22,50,0,0
41908,-66.6666666666667,3,2,22,55,0,0
42595,-66.6666666666667,3,2,22,50,0,0
43282,-66.6666666666667,3,2,22,55,0,0
43740,-66.6666666666667,3,2,22,45,0,0
43969,-66.6666666666667,3,2,22,50,0,0
44312,-66.6666666666667,3,2,22,55,0,0
44541,-66.6666666666667,3,2,22,50,0,0
44656,-66.6666666666667,3,2,22,60,0,0
44885,-66.6666666666667,3,2,22,55,0,0
45343,-55.5555555555555,3,2,22,60,0,0
46030,-55.5555555555555,3,2,22,65,0,0
46488,-55.5555555555555,3,2,22,55,0,0
46717,-55.5555555555555,3,2,22,60,0,0
47404,-55.5555555555555,3,2,22,65,0,0
47633,-55.5555555555555,3,2,22,60,0,0
47862,-55.5555555555555,3,2,22,55,0,0
48091,-55.5555555555555,3,2,22,60,0,0
48778,-55.5555555555555,3,2,22,65,0,0
49236,-55.5555555555555,3,2,22,55,0,0
49580,-55.5555555555555,3,2,22,60,0,0
49809,-55.5555555555555,3,2,22,55,0,0
50038,-55.5555555555555,3,2,22,60,0,0
50152,-55.5555555555555,3,2,22,65,0,0
50381,-55.5555555555555,3,2,22,60,0,0
50610,-55.5555555555555,3,2,22,55,0,0
50839,-55.5555555555555,3,2,22,60,0,0
51183,-55.5555555555555,3,2,22,55,0,0
51526,-55.5555555555555,3,2,22,60,0,0
51870,-55.5555555555555,3,2,22,65,0,0
52213,-55.5555555555555,3,2,22,60,0,0
52442,-55.5555555555555,3,2,22,55,0,0
52671,-55.5555555555555,3,2,22,60,0,0
52900,-55.5555555555555,3,2,22,65,0,0
53129,-55.5555555555555,3,2,22,60,0,0
53358,-55.5555555555555,3,2,22,55,0,0
53587,-55.5555555555555,3,2,22,60,0,0
54274,-55.5555555555555,3,2,22,65,0,0
54503,-55.5555555555555,3,2,22,55,0,0
54961,-55.5555555555555,3,2,22,60,0,0
55648,-55.5555555555555,3,2,22,65,0,0
55763,-55.5555555555555,3,2,22,60,0,0
55992,-55.5555555555555,3,2,22,50,0,0
56221,-55.5555555555555,3,2,22,45,0,0
56335,-66.6666666666667,3,2,55,50,0,0
57022,-66.6666666666667,3,2,22,55,0,0
57480,-66.6666666666667,3,2,22,45,0,0
57709,-66.6666666666667,3,2,22,50,0,0
58396,-66.6666666666667,3,2,22,55,0,0
58969,-66.6666666666667,3,2,22,50,0,0
59770,-66.6666666666667,3,2,22,55,0,0
60343,-66.6666666666667,3,2,22,50,0,0
61144,-66.6666666666667,3,2,22,55,0,0
61374,-66.6666666666667,3,2,22,45,0,0
61603,-66.6666666666667,3,2,22,50,0,0
62519,-66.6666666666667,3,2,22,55,0,0
63206,-66.6666666666667,3,2,22,50,0,0
63893,-66.6666666666667,3,2,22,55,0,0
64465,-66.6666666666667,3,2,22,50,0,0
65267,-66.6666666666667,3,2,22,55,0,0
65725,-66.6666666666667,3,2,22,45,0,0
65954,-66.6666666666667,3,2,22,50,0,0
66641,-66.6666666666667,3,2,22,55,0,0
66755,-66.6666666666667,3,2,22,50,0,0
67213,-66.6666666666667,3,2,22,45,0,0
67328,-66.6666666666667,3,2,55,50,0,0
72595,-66.6666666666667,3,2,55,25,0,0
76946,-66.6666666666667,3,2,55,45,0,0
78320,-66.6666666666667,3,2,22,50,0,0
79007,-66.6666666666667,3,2,22,55,0,0
79465,-66.6666666666667,3,2,22,45,0,0
79694,-66.6666666666667,3,2,22,50,0,0
80381,-66.6666666666667,3,2,22,55,0,0
80954,-66.6666666666667,3,2,22,50,0,0
81755,-66.6666666666667,3,2,22,55,0,0
82328,-66.6666666666667,3,2,22,50,0,0
83129,-66.6666666666667,3,2,22,55,0,0
83358,-66.6666666666667,3,2,22,45,0,0
83587,-66.6666666666667,3,2,22,50,0,0
84503,-66.6666666666667,3,2,22,55,0,0
85190,-66.6666666666667,3,2,22,50,0,0
85877,-66.6666666666667,3,2,22,55,0,0
86450,-66.6666666666667,3,2,22,50,0,0
87251,-66.6666666666667,3,2,22,55,0,0
87709,-66.6666666666667,3,2,22,45,0,0
87938,-66.6666666666667,3,2,22,50,0,0
88053,-66.6666666666667,3,2,22,55,0,0
88511,-66.6666666666667,3,2,22,45,0,0
88625,-66.6666666666667,3,2,22,55,0,0
88854,-66.6666666666667,3,2,22,50,0,0
89083,-66.6666666666667,3,2,22,45,0,0
89312,-60.6060606060606,3,2,22,50,0,0
89999,-60.6060606060606,3,2,22,55,0,0
90343,-60.6060606060606,3,2,22,45,0,0
90686,-60.6060606060606,3,2,22,50,0,0
90801,-60.6060606060606,3,2,22,45,0,0
91144,-60.6060606060606,3,2,22,50,0,0
91374,-60.6060606060606,3,2,22,55,0,0
91832,-60.6060606060606,3,2,22,45,0,0
92061,-60.6060606060606,3,2,22,50,0,0
92748,-60.6060606060606,3,2,22,55,0,0
92977,-60.6060606060606,3,2,22,45,0,0
93320,-60.6060606060606,3,2,22,50,0,0
93893,-60.6060606060606,3,2,22,55,0,0
94236,-60.6060606060606,3,2,22,45,0,0
94465,-60.6060606060606,3,2,22,50,0,0
94694,-60.6060606060606,3,2,22,55,0,0
94809,-60.6060606060606,3,2,22,50,0,0
95496,-60.6060606060606,3,2,22,55,0,0
96183,-60.6060606060606,3,2,22,50,0,0
96870,-60.6060606060606,3,2,22,55,0,0
97557,-60.6060606060606,3,2,22,50,0,0
98244,-60.6060606060606,3,2,22,55,0,0
98702,-60.6060606060606,3,2,22,45,0,0
98931,-60.6060606060606,3,2,22,50,0,0
99274,-60.6060606060606,3,2,22,55,0,0
99503,-60.6060606060606,3,2,22,50,0,0
99618,-60.6060606060606,3,2,22,60,0,0
99847,-60.6060606060606,3,2,22,55,0,0
100305,-60.6060606060606,3,2,55,40,0,0
100763,-60.6060606060606,3,2,1,25,0,0
105801,-60.6060606060606,3,2,56,30,0,0
106259,-60.6060606060606,3,2,1,25,0,0
107175,-60.6060606060606,3,2,56,30,0,0
107633,-60.6060606060606,3,2,1,25,0,0
108549,-60.6060606060606,3,2,56,30,0,0
109007,-60.6060606060606,3,2,1,25,0,0
109923,-60.6060606060606,3,2,56,30,0,0
110381,-60.6060606060606,3,2,1,25,0,0
111297,-83.3333333333333,3,2,56,35,0,0
111755,-83.3333333333333,3,2,1,30,0,0
112671,-83.3333333333333,3,2,56,35,0,0
113129,-83.3333333333333,3,2,1,30,0,0
114045,-83.3333333333333,3,2,56,35,0,0
114503,-83.3333333333333,3,2,1,30,0,0
115419,-83.3333333333333,3,2,56,35,0,0
115877,-83.3333333333333,3,2,1,30,0,0
116793,-83.3333333333333,3,2,56,35,0,0
117251,-83.3333333333333,3,2,1,30,0,0
118167,-83.3333333333333,3,2,56,35,0,0
118625,-83.3333333333333,3,2,1,30,0,0
119541,-83.3333333333333,3,2,56,35,0,0
119999,-83.3333333333333,3,2,1,30,0,0
120915,-83.3333333333333,3,2,56,35,0,0
121374,-83.3333333333333,3,2,1,30,0,0
122290,-83.3333333333333,3,2,56,25,0,0
122748,-83.3333333333333,3,2,1,25,0,0
131908,-83.3333333333333,3,2,22,40,0,0
132595,-83.3333333333333,3,2,22,55,0,0
132709,-83.3333333333333,3,2,22,40,0,0
133167,-83.3333333333333,3,2,22,45,0,0
133282,-55.5555555555555,3,2,22,50,0,0
133969,-55.5555555555555,3,2,22,55,0,0
134427,-55.5555555555555,3,2,22,45,0,0
134541,-55.5555555555555,3,2,22,55,0,0
134656,-55.5555555555555,3,2,22,50,0,0
135343,-55.5555555555555,3,2,22,55,0,0
135572,-55.5555555555555,3,2,22,45,0,0
135915,-55.5555555555555,3,2,22,55,0,0
136030,-55.5555555555555,3,2,22,50,0,0
136717,-55.5555555555555,3,2,22,55,0,0
136946,-55.5555555555555,3,2,22,45,0,0
137290,-55.5555555555555,3,2,22,50,0,0
138091,-55.5555555555555,3,2,22,55,0,0
138206,-55.5555555555555,3,2,22,45,0,0
138435,-55.5555555555555,3,2,22,50,0,0
138664,-55.5555555555555,3,2,22,55,0,0
138778,-55.5555555555555,3,2,22,50,0,0
139465,-55.5555555555555,3,2,22,55,0,0
139923,-55.5555555555555,3,2,22,45,0,0
140038,-55.5555555555555,3,2,22,55,0,0
140152,-55.5555555555555,3,2,22,50,0,0
140610,-55.5555555555555,3,2,22,55,0,0
140725,-55.5555555555555,3,2,22,45,0,0
140839,-55.5555555555555,3,2,22,50,0,0
141297,-55.5555555555555,3,2,22,55,0,0
141526,-55.5555555555555,3,2,22,50,0,0
141984,-55.5555555555555,3,2,22,55,0,0
142786,-55.5555555555555,3,2,22,45,0,0
143129,-55.5555555555555,3,2,22,50,0,0
143358,-55.5555555555555,3,2,22,55,0,0
143587,-55.5555555555555,3,2,22,60,0,0
143816,-55.5555555555555,3,2,22,50,0,0
143931,-55.5555555555555,3,2,22,60,0,0
144160,-55.5555555555555,3,2,22,50,0,0
144274,-55.5555555555555,3,2,22,55,0,0
144961,-55.5555555555555,3,2,22,60,0,0
145305,-55.5555555555555,3,2,22,50,0,0
145648,-55.5555555555555,3,2,22,55,0,0
146335,-55.5555555555555,3,2,22,60,0,0
146679,-55.5555555555555,3,2,22,50,0,0
147022,-55.5555555555555,3,2,22,55,0,0
147709,-55.5555555555555,3,2,22,60,0,0
148053,-55.5555555555555,3,2,22,50,0,0
148396,-55.5555555555555,3,2,22,55,0,0
148969,-55.5555555555555,3,2,22,60,0,0
149312,-55.5555555555555,3,2,22,45,0,0
149427,-55.5555555555555,3,2,22,50,0,0
149541,-55.5555555555555,3,2,22,55,0,0
149770,-55.5555555555555,3,2,22,50,0,0
150457,-55.5555555555555,3,2,22,55,0,0
150915,-55.5555555555555,3,2,22,45,0,0
151030,-55.5555555555555,3,2,22,55,0,0
151144,-55.5555555555555,3,2,22,50,0,0
151602,-55.5555555555555,3,2,22,55,0,0
151717,-55.5555555555555,3,2,22,45,0,0
151831,-55.5555555555555,3,2,22,50,0,0
152289,-55.5555555555555,3,2,22,55,0,0
152518,-55.5555555555555,3,2,22,50,0,0
152976,-55.5555555555555,3,2,22,55,0,0
153778,-55.5555555555555,3,2,22,45,0,0
154121,-55.5555555555555,3,2,22,50,0,0
154350,-55.5555555555555,3,2,22,55,0,0
154579,-55.5555555555555,3,2,22,60,0,0
154808,-55.5555555555555,3,2,22,50,0,0
154923,-55.5555555555555,3,2,22,60,0,0
155152,-55.5555555555555,3,2,22,50,0,0
155267,-66.6666666666667,3,2,55,40,0,0
155381,-66.6666666666667,3,2,1,30,0,0
156641,-66.6666666666667,3,2,1,25,0,0
158015,-66.6666666666667,3,2,1,30,0,0
159389,-66.6666666666667,3,2,1,25,0,0
160763,-66.6666666666667,3,2,1,30,0,0
162137,-66.6666666666667,3,2,1,25,0,0
163511,-66.6666666666667,3,2,1,30,0,0
164885,-66.6666666666667,3,2,1,25,0,0
166259,-66.6666666666667,3,2,56,30,0,0
166717,-66.6666666666667,3,2,1,25,0,0
167633,-66.6666666666667,3,2,56,30,0,0
168091,-66.6666666666667,3,2,1,25,0,0
169007,-66.6666666666667,3,2,56,30,0,0
169465,-66.6666666666667,3,2,1,25,0,0
170381,-66.6666666666667,3,2,56,30,0,0
170839,-66.6666666666667,3,2,1,25,0,0
171755,-66.6666666666667,3,2,56,30,0,0
172213,-66.6666666666667,3,2,1,25,0,0
173129,-66.6666666666667,3,2,56,30,0,0
173587,-66.6666666666667,3,2,1,25,0,0
174503,-66.6666666666667,3,2,56,30,0,0
174961,-66.6666666666667,3,2,1,25,0,0
175877,-66.6666666666667,3,2,56,30,0,0
176335,-66.6666666666667,3,2,1,25,0,0
177251,-66.6666666666667,3,2,22,50,0,0
177938,-66.6666666666667,3,2,22,55,0,0
178282,-66.6666666666667,3,2,22,45,0,0
178511,-66.6666666666667,3,2,22,50,0,0
179312,-66.6666666666667,3,2,22,55,0,0
179541,-66.6666666666667,3,2,22,45,0,0
179770,-66.6666666666667,3,2,22,50,0,0
180686,-66.6666666666667,3,2,22,55,0,0
181030,-66.6666666666667,3,2,22,45,0,0
181259,-66.6666666666667,3,2,22,50,0,0
182060,-66.6666666666667,3,2,22,55,0,0
182289,-66.6666666666667,3,2,22,45,0,0
182518,-66.6666666666667,3,2,22,50,0,0
183435,-66.6666666666667,3,2,22,55,0,0
183664,-66.6666666666667,3,2,22,45,0,0
184007,-66.6666666666667,3,2,22,50,0,0
184809,-66.6666666666667,3,2,22,55,0,0
184924,-66.6666666666667,3,2,22,45,0,0
185153,-66.6666666666667,3,2,22,50,0,0
185382,-66.6666666666667,3,2,22,55,0,0
185496,-66.6666666666667,3,2,55,40,0,0
185610,-66.6666666666667,3,2,1,25,0,0
186870,-66.6666666666667,3,2,55,25,0,0
187099,-66.6666666666667,3,2,1,25,0,0

[Colours]
Combo1 : 217,180,111
Combo2 : 141,200,224
Combo3 : 132,165,219
Combo4 : 182,149,141

[HitObjects]
22,227,12366,5,2,2:0:0:0:
88,296,13740,5,2,2:0:0:0:
52,373,15114,5,2,2:0:0:0:
88,296,16488,5,2,2:0:0:0:
97,37,17862,5,2,2:0:0:0:
22,227,19236,5,2,2:0:0:0:
97,37,20610,5,2,2:0:0:0:
22,227,21984,5,6,1:3:0:0:
88,296,22328,2,0,P|147:291|176:259,1,80,4|4,2:3|2:3,0:0:0:0:
185,258,22671,1,8,1:2:0:0:
185,258,22786,2,0,L|283:274,1,80,8|4,1:3|3:0,0:0:0:0:
307,317,23244,1,4,3:0:0:0:
307,317,23358,6,0,P|389:332|427:251,1,150,4|4,1:0|2:3,0:0:0:0:
407,167,24045,1,10,1:3:0:0:
344,116,24274,2,0,P|334:75|374:22,1,100,4|4,3:0|3:0,0:0:0:0:
442,19,24732,2,0,P|500:79|473:145,1,150,4|4,3:0|2:3,0:0:0:0:
377,192,25419,2,0,B|304:203|304:203|271:177|271:177|156:194,1,200,10|0,1:3|0:0,0:0:0:0:
164,222,25992,1,8,1:2:0:0:
164,222,26106,6,0,P|96:236|32:173,2,150,4|4|10,3:0|2:3|1:3,0:0:0:0:
241,130,27137,2,0,L|235:21,1,100,0|4,0:0|2:3,0:0:0:0:
159,4,27595,1,4,2:3:0:0:
99,57,27824,2,0,P|137:83|199:72,1,100,4|0,2:3|0:0,0:0:0:0:
224,60,28167,2,0,B|275:54|275:54|319:85,2,100,10|4|2,1:3|3:0|1:3,0:0:0:0:
168,117,28854,6,0,L|182:270,1,150,6|4,3:0|2:3,0:0:0:0:
98,352,29541,2,0,P|43:356|14:313,1,100,10|0,1:3|0:0,0:0:0:0:
23,285,29885,2,0,L|43:169,1,100,10|0,1:2|0:0,0:0:0:0:
74,165,30228,2,0,P|85:100|17:67,2,150,4|4|10,3:0|2:3|1:3,0:0:0:0:
17,221,31144,2,0,P|97:204|140:211,1,100
146,229,31488,1,4,2:3:0:0:
146,229,31603,2,0,B|173:248|173:248|314:224,2,150,4|4|10,3:0|2:3|1:3,0:0:0:0:
68,101,32748,5,4,2:3:0:0:
68,101,32862,1,4,2:3:0:0:
68,101,32977,2,0,L|132:93,1,50,4|10,3:0|1:2,0:0:0:0:
182,48,33320,1,10,1:2:0:0:
231,117,33549,1,4,3:0:0:0:
231,117,33664,2,0,P|300:168|404:129,1,200,8|6,1:2|3:0,0:0:0:0:
453,73,34351,6,0,P|429:121|502:200,1,150,4|4,1:0|2:3,0:0:0:0:
374,258,35038,1,10,1:3:0:0:
480,313,35381,1,4,3:0:0:0:
476,195,35725,1,4,3:0:0:0:
476,195,35839,2,0,P|400:214|305:216,1,150,10|4,1:2|3:0,0:0:0:0:
304,193,36297,1,4,2:3:0:0:
304,193,36412,2,0,L|317:318,1,100,10|4,1:3|3:0,0:0:0:0:
272,362,36870,5,6,3:0:0:0:
272,362,36984,1,4,2:3:0:0:
272,362,37099,2,0,P|208:326|131:347,1,150,4|4,3:0|2:3,0:0:0:0:
20,373,37786,1,10,1:3:0:0:
56,301,38015,2,0,L|46:197,1,100,4|0,3:0|0:0,0:0:0:0:
94,137,38473,2,0,P|152:120|211:179,2,150,4|4|0,3:0|2:3|3:2,0:0:0:0:
75,172,39274,2,0,L|81:237,4,50,8|8|10|8|10,3:2|3:2|1:2|1:2|1:2,0:0:0:0:
50,140,39847,5,4,1:0:0:0:
50,140,39961,2,0,B|28:94|28:94|70:48,1,100,4|4,2:3|2:3,0:0:0:0:
134,22,40419,1,4,2:3:0:0:
134,22,40534,2,0,L|239:14,1,100,10|8,1:3|1:2,0:0:0:0:
255,47,40877,2,0,L|374:59,1,100,10|10,1:2|1:2,0:0:0:0:
372,92,41221,6,0,P|440:111|454:181,1,150.000005722046,4|4,1:0|2:3,0:0:0:0:
494,294,41908,1,10,1:2:0:0:
494,294,42022,2,0,L|430:281,1,50.0000019073487,8|0,3:2|0:0,0:0:0:0:
419,253,42251,1,8,1:2:0:0:
343,262,42480,1,8,1:2:0:0:
343,262,42595,6,0,P|290:224|188:230,1,150,4|4,1:0|2:3,0:0:0:0:
181,300,43167,1,4,2:3:0:0:
181,300,43282,2,0,P|234:338|336:332,1,150,10|0,1:3|0:0,0:0:0:0:
435,353,43969,6,0,L|494:365,2,50.0000019073487,14|2|4,1:2|3:2|2:3,0:0:0:0:
428,313,44312,2,0,L|487:325,2,50.0000019073487,10|8|4,1:2|1:2|2:3,0:0:0:0:
419,273,44656,6,0,B|398:283|398:283|351:274,3,50.0000019073487,10|8|4|8,1:2|1:2|3:0|1:0,0:0:0:0:
342,268,45114,1,8,3:0:0:0:
342,268,45228,1,10,1:2:0:0:
342,268,45343,6,0,P|290:323|218:204,1,239.999992675781,4|0,1:0|3:2,0:0:0:0:
290,184,46030,2,0,P|314:121|183:67,1,239.999992675781,10|4,1:3|3:0,0:0:0:0:
164,106,46603,1,8,1:2:0:0:
164,106,46717,2,0,B|240:129|240:129|407:70,1,239.999992675781,0|0,3:2|3:2,0:0:0:0:
483,42,47404,1,10,1:3:0:0:
483,42,47633,6,0,L|474:108,3,59.9999981689454,10|8|10|4,3:0|3:0|1:3|3:0,0:0:0:0:
443,137,48091,6,0,B|393:177|417:263|417:263|403:192|313:198,1,239.999992675781,4|0,3:0|3:2,0:0:0:0:
262,245,48778,2,0,P|226:300|147:278,1,119.999996337891,10|10,1:3|1:2,0:0:0:0:
144,265,49122,2,0,L|152:198,2,59.9999981689454,8|4|10,1:2|3:0|1:2,0:0:0:0:
116,233,49465,1,0,0:0:0:0:
116,233,49580,2,0,P|39:213|61:104,1,179.999994506836,8|0,1:2|3:2,0:0:0:0:
126,87,50152,1,10,1:3:0:0:
126,87,50381,6,0,L|115:174,3,59.9999981689454,10|8|6|4,3:0|3:0|3:0|3:0,0:0:0:0:
105,192,50839,6,0,B|147:171|189:194|189:194|253:233|312:199,3,179.999994506836,4|8|8|8,3:0|1:2|1:2|1:2,0:0:0:0:
385,117,52213,2,0,P|361:165|395:230,1,119.999996337891,4|8,3:0|1:2,0:0:0:0:
421,256,52557,1,4,2:3:0:0:
421,256,52671,2,0,L|496:248,1,59.9999981689454,8|4,1:2|2:3,0:0:0:0:
510,287,52900,1,8,1:2:0:0:
510,287,53129,6,0,P|471:310|464:356,3,59.9999981689454,10|8|10|4,3:0|3:0|1:3|3:0,0:0:0:0:
474,369,53587,6,0,P|338:340|233:332,1,239.999992675781,4|0,3:0|0:0,0:0:0:0:
148,367,54274,1,10,1:3:0:0:
59,330,54503,1,0,3:2:0:0:
20,241,54732,1,4,2:3:0:0:
55,151,54961,6,0,L|48:81,2,59.9999981689454,4|0|0,1:3|3:0|3:0,0:0:0:0:
100,166,55305,6,0,L|93:96,2,59.9999981689454,4|0|4,3:0|3:0|2:3,0:0:0:0:
150,180,55648,5,8,1:2:0:0:
150,180,55763,1,8,1:3:0:0:
216,111,55992,2,0,P|242:155|230:235,1,119.999996337891,4|4,3:0|3:0,0:0:0:0:
268,246,56335,5,4,1:0:0:0:
247,368,56679,5,4,2:3:0:0:
154,291,57022,1,10,1:3:0:0:
192,220,57251,2,0,B|204:213|204:213|308:236,1,100,4|4,3:0|3:0,0:0:0:0:
340,291,57709,2,0,P|430:296|472:228,1,150,4|4,3:0|2:3,0:0:0:0:
438,138,58396,2,0,B|419:86|419:86|382:169|281:130,1,200,10|0,1:3|0:0,0:0:0:0:
266,113,58969,1,8,1:2:0:0:
266,113,59083,6,0,B|285:12|285:12|283:86,2,150,4|4|10,3:0|2:3|1:3,0:0:0:0:
224,225,60114,2,0,L|115:207,1,100,0|4,0:0|2:3,0:0:0:0:
62,258,60572,1,4,2:3:0:0:
16,192,60801,2,0,P|12:135|42:96,1,100,4|0,2:3|0:0,0:0:0:0:
67,77,61144,2,0,L|176:95,1,100,10|4,1:3|3:0,0:0:0:0:
311,27,61832,6,0,P|334:87|422:98,1,150,6|4,3:0|2:3,0:0:0:0:
496,187,62519,2,0,P|508:260|490:297,1,100,10|0,1:3|0:0,0:0:0:0:
477,315,62862,2,0,B|425:306|425:306|385:342,1,100,10|0,1:2|0:0,0:0:0:0:
359,364,63206,2,0,L|369:208,2,150,4|4|10,3:0|2:3|1:3,0:0:0:0:
284,335,64122,2,0,P|277:275|303:228,1,100
322,213,64465,1,4,2:3:0:0:
322,213,64580,2,0,B|296:237|296:237|154:210,1,150,4|4,3:0|2:3,0:0:0:0:
65,191,65267,1,10,1:3:0:0:
65,191,65725,5,4,2:3:0:0:
65,191,65839,1,4,2:3:0:0:
65,191,65954,2,0,P|89:257|41:321,1,150,6|4,3:0|3:0,0:0:0:0:
141,243,66641,1,8,1:2:0:0:
141,243,66755,2,0,P|197:215|245:245,2,100,8|4|4,1:3|3:0|3:0,0:0:0:0:
140,283,67328,1,6,2:0:0:0:
495,34,78320,6,0,P|454:74|360:51,1,150,4|4,1:0|2:3,0:0:0:0:
260,7,79007,1,10,1:3:0:0:
189,45,79236,2,0,P|168:100|187:148,1,100,4|4,3:0|3:0,0:0:0:0:
233,195,79694,2,0,P|174:153|68:162,1,150,4|4,3:0|2:3,0:0:0:0:
23,243,80381,2,0,B|94:314|94:314|140:222,1,200,10|0,1:3|0:0,0:0:0:0:
172,202,80954,1,8,1:2:0:0:
172,202,81068,6,0,P|109:136|122:69,1,150,4|4,3:0|2:3,0:0:0:0:
216,19,81755,2,0,L|315:32,2,100,10|0|0,1:3|0:0|0:0,0:0:0:0:
191,50,82328,1,4,2:3:0:0:
114,72,82557,1,4,2:3:0:0:
45,30,82786,2,0,P|74:86|57:123,1,100,4|0,2:3|0:0,0:0:0:0:
30,140,83129,1,10,1:3:0:0:
60,214,83358,2,0,L|50:277,2,50,4|0|2,3:0|3:0|1:3,0:0:0:0:
130,176,83816,6,0,B|179:153|213:214|281:189,1,150,6|4,3:0|2:3,0:0:0:0:
374,123,84503,2,0,P|306:79|247:112,1,150,10|10,1:3|1:2,0:0:0:0:
257,146,84961,1,4,2:3:0:0:
308,207,85190,2,0,B|317:238|317:238|295:356,2,150,4|4|10,3:0|2:3|1:3,0:0:0:0:
229,223,86106,2,0,P|183:256|136:246,1,100
118,224,86450,1,4,2:3:0:0:
118,224,86564,6,0,L|279:243,2,150,4|4|10,3:0|2:3|1:3,0:0:0:0:
31,360,87709,5,4,2:3:0:0:
31,360,87824,1,4,2:3:0:0:
31,360,87938,2,0,L|106:349,1,50,4|10,3:0|1:2,0:0:0:0:
141,301,88282,1,10,1:2:0:0:
213,346,88511,1,4,3:0:0:0:
213,346,88625,2,0,P|277:299|417:331,1,200,8|6,1:2|3:0,0:0:0:0:
465,359,89312,6,0,P|412:293|428:200,1,165.000005035401,4|4,1:0|2:3,0:0:0:0:
492,107,89999,1,10,1:3:0:0:
430,224,90343,1,4,3:0:0:0:
327,150,90686,1,4,3:0:0:0:
327,150,90801,2,0,P|266:138|168:172,1,165.000005035401,10|4,1:2|3:0,0:0:0:0:
156,211,91259,1,4,2:3:0:0:
156,211,91374,2,0,B|103:223|103:223|68:181,1,110.000003356934,10|4,1:3|3:0,0:0:0:0:
109,106,91832,5,6,3:0:0:0:
109,106,91946,1,4,2:3:0:0:
109,106,92061,2,0,B|110:77|71:66|71:66|127:93|193:62,1,165.000005035401,4|4,3:0|2:3,0:0:0:0:
301,39,92748,1,10,1:3:0:0:
267,120,92977,2,0,L|277:233,1,110.000003356934,4|0,3:0|0:0,0:0:0:0:
362,251,93435,2,0,P|389:326|308:379,2,165.000005035401,4|4|0,3:0|2:3|3:2,0:0:0:0:
318,252,94236,2,0,L|307:334,4,55.0000016784668,8|8|10|8|10,3:2|3:2|1:2|1:2|1:2,0:0:0:0:
273,253,94809,5,4,1:0:0:0:
273,253,94923,2,0,B|229:220|229:220|142:247,1,110.000003356934,4|4,2:3|2:3,0:0:0:0:
124,307,95381,1,4,2:3:0:0:
124,307,95496,2,0,P|60:273|55:231,1,110.000003356934,10|8,1:3|1:2,0:0:0:0:
16,217,95839,2,0,P|13:144|47:119,1,110.000003356934,10|10,1:2|1:2,0:0:0:0:
51,81,96183,6,0,B|86:99|86:99|233:75|233:75|284:98,1,220.000006713867,4|0,1:0|0:0,0:0:0:0:
343,50,96870,1,10,1:2:0:0:
343,50,96984,2,0,L|365:111,1,55.0000005245209,8|0,3:2|0:0,0:0:0:0:
378,142,97213,1,8,1:2:0:0:
309,196,97442,1,8,1:2:0:0:
309,196,97557,6,0,P|378:177|449:239,1,165.000005035401,4|4,1:0|2:3,0:0:0:0:
425,319,98129,1,4,2:3:0:0:
425,319,98244,2,0,P|356:338|285:276,1,165.000005035401,10|0,1:3|0:0,0:0:0:0:
259,154,98931,6,0,L|252:94,2,55.0000016784668,14|2|4,1:2|3:2|2:3,0:0:0:0:
225,182,99274,6,0,L|218:122,2,55.0000016784668,10|8|4,1:2|1:2|2:3,0:0:0:0:
192,211,99618,6,0,B|206:233|206:233|206:261,3,55.0000005245209,10|8|4|10,1:2|1:2|3:0|1:2,0:0:0:0:
172,253,100076,5,8,3:0:0:0:
172,253,100190,1,10,1:2:0:0:
172,253,100305,1,6,3:2:0:0:
102,31,111297,6,0,L|273:12,1,160,2|2,2:0|2:0,0:0:0:0:
35,134,112671,6,0,L|206:115,1,160,2|2,2:0|2:0,0:0:0:0:
401,269,114045,6,0,L|230:250,1,160,2|2,2:0|2:0,0:0:0:0:
468,372,115419,6,0,L|297:353,1,160,2|2,2:0|2:0,0:0:0:0:
55,315,116793,5,2,2:0:0:0:
20,126,117480,1,2,2:0:0:0:
188,34,118167,1,2,2:0:0:0:
327,166,118854,1,2,2:0:0:0:
244,339,119541,1,2,2:0:0:0:
20,126,120915,5,2,2:0:0:0:
193,224,131908,5,6,1:3:0:0:
100,245,132252,2,0,P|105:186|137:157,1,80,4|4,2:3|2:3,0:0:0:0:
111,143,132595,1,8,1:2:0:0:
111,143,132710,2,0,L|209:127,1,80,8|4,1:3|3:0,0:0:0:0:
240,155,133167,1,4,3:0:0:0:
240,155,133282,6,0,B|336:129|302:225|415:197,1,179.999994506836,4|4,1:0|2:3,0:0:0:0:
471,131,133854,1,4,2:3:0:0:
471,131,133969,2,0,P|496:179|484:243,1,119.999996337891,10|4,1:3|3:0,0:0:0:0:
505,344,134427,1,4,3:0:0:0:
505,344,134541,1,8,1:2:0:0:
505,344,134656,6,0,P|412:333|302:339,1,179.999994506836,4|4,3:0|2:3,0:0:0:0:
181,384,135343,2,0,B|159:311|159:311|189:248|189:248|162:140,1,239.999992675781,10|4,1:3|3:0,0:0:0:0:
125,131,135915,1,8,1:2:0:0:
125,131,136030,6,0,B|56:138|46:209|46:209|119:239,2,179.999994506836,4|4|10,3:0|2:3|1:3,0:0:0:0:
222,25,137061,2,0,P|270:68|339:80,1,119.999996337891,0|4,0:0|3:3,0:0:0:0:
359,50,137404,2,0,B|436:43|436:43|392:58,1,119.999996337891,0|4,0:0|3:0,0:0:0:0:
389,156,137862,5,0,0:0:0:0:
389,156,138091,2,0,L|468:129,5,59.9999981689454,8|8|8|10|8|10,3:2|3:2|3:2|1:2|1:2|1:2,0:0:0:0:
485,108,138778,6,0,B|505:227|505:227|495:299|414:306,1,239.999992675781,4|4,1:0|2:3,0:0:0:0:
416,213,139465,5,8,1:2:0:0:
416,213,139580,2,0,L|220:191,1,179.999994506836,8|4,0:2|3:0,0:0:0:0:
196,169,140038,2,0,B|152:190|155:250|155:250|128:197|66:181|26:216,1,239.999992675781,0|0,1:2|0:0,0:0:0:0:
10,250,140610,1,10,1:2:0:0:
89,313,140839,1,4,3:3:0:0:
89,313,140954,2,0,P|143:295|248:366,1,179.999994506836,10|10,1:3|1:2,0:0:0:0:
322,299,141526,6,0,B|413:291|413:291|463:205,1,179.999994506836,4|4,1:0|2:3,0:0:0:0:
481,174,141984,1,10,1:2:0:0:
481,174,142099,2,0,L|400:182,1,59.9999981689454,8|0,3:2|0:0,0:0:0:0:
377,189,142328,2,0,B|356:217|356:217|304:221|304:221|280:195,1,119.999996337891,8|8,1:2|1:2,1:2:0:0:
346,65,142900,6,0,B|285:87|285:87|257:120|257:120|167:111|167:111|118:141,1,239.999992675781,4|8,3:3|1:2,0:0:0:0:
35,127,143587,2,0,P|51:187|103:225,1,119.999996337891,10|8,1:3|3:3,0:0:0:0:
95,270,143931,2,0,P|154:254|193:202,1,119.999996337891,4|4,1:3|3:3,0:0:0:0:
237,214,144274,6,0,B|197:167|211:68|231:32|231:32|230:58|239:85,1,239.999992675781,4|0,1:0|3:0,0:0:0:0:
302,156,144961,1,8,3:3:0:0:
302,156,145076,2,0,P|322:210|293:278,1,119.999996337891,10|10,1:2|1:2,0:0:0:0:
433,328,145648,5,4,3:0:0:0:
504,263,145877,2,0,B|459:221|459:221|368:245,1,119.999996337891,8|0,3:3|3:0,0:0:0:0:
345,313,146335,1,8,3:3:0:0:
345,313,146450,2,0,L|193:289,1,119.999996337891,10|10,1:2|1:2,0:0:0:0:
134,304,146908,1,0,0:0:0:0:
134,304,147022,6,0,B|155:341|155:341|206:309|236:217|151:153,1,239.999992675781,4|4,3:3|2:3,0:0:0:0:
78,159,147709,1,8,3:3:0:0:
78,159,147824,2,0,P|142:136|147:74,1,119.999996337891,10|6,1:2|3:3,0:0:0:0:
29,17,148396,5,0,3:0:0:0:
29,17,148625,2,0,L|19:92,3,59.9999981689454,10|8|10|10,3:2|3:2|3:2|1:2,0:0:0:0:
65,58,149083,1,10,1:2:0:0:
65,58,149770,6,0,L|341:93,1,239.999992675781,4|4,1:0|2:3,0:0:0:0:
331,184,150457,1,8,1:2:0:0:
331,184,150572,2,0,P|317:127|411:141,1,179.999994506836,8|4,0:2|3:0,0:0:0:0:
443,165,151030,6,0,B|451:222|451:222|416:271|416:271|433:360,1,179.999994506836,0|0,1:2|3:0,0:0:0:0:
506,384,151603,1,10,1:2:0:0:
512,294,151832,1,4,3:3:0:0:
512,294,151946,2,0,B|482:259|426:255|393:301|393:301|408:388,1,179.999994506836,10|10,1:3|1:3,0:0:0:0:
305,325,152519,6,0,L|152:309,1,119.999996337891,4|0,1:0|3:0,0:0:0:0:
99,350,152977,1,10,1:2:0:0:
99,350,153091,2,0,L|98:285,1,59.9999981689454,8|0,3:2|0:0,0:0:0:0:
127,251,153320,2,0,L|141:129,1,119.999996337891,8|8,1:2|1:2,1:2:0:0:
30,226,153893,6,0,B|17:171|17:171|100:172|100:172|110:121|110:121|193:123,1,239.999992675781,8|8,3:0|1:2,0:0:0:0:
190,34,154580,2,0,P|215:104|271:119,1,119.999996337891,10|8,1:3|3:3,0:0:0:0:
284,83,154923,2,0,P|334:54|389:72,1,119.999996337891,4|4,1:3|3:3,0:0:0:0:
424,109,155267,5,6,2:0:0:0:
256,192,155381,12,0,166259,2:0:0:0:
92,209,177251,6,0,P|111:140|61:89,2,150,4|4|10,3:0|2:3|1:3,0:0:0:0:
39,317,178282,2,0,L|155:314,1,100,0|4,0:0|2:3,0:0:0:0:
189,252,178740,1,4,2:3:0:0:
239,190,178969,2,0,P|287:184|328:211,1,100,4|0,2:3|0:0,0:0:0:0:
352,243,179312,2,0,B|351:271|351:271|327:303|327:303|322:346,2,100,10|4|2,1:3|3:0|1:3,0:0:0:0:
429,222,179999,6,0,B|426:345|426:345|396:327,2,150,4|4|10,3:0|2:3|1:3,0:0:0:0:
497,123,181030,2,0,P|502:72|476:28,1,100,0|4,0:0|2:3,0:0:0:0:
422,87,181488,1,4,2:3:0:0:
347,56,181717,2,0,L|227:78,1,100,4|0,2:3|0:0,0:0:0:0:
209,80,182061,1,10,1:3:0:0:
136,46,182290,1,4,3:0:0:0:
144,133,182519,1,2,1:3:0:0:
144,133,182633,1,0,1:0:0:0:
144,133,182748,6,0,L|178:324,2,150,4|4|10,3:0|2:3|1:3,0:0:0:0:
79,234,183778,2,0,B|123:260|123:260|184:246,1,100,0|4,0:0|2:3,0:0:0:0:
263,325,184351,2,0,L|490:353,1,200,4|8,3:0|3:2,0:0:0:0:
448,311,184923,6,0,B|464:289|464:289|456:238,4,50,8|8|10|8|10,3:2|3:2|1:2|1:2|1:2,0:0:0:0:
421,280,185496,5,6,2:0:0:0:
