osu file format v14

[General]
AudioFilename: audio.mp3
AudioLeadIn: 0
PreviewTime: 56772
Countdown: 0
SampleSet: Soft
StackLeniency: 0.7
Mode: 0
LetterboxInBreaks: 0
WidescreenStoryboard: 1

[Editor]
DistanceSpacing: 1
BeatDivisor: 8
GridSize: 32
TimelineZoom: 1

[Metadata]
Title:hot milk
TitleUnicode:hot milk
Artist:Snail's House
ArtistUnicode:Snail's House
Creator:LamboSan5545
Version:Normal
Source:
Tags:hot milk Snail's House
BeatmapID:1468841
BeatmapSetID:694264

[Difficulty]
HPDrainRate:7
CircleSize:5
OverallDifficulty:8
ApproachRate:6
SliderMultiplier:1.4
SliderTickRate:1

[Events]
//Background and Video events
//Break Periods
2,86178,97978
2,228161,232362
//Storyboard Layer 0 (Background)
//Storyboard Layer 1 (Fail)
//Storyboard Layer 2 (Pass)
//Storyboard Layer 3 (Foreground)
//Storyboard Layer 4 (Overlay)
//Storyboard Sound Samples

[TimingPoints]
9631,800,4,2,0,70,1,0
36812,800,4,2,0,70,1,0
40012,800,4,2,0,70,1,0
46431,200,4,2,0,70,1,0
48031,794.701986754967,4,2,0,70,1,0
59554,200,4,2,0,70,1,0
60774,200,4,2,0,70,1,0
73578,200,4,2,0,70,1,0
111974,200,4,2,0,70,1,0
163197,400,4,2,0,70,1,0
169597,400,4,2,0,70,1,0
214362,800,4,2,0,70,1,0

[Colours]
Combo1 : 64,128,128
Combo2 : 128,128,255
Combo3 : 128,255,255
Combo4 : 128,255,128

[HitObjects]
256,192,231,12,0,9431,0:0:0:0:
250,189,9631,5,0,0:0:0:0:
124,43,10431,2,0,B|65:107|65:107|142:180|142:180|74:250|74:250|72:251,1,280
175,263,12831,1,0,0:0:0:0:
459,31,13631,2,0,B|520:63|520:63|462:95|462:95|523:121|523:121|458:152|458:152|458:305,1,420
368,230,16831,2,0,B|223:212|196:208|196:208|237:145|150:80|150:80|259:34,1,420
210,98,20031,2,0,B|156:47|80:74|80:74|0:199|217:302,1,420
210,98,23231,2,0,B|263:47|339:74|339:74|400:206|195:298,1,420
79,151,26431,2,0,B|141:151|141:151|169:214|169:214|211:148|211:148|254:217|254:217|307:149|307:149|371:147,1,420
150,45,29631,2,0,P|25:167|173:325,1,420
157,325,32831,2,0,P|283:181|149:44,1,420
58,51,36031,2,0,L|117:177,1,140
117,177,37612,1,0,0:0:0:0:
188,107,38412,2,0,P|236:83|334:135,1,140
398,237,40012,1,0,0:0:0:0:
34,150,40812,2,0,B|93:116|93:116|161:150,1,140
157,148,42412,1,0,0:0:0:0:
409,135,43212,2,0,P|443:206|403:280,3,140
453,169,46412,5,0,0:0:0:0:
296,169,46781,1,0,0:0:0:0:
183,167,47031,1,0,0:0:0:0:
182,67,47181,1,0,0:0:0:0:
297,66,47431,1,0,0:0:0:0:
298,238,47581,1,0,0:0:0:0:
299,173,47831,1,0,0:0:0:0:
299,173,48031,2,0,P|415:158|492:291,1,280
213,76,50415,2,0,B|257:47|257:47|284:72|284:72|337:24,1,140
322,188,52004,5,0,0:0:0:0:
147,79,52799,2,0,B|171:127|171:127|117:123|117:123|139:178,2,140
256,189,55183,1,0,0:0:0:0:
129,121,55978,2,0,B|192:86|192:86|249:121,1,140
467,208,57567,5,0,0:0:0:0:
373,58,58362,1,0,0:0:0:0:
356,238,59156,1,0,0:0:0:0:
453,169,59554,5,0,0:0:0:0:
288,160,59854,1,0,0:0:0:0:
160,160,60004,1,0,0:0:0:0:
160,64,60254,1,0,0:0:0:0:
288,64,60404,1,0,0:0:0:0:
227,112,60654,1,0,0:0:0:0:
26,210,60774,6,0,P|263:339|494:198,1,560
257,190,61974,1,0,0:0:0:0:
26,173,62374,2,0,P|263:44|494:185,1,560
257,190,63574,1,0,0:0:0:0:
160,13,63974,2,0,B|84:65|-8:14|-8:14|53:114|-13:201|-13:201|83:162|186:200,1,560
257,190,65174,1,0,0:0:0:0:
165,194,65574,2,0,B|217:269|166:362|166:362|266:300|353:367|353:367|314:270|352:167,1,560
257,191,66774,1,0,0:0:0:0:
345,189,67174,2,0,B|420:136|513:187|513:187|451:87|518:0|518:0|421:39|318:1,1,560
256,189,68374,1,0,0:0:0:0:
134,78,68774,6,0,P|69:111|137:245,1,245
245,248,69574,1,0,0:0:0:0:
247,77,69974,1,0,0:0:0:0:
103,291,70374,6,0,B|221:220|221:220|348:296,1,280
93,92,71174,1,0,0:0:0:0:
363,91,71574,1,0,0:0:0:0:
487,89,71974,6,0,B|439:118|439:118|479:145|479:145|438:166|438:166|484:185|484:185|434:213|434:213|416:225,2,280
326,93,73578,6,0,B|334:254|257:354|257:354|153:259|174:79,1,560
257,350,74778,1,0,0:0:0:0:
385,273,75178,2,0,B|386:187|386:187|492:119|492:119|433:75|433:75|378:116|378:116|483:197|483:197|486:274,1,560
257,350,76378,1,0,0:0:0:0:
149,168,76778,6,0,B|251:22|251:22|351:168|351:168|139:170,1,560
408,166,77978,1,0,0:0:0:0:
406,0,78378,2,0,P|571:137|389:360,1,560
257,191,79578,1,0,0:0:0:0:
97,123,79978,6,0,P|187:55|319:142,1,280
97,123,80778,1,0,0:0:0:0:
313,126,81178,1,0,0:0:0:0:
103,81,81578,6,0,B|37:167|81:234|81:234|199:233,1,280
194,231,82378,1,0,0:0:0:0:
103,81,82778,1,0,0:0:0:0:
372,100,83178,6,0,B|463:80|505:129|505:129|416:164|471:227|384:214,1,280
408,215,83978,1,0,0:0:0:0:
372,100,84378,1,0,0:0:0:0:
49,99,84778,6,0,B|-10:150|-10:150|51:215|119:188|119:188|190:131,1,280
163,150,85578,1,0,0:0:0:0:
49,99,85978,1,0,0:0:0:0:
72,149,99178,6,0,B|19:211|134:291|134:291|215:206|263:308|263:308|354:195|250:92,1,560
182,193,100378,1,0,0:0:0:0:
303,236,100778,2,0,B|356:174|240:93|240:93|160:179|112:76|112:76|21:190|125:293,1,560
182,193,101978,1,0,0:0:0:0:
151,28,102378,2,0,P|55:162|328:325,1,560
313,332,103578,1,0,0:0:0:0:
165,31,103978,2,0,B|448:32|448:32|200:190,1,560
16,190,105178,1,0,0:0:0:0:
59,58,105578,6,0,B|132:123|132:123|179:45|179:45|238:130|238:130|276:45|276:45|331:135|331:135|380:72,1,560
59,58,106728,1,0,0:0:0:0:
61,201,107178,2,0,B|59:349|59:349|298:348|298:348|152:213,1,560
385,232,108378,1,0,0:0:0:0:
15,48,108778,6,0,L|506:349,1,560
256,192,109978,1,0,0:0:0:0:
493,48,110378,2,0,L|1:349,1,560
256,192,111578,1,0,0:0:0:0:
128,83,111974,5,0,0:0:0:0:
66,9,112774,2,0,B|67:360|67:360|289:359|289:359|288:75,1,840
291,91,114374,1,0,0:0:0:0:
472,326,115224,5,0,0:0:0:0:
475,264,115974,2,0,P|341:11|84:326,1,840
475,264,117599,1,0,0:0:0:0:
53,273,118374,5,0,0:0:0:0:
253,66,119174,2,0,B|146:47|21:108|409:329|296:305|142:300,2,420
339,266,120774,1,0,0:0:0:0:
390,103,121574,5,0,0:0:0:0:
390,103,122374,2,0,B|389:224|389:224|303:223|303:223|302:106|302:106|213:105|213:105|211:221|211:221|137:221|137:221|138:102|138:102|53:101|53:101|50:163,1,840
256,243,123974,1,0,0:0:0:0:
207,118,124774,5,0,0:0:0:0:
3,112,125574,2,0,L|456:112,2,420
214,112,127174,1,0,0:0:0:0:
400,42,127974,5,0,0:0:0:0:
32,57,128774,2,0,B|139:58|139:58|76:126|76:126|166:164|166:164|107:235|107:235|207:274|207:274|116:356|116:356|354:361,1,840
256,245,130374,1,0,0:0:0:0:
256,192,131174,12,0,133174,0:0:0:0:
256,190,133574,5,0,0:0:0:0:
256,192,134374,12,0,137574,0:0:0:0:
49,30,138374,6,0,B|476:32|476:32|477:195,3,560
476,164,140774,6,0,B|476:297|476:297|49:293,4,560
476,164,143974,6,0,P|336:94|46:316,4,560
476,164,147174,6,0,P|301:364|43:298,4,560
476,164,150374,6,0,B|311:16|311:16|60:66|121:246,4,560
475,162,153574,6,0,B|354:347|354:347|99:364|111:174,4,560
475,162,156774,6,0,B|271:-31|271:-31|73:190,4,560
475,162,159974,6,0,B|257:365|257:365|75:161,4,560
475,162,163197,6,0,L|245:15,1,262.5
252,19,163947,6,0,L|95:271,1,297.5
95,272,164797,6,0,L|359:372,1,280
356,371,165597,6,0,L|460:108,1,280
458,110,166397,6,0,L|175:106,1,280
178,106,167197,6,0,L|311:354,1,280
310,352,167997,6,0,L|458:112,1,280
456,113,168797,6,0,L|195:3,1,280
197,4,169597,6,0,P|142:147|240:164,1,280
298,66,170763,1,0,0:0:0:0:
434,170,171197,2,0,B|314:257|314:257|208:169,1,280
299,142,172347,1,0,0:0:0:0:
103,35,172797,6,0,B|12:84|12:84|91:133|-6:233,1,280
140,152,173947,1,0,0:0:0:0:
327,70,174397,2,0,B|185:144|304:216|304:216|302:281,1,262.5
455,186,175547,1,0,0:0:0:0:
147,90,175997,6,0,P|253:13|282:124,1,280
287,115,176797,2,0,P|181:192|152:80,1,280
147,90,177597,2,0,P|253:13|282:124,1,280
287,115,178397,2,0,P|181:192|152:81,1,280
146,89,179197,6,0,L|432:87,3,280
426,87,181597,2,0,L|175:223,1,280
180,220,182397,6,0,B|67:295|67:295|197:366,1,280
194,364,183197,2,0,B|307:289|307:289|177:218,1,280
180,220,183997,2,0,B|67:295|67:295|197:366,1,280
194,364,184797,2,0,B|307:289|307:289|177:218,1,280
180,220,185597,6,0,L|416:61,1,280
451,120,186397,2,0,L|219:277,1,280
252,334,187197,2,0,L|488:175,1,280
451,120,187997,2,0,L|219:277,1,280
219,276,188797,6,0,P|174:361|80:257,1,280
256,191,189947,1,0,0:0:0:0:
96,102,190397,2,0,B|216:30|216:30|360:32,1,280
363,156,191597,1,0,0:0:0:0:
55,91,191997,6,0,P|172:36|280:128,1,280
278,120,192797,2,0,P|145:134|101:260,1,280
100,259,193597,2,0,P|239:239|276:115,1,280
277,120,194397,2,0,P|377:207|342:335,1,280
342,335,195197,6,0,L|73:222,1,280
290,135,196397,1,0,0:0:0:0:
108,39,196797,2,0,B|43:41|43:41|6:130|60:236|131:147,1,280
387,257,197997,1,0,0:0:0:0:
92,71,198397,6,0,P|240:50|287:160,1,280
288,149,199197,6,0,P|168:202|182:332,2,280
288,149,200797,2,0,P|418:134|471:254,1,280
471,254,201597,6,0,B|364:340|364:340|243:251,1,280
245,88,202747,1,0,0:0:0:0:
144,87,203197,2,0,B|66:185|66:185|101:204|101:204|28:298,1,280
469,188,204397,1,0,0:0:0:0:
200,97,204797,2,0,B|152:58|65:115|73:198|151:244|186:272,1,280
179,266,205597,2,0,B|227:305|314:248|306:165|228:119|193:91,1,280
199,96,206397,2,0,P|245:45|201:96,1,280
197,97,207197,2,0,P|239:176|200:96,1,280
200,96,207997,6,0,L|198:248,1,140
197,235,208797,6,0,L|349:237,1,140
336,236,209597,2,0,L|237:335,1,140
237,335,210397,6,0,L|389:337,1,140
263,119,211197,6,0,B|196:-8|196:-8|138:114,1,280
137,115,211997,2,0,B|18:181|18:181|150:239,1,280
150,239,212797,2,0,B|208:362|208:362|275:235,1,280
275,234,213597,2,0,B|402:167|402:167|267:121,1,280
206,209,215162,2,0,P|148:105|205:209,1,420
199,208,217562,2,0,B|314:202|314:202|404:155|385:46|169:60|226:252|313:208|416:205,1,490
24,102,220762,6,0,B|162:96|162:96|69:196|69:196|191:173|133:274|134:320|78:300|38:295|-9:238,1,560
2,138,224762,1,0,0:0:0:0:
56,60,225162,1,0,0:0:0:0:
103,147,225562,2,0,L|387:146,1,280
382,146,227162,2,0,B|344:223|344:223|396:267,1,140
221,127,233562,5,0,0:0:0:0:
256,192,234362,12,0,239962,0:0:0:0:
