osu file format v14

[General]
AudioFilename: audio.mp3
AudioLeadIn: 0
PreviewTime: 56772
Countdown: 0
SampleSet: Soft
StackLeniency: 0.7
Mode: 0
LetterboxInBreaks: 0
WidescreenStoryboard: 1

[Editor]
DistanceSpacing: 1
BeatDivisor: 8
GridSize: 32
TimelineZoom: 1

[Metadata]
Title:hot milk
TitleUnicode:hot milk
Artist:Snail's House
ArtistUnicode:Snail's House
Creator:LamboSan5545
Version:Easy
Source:
Tags:hot milk Snail's House
BeatmapID:1487526
BeatmapSetID:694264

[Difficulty]
HPDrainRate:3
CircleSize:5
OverallDifficulty:3
ApproachRate:6
SliderMultiplier:1.4
SliderTickRate:1

[Events]
//Background and Video events
//Break Periods
//Storyboard Layer 0 (Background)
//Storyboard Layer 1 (Fail)
//Storyboard Layer 2 (Pass)
//Storyboard Layer 3 (Foreground)
//Storyboard Sound Samples

[TimingPoints]
9631,800,4,2,0,70,1,0
36812,800,4,2,0,70,1,0
46431,200,4,2,0,70,1,0
48031,794.701986754967,4,2,0,70,1,0
59554,200,4,2,0,70,1,0
60774,200,4,2,0,70,1,0
73578,200,4,2,0,70,1,0
111974,200,4,2,0,70,1,0
163197,400,4,2,0,70,1,0
169597,400,4,2,0,70,1,0
214362,800,4,2,0,70,1,0

[Colours]
Combo1 : 64,128,128
Combo2 : 128,128,255
Combo3 : 128,255,255
Combo4 : 128,255,128

[HitObjects]
256,192,31,12,0,9431,0:0:0:0:
256,192,9631,5,0,0:0:0:0:
291,64,12831,1,0,0:0:0:0:
414,163,16031,1,0,0:0:0:0:
101,152,19231,1,0,0:0:0:0:
251,192,22431,1,0,0:0:0:0:
360,114,25631,1,0,0:0:0:0:
86,151,28831,1,0,0:0:0:0:
459,356,32031,1,0,0:0:0:0:
124,336,35231,1,0,0:0:0:0:
319,256,36731,1,0,0:0:0:0:
149,152,37612,1,0,0:0:0:0:
429,157,38412,1,0,0:0:0:0:
108,284,39212,1,0,0:0:0:0:
221,112,40012,1,0,0:0:0:0:
291,267,40812,1,0,0:0:0:0:
381,92,41612,1,0,0:0:0:0:
169,240,42412,1,0,0:0:0:0:
116,79,43212,1,0,0:0:0:0:
388,214,44012,1,0,0:0:0:0:
256,73,44812,1,0,0:0:0:0:
256,239,45612,1,0,0:0:0:0:
259,63,46431,5,0,0:0:0:0:
96,64,46781,1,0,0:0:0:0:
96,128,47006,1,0,0:0:0:0:
160,128,47181,1,0,0:0:0:0:
160,192,47406,1,0,0:0:0:0:
224,192,47556,1,0,0:0:0:0:
224,256,47856,1,0,0:0:0:0:
288,192,48031,1,0,0:0:0:0:
134,77,49620,1,0,0:0:0:0:
134,159,51209,1,0,0:0:0:0:
450,357,54388,1,0,0:0:0:0:
30,80,57567,2,0,L|173:113,2,140
154,88,59554,6,0,L|309:205,1,192.5
205,26,59954,2,0,P|307:40|334:143,1,210
415,152,60354,2,0,B|494:177|494:177|420:232,1,175
256,192,60774,12,0,61574,0:0:0:0:
480,32,61974,5,0,0:0:0:0:
256,192,62374,12,0,63174,0:0:0:0:
26,340,63574,5,0,0:0:0:0:
34,30,63974,6,0,P|211:164|23:365,1,560
256,192,65149,1,0,0:0:0:0:
478,30,65574,2,0,P|300:164|488:365,1,560
256,192,66774,1,0,0:0:0:0:
32,32,67174,6,0,L|256:224,1,280
244,214,67974,6,0,L|456:31,1,280
456,31,68774,6,0,L|452:326,1,280
453,310,69574,6,0,L|231:168,1,262.5
155,66,70374,2,0,B|56:66|39:100|54:141|31:172|59:200|141:209|141:209|57:233|36:264|48:298|45:317|71:334|104:342|183:342,3,560
256,192,73578,12,0,74378,0:0:0:0:
482,361,74778,5,0,0:0:0:0:
256,192,75178,12,0,75978,0:0:0:0:
31,31,76378,5,0,0:0:0:0:
478,32,76778,2,0,B|351:13|351:13|224:93,1,262.5
236,81,77578,2,0,B|369:101|369:101|478:32,1,262.5
478,32,78378,2,0,B|369:101|369:101|221:79,1,262.5
497,118,79178,2,0,B|370:99|370:99|243:179,1,262.5
18,41,79978,6,0,B|8:361|25:357|335:347,1,560
256,192,81178,1,0,0:0:0:0:
494,343,81578,2,0,B|504:23|487:27|191:30,1,560
256,192,82778,1,0,0:0:0:0:
234,131,83178,2,0,B|109:52|87:84|108:195|174:242|214:252|230:24|293:27|311:66|391:122|346:165|295:248|229:117,3,560
71,113,86378,1,0,0:0:0:0:
125,150,87153,1,0,0:0:0:0:
456,210,87928,1,0,0:0:0:0:
25,76,88803,1,0,0:0:0:0:
89,196,89578,2,0,P|294:237|144:92,4,560
89,196,92778,6,0,B|226:196|226:196|227:337|227:337|88:338|88:338|89:196,4,560
256,192,95978,12,0,97578,0:0:0:0:
21,19,99178,6,0,B|502:373|502:373|-31:374,2,1120
21,19,102378,6,0,B|501:371|501:371|7:185,2,1120
21,19,105578,6,0,B|18:285|18:285|212:62,4,560
21,19,108778,6,0,B|272:205|272:205|6:381|6:381|505:381,2,1120
