osu file format v14

[General]
AudioFilename: audio.mp3
AudioLeadIn: 0
PreviewTime: 38420
Countdown: 0
SampleSet: Soft
StackLeniency: 0.3
Mode: 0
LetterboxInBreaks: 0
WidescreenStoryboard: 1

[Editor]
DistanceSpacing: 1.7
BeatDivisor: 4
GridSize: 32
TimelineZoom: 3.199999

[Metadata]
Title:Pixel Galaxy
TitleUnicode:Pixel Galaxy
Artist:Snail's House
ArtistUnicode:Snail's House
Creator:GalenTori
Version:Adventure
Source:太鼓の達人 Nintendo Switchば~じょん!
Tags:Taiko no Tatsujin Drum ‘n’ Fun! muse dash electronic instrumental kawaii future bass short ver version n kawai videogame vgm snails inversal
BeatmapID:3588149
BeatmapSetID:1753342

[Difficulty]
HPDrainRate:7
CircleSize:4
OverallDifficulty:8.5
ApproachRate:9
SliderMultiplier:2
SliderTickRate:1

[Events]
//Background and Video events
0,0,"2825826.jpg",0,0
//Break Periods
2,65870,77870
//Storyboard Layer 0 (Background)
//Storyboard Layer 1 (Fail)
//Storyboard Layer 2 (Pass)
//Storyboard Layer 3 (Foreground)
//Storyboard Layer 4 (Overlay)
//Storyboard Sound Samples

[TimingPoints]
1670,400,4,2,1,65,1,0
1670,-1000,4,2,1,65,0,0
1870,-1000,4,2,1,5,0,0
2670,-1000,4,2,1,65,0,0
4870,-333.333333333333,4,2,1,65,0,0
5670,-333.333333333333,4,2,1,65,0,0
6470,-333.333333333333,4,2,1,65,0,0
6570,-333.333333333333,4,2,1,5,0,0
6670,-333.333333333333,4,2,1,65,0,0
8070,-333.333333333333,4,2,1,65,0,0
8170,-333.333333333333,4,2,1,5,0,0
8270,-333.333333333333,4,2,1,65,0,0
8870,-333.333333333333,4,2,1,65,0,0
9670,-333.333333333333,4,2,1,65,0,0
9770,-333.333333333333,4,2,1,5,0,0
9870,-333.333333333333,4,2,1,65,0,0
9920,-333.333333333333,4,2,1,5,0,0
10470,-333.333333333333,4,2,1,65,0,0
11270,-333.333333333333,4,2,1,65,0,0
12070,-333.333333333333,4,2,1,65,0,0
12170,-333.333333333333,4,2,1,5,0,0
12270,-333.333333333333,4,2,1,65,0,0
12370,-333.333333333333,4,2,1,5,0,0
12470,-333.333333333333,4,2,1,65,0,0
13670,-333.333333333333,4,2,2,50,0,0
14470,-100,4,2,1,65,0,0
15070,-333.333333333333,4,2,1,65,0,0
15170,-333.333333333333,4,2,1,5,0,0
15270,-133.333333333333,4,2,1,65,0,0
16070,-100,4,2,1,65,0,0
18870,-333.333333333333,4,2,1,65,0,0
18970,-333.333333333333,4,2,1,5,0,0
19070,-333.333333333333,4,2,1,65,0,0
19170,-333.333333333333,4,2,1,5,0,0
19270,-100,4,2,1,65,0,0
20270,-100,4,2,1,65,0,0
20470,-50,4,2,1,65,0,0
20670,-33.3333333333333,4,2,1,65,0,0
20870,-333.333333333333,4,2,1,65,0,0
20970,-333.333333333333,4,2,1,5,0,0
21070,-333.333333333333,4,2,1,65,0,0
21170,-333.333333333333,4,2,1,5,0,0
21270,-333.333333333333,4,2,1,65,0,0
21370,-333.333333333333,4,2,1,5,0,0
21470,-333.333333333333,4,2,1,65,0,0
21670,-133.333333333333,4,2,1,65,0,0
22470,-100,4,2,1,65,0,0
24670,-333.333333333333,4,2,1,65,0,0
24770,-333.333333333333,4,2,1,5,0,0
24870,-333.333333333333,4,2,1,65,0,0
25670,-100,4,2,1,65,0,0
26670,-100,4,2,2,35,0,0
27270,-83.3333333333333,4,2,2,45,0,0
27670,-83.3333333333333,4,2,1,65,0,0
28270,-333.333333333333,4,2,1,65,0,0
28870,-100,4,2,1,65,0,0
30470,-333.333333333333,4,2,1,65,0,0
32870,-333.333333333333,4,2,2,30,0,0
33670,-66.6666666666667,4,2,1,65,0,0
35270,-100,4,2,1,65,0,0
36270,-333.333333333333,4,2,1,65,0,0
38470,-333.333333333333,4,2,1,45,0,0
38570,-333.333333333333,4,2,1,5,0,0
38770,-333.333333333333,4,2,1,45,0,0
38870,-333.333333333333,4,2,1,5,0,0
38970,-333.333333333333,4,2,1,45,0,0
39270,-100,4,2,1,65,0,0
39670,-40,4,2,1,45,0,0
40070,-50,4,2,1,65,0,1
40870,-1000,4,2,1,65,0,1
41870,-50,4,2,1,65,0,1
42470,-100,4,2,1,65,0,1
43270,-50,4,2,1,65,0,1
44070,-1000,4,2,1,65,0,1
44670,-333.333333333333,4,2,1,65,0,1
45070,-50,4,2,1,65,0,1
45870,-50,4,2,2,35,0,1
46070,-50,4,2,1,65,0,1
46170,-50,4,2,2,35,0,1
46470,-50,4,2,1,65,0,1
47270,-1000,4,2,1,65,0,1
48270,-50,4,2,1,65,0,1
49670,-100,4,2,1,65,0,1
49770,-100,4,2,1,5,0,1
50170,-100,4,2,1,65,0,1
50270,-76.9230769230769,4,2,1,65,0,1
50370,-76.9230769230769,4,2,1,5,0,1
50770,-76.9230769230769,4,2,1,65,0,1
50870,-50,4,2,1,65,0,1
50970,-50,4,2,1,5,0,1
51370,-50,4,2,1,65,0,1
51470,-333.333333333333,4,2,1,65,0,1
52270,-55.5555555555556,4,2,1,65,0,1
52670,-55.5555555555556,4,2,2,65,0,1
52870,-50,4,2,1,65,0,1
53670,-666.666666666667,4,2,1,65,0,1
54070,-333.333333333333,4,2,1,65,0,1
54270,-666.666666666667,4,2,1,65,0,1
54670,-50,4,2,1,65,0,1
55470,-333.333333333333,4,2,1,65,0,1
56070,-50,4,2,1,65,0,1
56870,-666.666666666667,4,2,1,65,0,1
57270,-333.333333333333,4,2,1,65,0,1
57470,-666.666666666667,4,2,1,65,0,1
57870,-50,4,2,1,65,0,1
58670,-333.333333333333,4,2,1,65,0,1
59270,-100,4,2,1,65,0,1
59870,-66.6666666666667,4,2,1,65,0,1
60470,-50,4,2,1,65,0,1
61070,-1000,4,2,1,65,0,1
61870,-333.333333333333,4,2,1,65,0,1
62470,-50,4,2,1,65,0,1
64070,-333.333333333333,4,2,1,65,0,1
64270,-333.333333333333,4,2,1,65,0,1
65070,-333.333333333333,4,2,1,65,0,1
65270,-55.5555555555556,4,2,1,65,0,1
65670,-133.333333333333,4,2,1,65,0,0
83470,-333.333333333333,4,2,1,65,0,0
84070,-133.333333333333,4,2,1,65,0,0
85870,-333.333333333333,4,2,1,65,0,0
86670,-133.333333333333,4,2,1,65,0,0
90470,-133.333333333333,4,2,2,45,0,0
90870,-133.333333333333,4,2,1,65,0,0
90970,-133.333333333333,4,2,2,45,0,0
91270,-133.333333333333,4,2,1,65,0,0
100070,-133.333333333333,4,2,2,45,0,0
100870,-83.3333333333333,4,2,1,65,0,0
102470,-333.333333333333,4,2,1,45,0,0
102570,-333.333333333333,4,2,1,5,0,0
102770,-333.333333333333,4,2,1,45,0,0
102870,-333.333333333333,4,2,1,5,0,0
102970,-333.333333333333,4,2,1,45,0,0
103270,-100,4,2,1,65,0,0
103670,-40,4,2,1,65,0,0
104070,-50,4,2,1,65,0,1
104870,-333.333333333333,4,2,1,65,0,1
105470,-200,4,2,1,65,0,1
105870,-50,4,2,1,65,0,1
106670,-333.333333333333,4,2,1,65,0,1
107270,-50,4,2,1,65,0,1
108070,-666.666666666667,4,2,1,65,0,1
108470,-333.333333333333,4,2,1,65,0,1
108670,-666.666666666667,4,2,1,65,0,1
109070,-50,4,2,1,65,0,1
109870,-333.333333333333,4,2,2,65,0,1
110070,-333.333333333333,4,2,1,65,0,1
110170,-333.333333333333,4,2,2,65,0,1
110470,-50,4,2,1,65,0,1
111270,-333.333333333333,4,2,1,65,0,1
111870,-666.666666666667,4,2,1,65,0,1
112270,-50,4,2,1,65,0,1
113070,-333.333333333333,4,2,1,65,0,1
113670,-100,4,2,1,65,0,1
114270,-76.9230769230769,4,2,1,65,0,1
114870,-50,4,2,1,65,0,1
115470,-666.666666666667,4,2,1,65,0,1
116270,-55.5555555555556,4,2,1,65,0,1
116870,-50,4,2,1,65,0,1
117670,-666.666666666667,4,2,1,65,0,1
118070,-333.333333333333,4,2,1,65,0,1
118270,-666.666666666667,4,2,1,65,0,1
118670,-50,4,2,1,65,0,1
119470,-333.333333333333,4,2,1,65,0,1
120070,-50,4,2,1,65,0,1
120870,-666.666666666667,4,2,1,65,0,1
121270,-333.333333333333,4,2,1,65,0,1
121470,-666.666666666667,4,2,1,65,0,1
121870,-50,4,2,1,65,0,1
122670,-333.333333333333,4,2,1,65,0,1
123270,-100,4,2,1,65,0,1
123870,-66.6666666666667,4,2,1,65,0,1
124470,-50,4,2,1,65,0,1
125070,-1000,4,2,1,65,0,1
125870,-200,4,2,1,65,0,1
126470,-100,4,2,1,65,0,1
127070,-66.6666666666667,4,2,1,65,0,1
127670,-50,4,2,1,65,0,1
128070,-333.333333333333,4,2,2,65,0,1
128270,-100,4,2,1,65,0,1
129070,-333.333333333333,4,2,2,45,0,1
129270,-333.333333333333,4,2,1,65,0,1
129370,-333.333333333333,4,2,2,45,0,1
129670,-100,4,2,1,65,0,0
141470,-83.3333333333333,4,2,2,50,0,0
142270,-83.3333333333333,4,2,1,65,0,0

[Colours]
Combo1 : 255,130,192
Combo2 : 47,249,193
Combo3 : 9,119,255

[HitObjects]
107,257,1670,6,0,B|130:264|130:264|133:261|133:261|153:267,1,50,2|0,0:1|0:0,0:0:0:0:
318,335,2870,1,0,0:1:0:0:
245,307,3070,1,0,0:1:0:0:
282,214,3270,1,0,0:1:0:0:
393,280,3470,6,0,L|389:299,1,20,2|0,0:1|0:0,0:0:0:0:
464,270,4070,1,0,0:0:0:0:
318,335,4270,1,0,0:0:0:0:
395,190,4470,1,0,0:0:0:0:
350,88,4870,6,0,L|344:121,1,29.9999990844727,2|0,0:1|0:0,0:0:0:0:
395,190,5270,1,0,0:0:0:0:
253,101,5470,1,0,0:0:0:0:
90,129,5870,6,0,L|100:162,1,29.9999990844727
59,39,6270,1,0,0:0:0:0:
194,310,6670,6,0,L|161:303,1,29.9999990844727,2|0,0:1|0:0,0:0:0:0:
71,330,7070,1,0,0:0:0:0:
179,216,7270,1,0,0:0:0:0:
271,247,7470,5,0,0:0:0:0:
107,162,7670,1,0,0:0:0:0:
165,304,7870,1,0,0:0:0:0:
249,147,8070,6,0,L|216:159,1,29.9999990844727,2|0,0:1|0:0,0:0:0:0:
340,158,8470,1,0,0:0:0:0:
187,72,8670,1,0,0:0:0:0:
381,32,9070,6,0,L|412:47,1,29.9999990844727
266,73,9470,1,0,0:0:0:0:
442,187,9670,6,0,L|449:162,1,14.9999995422363
471,98,9870,2,0,B|466:55|485:64|485:64|502:71|471:98,1,89.9999972534181,2|0,0:1|0:0,0:0:0:0:
446,172,10670,1,0,0:0:0:0:
336,230,10870,1,0,0:0:0:0:
460,318,11070,1,0,0:0:0:0:
319,356,11270,6,0,L|324:322,1,29.9999990844727,2|0,0:1|0:0,0:0:0:0:
336,230,11670,1,0,0:0:0:0:
186,281,11870,1,0,0:0:0:0:
91,195,12070,6,0,L|107:198,1,14.9999995422363
169,150,12270,2,0,L|165:124,1,14.9999995422363,2|0,0:1|0:0,0:0:0:0:
78,93,12470,6,0,B|52:101|52:101|46:99|46:99|19:109,1,59.9999981689454
191,34,13070,1,2,0:1:0:0:
389,138,13670,6,0,L|391:120,1,14.9999995422363,8|0,0:1|0:1,0:1:0:0:
462,85,13870,5,8,0:1:0:0:
470,48,13970,1,8,0:1:0:0:
366,209,14170,5,8,0:1:0:0:
360,240,14270,1,8,0:1:0:0:
357,260,14370,1,8,0:1:0:0:
371,360,14470,6,0,B|363:262|430:207|469:249|448:299|374:300,1,200,6|0,0:0|0:0,0:0:0:0:
468,348,15070,2,0,L|483:355,1,14.9999995422363,2|0,0:0|0:0,0:0:0:0:
208,209,15270,6,0,B|170:223|170:223|209:224,1,75.0000028610231,8|0,0:0|0:0,0:0:0:0:
298,178,15670,1,0,0:0:0:0:
152,303,15870,1,0,0:0:0:0:
13,105,16070,6,0,B|61:118|61:118|65:110|65:110|117:123,1,100,0|2,0:0|0:0,0:0:0:0:
154,128,16370,1,0,0:0:0:0:
154,128,16470,2,0,P|140:175|139:228,1,100
218,242,16770,2,0,L|261:235,2,25,2|0|8,0:0|0:0|0:0,0:0:0:0:
194,31,17070,6,0,B|179:27|179:27|175:23|175:23|146:18,1,50
361,69,17270,1,0,0:0:0:0:
409,61,17370,1,0,0:0:0:0:
458,54,17470,1,0,0:0:0:0:
366,177,17670,6,0,B|346:171|346:171|343:174|343:174|318:165,5,50,2|0|0|0|0|0,0:0|0:0|0:0|0:0|0:0|0:0,0:0:0:0:
230,148,18270,1,2,0:0:0:0:
388,271,18470,1,8,0:0:0:0:
472,166,18670,1,0,0:0:0:0:
269,268,18870,6,0,L|247:264,1,14.9999995422363
209,331,19070,2,0,L|212:354,1,14.9999995422363
291,347,19270,1,0,0:0:0:0:
137,230,19470,6,0,B|109:236|109:236|105:240|105:240|82:250,1,50,2|0,0:0|0:0,0:0:0:0:
59,299,19670,2,0,P|50:238|22:186,1,100
29,128,19970,2,0,L|56:125,2,25,2|0|8,0:0|0:0|0:0,0:0:0:0:
116,64,20270,6,0,P|130:60|115:69,1,50
217,14,20470,6,0,P|247:28|212:22,1,100
321,66,20670,6,0,P|352:75|317:68,1,150.000005722046
512,350,20870,6,0,L|486:341,1,14.9999995422363,2|0,0:0|0:0,0:0:0:0:
347,360,21070,2,0,L|360:353,1,14.9999995422363
407,216,21270,2,0,L|411:236,1,14.9999995422363
428,309,21470,1,2,0:0:0:0:
468,106,21670,6,0,B|498:126|498:126|433:116,1,75.0000028610231,8|0,0:0|0:0,0:0:0:0:
356,149,22070,1,0,0:0:0:0:
479,25,22270,1,0,0:0:0:0:
278,144,22470,6,0,B|239:150|239:150|272:82,1,100,0|2,0:0|0:0,0:0:0:0:
292,12,22770,1,0,0:0:0:0:
292,12,22870,2,0,B|253:24|253:24|246:22|246:22|181:41,1,100
120,64,23170,2,0,L|90:76,2,25,2|0|8,0:0|0:0|0:0,0:0:0:0:
0,21,23470,1,0,0:0:0:0:
124,156,23670,1,0,0:0:0:0:
15,250,23870,1,0,0:0:0:0:
105,372,24070,6,0,B|122:329|105:295|105:295|107:290|107:290|84:255|62:219|124:200|106:254,1,200,2|0,0:0|0:0,0:0:0:0:
27,339,24670,2,0,L|11:346,1,14.9999995422363,2|0,0:0|0:0,0:0:0:0:
271,267,24870,5,8,0:0:0:0:
328,357,25070,1,0,0:0:0:0:
307,169,25270,1,0,0:0:0:0:
172,313,25470,1,0,0:0:0:0:
341,247,25670,6,0,B|395:254|395:254|427:299,1,100,0|2,0:0|0:0,0:0:0:0:
489,345,25970,1,0,0:0:0:0:
489,345,26070,2,0,P|502:275|516:230,1,100
496,168,26370,2,0,L|470:178,2,25,2|0|8,0:0|0:0|0:0,0:0:0:0:
323,35,26670,5,8,0:1:0:0:
331,82,26770,1,8,0:1:0:0:
474,16,26970,5,8,0:1:0:0:
467,49,27070,1,8,0:1:0:0:
261,170,27270,6,0,B|178:174|190:109|133:81|80:114,1,179.999994506836,6|0,0:0|0:0,0:0:0:0:
62,38,27670,1,0,0:0:0:0:
62,38,28070,1,0,0:1:0:0:
221,31,28270,6,0,L|243:28,1,14.9999995422363,2|0,0:1|0:0,0:0:0:0:
314,24,28470,1,0,0:0:0:0:
356,113,28670,1,0,0:0:0:0:
494,84,28870,6,0,P|513:20|429:55,1,200,2|2,0:1|0:1,0:0:0:0:
436,102,29370,2,0,B|470:118|470:118|450:185,1,100
420,248,29670,1,0,0:0:0:0:
326,355,29870,1,0,0:0:0:0:
512,283,30070,1,2,0:1:0:0:
512,283,30170,1,0,0:0:0:0:
512,283,30270,1,0,0:0:0:0:
317,254,30470,6,0,L|291:244,1,14.9999995422363,2|0,0:1|0:0,0:0:0:0:
226,228,30670,2,0,L|230:207,1,14.9999995422363
255,140,30870,2,0,L|283:147,1,14.9999995422363
347,159,31070,2,0,L|355:136,1,14.9999995422363
385,71,31270,5,2,0:1:0:0:
167,170,31470,6,0,L|145:164,1,14.9999995422363,2|0,0:1|0:0,0:0:0:0:
82,131,31670,2,0,L|62:137,1,14.9999995422363
14,191,31870,2,0,L|-8:186,1,14.9999995422363
157,70,32070,5,2,0:1:0:0:
96,237,32270,6,0,L|85:261,1,14.9999995422363
66,325,32470,2,0,L|76:335,1,14.9999995422363
146,370,32670,2,0,L|170:362,1,14.9999995422363
220,315,32870,2,0,L|211:296,1,14.9999995422363,8|8,0:1|0:1,0:0:0:0:
185,231,33070,5,0,0:0:0:0:
185,231,33170,1,8,0:1:0:0:
185,231,33270,1,8,0:1:0:0:
490,361,33470,1,8,0:1:0:0:
490,361,33570,1,8,0:1:0:0:
490,361,33670,6,0,B|475:288|420:240|333:269|333:269|398:274|415:330,1,300.000011444092,6|0,0:0|0:0,0:0:0:0:
263,276,34270,6,0,B|288:257|328:263|328:263|274:176|326:69|448:123|333:160,1,300.000011444092,0|2,0:0|0:1,0:0:0:0:
451,53,34870,6,0,B|485:47|485:47|444:58,1,75.0000028610231,0|0,0:1|0:0,0:0:0:0:
340,28,35070,2,0,B|307:16|307:16|345:34,1,75.0000028610231
244,179,35270,6,0,P|259:143|256:119,1,50,2|0,0:1|0:0,0:0:0:0:
181,134,35470,2,0,P|166:95|156:85,1,50
100,141,35670,2,0,P|71:125|43:123,1,50,2|0,0:1|0:0,0:0:0:0:
46,201,35870,2,0,P|7:213|-10:233,1,50
50,280,36070,2,0,P|34:302|30:329,1,50,2|0,0:1|0:0,0:0:0:0:
304,358,36270,6,0,L|322:350,1,14.9999995422363
389,318,36470,2,0,L|414:327,1,14.9999995422363,2|0,0:1|0:0,0:0:0:0:
478,350,36670,2,0,L|492:373,1,14.9999995422363
495,210,36870,5,2,0:1:0:0:
461,234,36970,1,0,0:0:0:0:
416,243,37070,1,2,0:1:0:0:
369,228,37170,1,0,0:0:0:0:
339,196,37270,1,2,0:1:0:0:
293,156,37370,5,0,0:0:0:0:
237,131,37470,1,2,0:1:0:0:
173,135,37570,1,0,0:0:0:0:
122,168,37670,1,2,0:1:0:0:
88,220,37770,1,0,0:0:0:0:
83,281,37870,1,2,0:1:0:0:
100,340,37970,1,0,0:0:0:0:
149,376,38070,5,2,0:1:0:0:
178,302,38170,1,0,0:0:0:0:
156,226,38270,1,2,0:1:0:0:
84,190,38370,1,0,0:0:0:0:
13,212,38470,6,0,L|-12:222,1,14.9999995422363,8|0,0:3|0:0,0:0:0:0:
222,155,38770,6,0,L|244:160,1,14.9999995422363,4|0,0:3|0:0,0:0:0:0:
169,47,38970,5,4,0:3:0:0:
108,34,39070,1,2,0:3:0:0:
368,104,39270,6,0,P|403:95|378:114,1,100,2|0,0:1|0:0,0:0:0:0:
318,139,39670,2,0,P|344:29|385:177,1,375,2|0,0:0|0:0,0:0:0:0:
394,358,40070,6,0,B|334:277|416:194|416:194|411:178|411:178|500:132|510:8|366:-64|245:53|332:160,1,600,6|2,0:0|0:0,0:0:0:0:
450,288,40870,6,0,L|470:295,1,20,8|0,0:0|0:0,0:0:0:0:
509,360,41470,1,0,0:0:0:0:
270,362,41870,6,0,B|210:321|142:293|35:213|-78:289|-23:386|90:388|142:293|144:194,1,500,6|2,0:0|0:0,0:0:0:0:
147,166,42420,5,0,0:0:0:0:
147,166,42470,5,8,0:0:0:0:
156,77,42670,1,0,0:0:0:0:
72,40,42870,1,0,0:0:0:0:
2,81,43070,1,0,0:0:0:0:
450,275,43270,6,0,B|426:275|426:275|401:275|401:275|348:275|348:200|404:200|404:200|427:200|427:200|482:200|482:124|426:124|426:124|383:124|383:124|321:124|321:45|382:45|382:45|481:45,1,600,6|2,0:0|0:0,0:0:0:0:
256,52,44070,2,0,L|256:41,2,10,8|0|0,0:0|0:0|0:0,0:0:0:0:
255,140,44670,6,0,L|255:163,1,14.9999995422363
257,232,44870,2,0,L|258:257,1,14.9999995422363
257,364,45070,6,0,B|183:328|183:328|74:363|74:363|-13:271|-13:271|140:213|140:213|128:248,1,500,6|2,0:0|0:0,0:0:0:0:
156,252,45620,5,0,0:0:0:0:
156,252,45670,5,8,0:0:0:0:
335,22,45870,5,8,0:1:0:0:
395,22,45970,1,8,0:1:0:0:
429,71,46070,1,2,0:1:0:0:
408,127,46170,1,0,0:1:0:0:
381,179,46270,1,8,0:1:0:0:
389,239,46370,1,8,0:1:0:0:
436,280,46470,6,0,B|524:249|536:351|536:351|456:401|366:356|397:198|364:131|243:142|184:212|231:238,1,600,6|2,0:0|0:0,0:0:0:0:
240,313,47270,6,0,L|260:319,1,20,8|0,0:0|0:0,0:0:0:0:
313,377,47870,1,0,0:0:0:0:
322,44,48270,6,0,B|295:5|224:34|246:88|246:88|271:165|156:197|139:117|139:117|125:52|55:60|16:90|34:147,1,500,6|2,0:0|0:0,0:0:0:0:
38,177,48820,5,0,0:0:0:0:
38,177,48870,5,8,0:0:0:0:
113,234,49070,1,0,0:0:0:0:
99,320,49270,1,0,0:0:0:0:
27,369,49470,1,0,0:0:0:0:
398,237,49670,6,0,P|430:167|371:235,1,250,6|0,0:0|0:0,0:0:0:0:
389,251,50270,6,0,P|406:130|353:240,1,324.999985122681,6|0,0:0|0:0,0:0:0:0:
392,266,50870,6,0,B|468:259|523:178|443:65|349:71|292:153|318:209|318:209|346:269|285:306|240:286|220:252,1,500,6|0,0:0|0:0,0:0:0:0:
173,259,51470,6,0,L|158:254,1,14.9999995422363,2|0,0:0|0:0,0:0:0:0:
125,161,51670,2,0,L|118:179,1,14.9999995422363
18,207,51870,2,0,L|32:212,1,14.9999995422363,2|0,0:0|0:0,0:0:0:0:
60,308,52070,2,0,L|67:295,1,14.9999995422363,8|0,0:0|0:0,0:0:0:0:
370,26,52270,6,0,B|327:-7|248:29|257:67|306:71|280:98|199:134|160:126|194:89|169:55|94:57|55:94|53:136,1,359.999989013672,6|0,0:0|0:0,0:0:0:0:
446,361,52870,6,0,B|501:316|459:188|327:255|262:127|333:42|435:-6|552:57|548:189|437:227,1,600,6|2,0:0|0:0,0:0:0:0:
378,312,53670,2,0,L|364:308,1,14.9999995422363,8|0,0:0|0:0,0:0:0:0:
274,322,54070,6,0,L|259:320,1,14.9999995422363
192,361,54270,2,0,L|195:378,1,14.9999995422363
193,280,54670,6,0,B|117:291|86:202|142:131|227:148|227:215|307:191|328:62|266:-13|198:4|130:26|130:85,1,500,6|2,0:0|0:0,0:0:0:0:
126,115,55220,5,0,0:0:0:0:
126,115,55270,5,8,0:0:0:0:
44,154,55470,2,0,L|26:149,1,14.9999995422363
31,254,55670,2,0,L|12:262,1,14.9999995422363
84,330,55870,2,0,L|71:347,1,14.9999995422363
228,335,56070,6,0,B|352:363|352:363|406:255|406:255|302:266|302:266|327:165|327:165|501:198,1,600,6|2,0:0|0:0,0:0:0:0:
505,257,56870,2,0,L|500:277,1,14.9999995422363,8|0,0:0|0:0,0:0:0:0:
511,122,57270,6,0,L|513:94,1,14.9999995422363
447,67,57470,2,0,L|427:72,1,14.9999995422363
177,54,57870,6,0,B|246:32|246:32|355:89|355:89|236:113|236:113|115:49|115:49|40:72,1,500,6|2,0:0|0:0,0:0:0:0:
25,74,58420,5,0,0:0:0:0:
25,74,58470,5,8,0:0:0:0:
73,159,58670,2,0,L|78:141,1,14.9999995422363
19,241,58870,2,0,L|13:223,1,14.9999995422363
80,293,59070,2,0,L|90:267,1,14.9999995422363
208,352,59270,6,0,B|293:343|293:343|294:354|294:354|293:343|293:343|387:332,1,200,6|0,0:0|0:0,0:0:0:0:
209,360,59870,6,0,B|294:351|294:351|295:362|295:362|294:351|294:351|385:340|385:340|421:240|421:240,1,300.000011444092,6|0,0:0|0:0,0:0:0:0:
210,368,60470,6,0,B|295:359|295:359|296:370|296:370|295:359|295:359|389:349|389:349|431:241|431:241|328:259,1,400,6|0,0:0|0:0,0:0:0:0:
263,258,61070,2,0,L|264:239,1,20,2|0,0:0|0:0,0:0:0:0:
296,140,61620,5,2,0:0:0:0:
292,129,61670,5,8,0:0:0:0:
363,66,61870,2,0,L|368:81,1,14.9999995422363
464,73,62070,2,0,L|458:89,1,14.9999995422363
512,155,62270,2,0,L|504:169,1,14.9999995422363
228,55,62470,6,0,B|186:35|133:61|168:115|89:133|29:98,1,200,6|0,0:0|0:0,0:0:0:0:
0,46,62870,1,0,0:0:0:0:
235,99,63070,6,0,B|199:69|141:81|162:142|81:141|31:92,1,200,6|0,0:0|0:0,0:0:0:0:
0,46,63470,1,0,0:0:0:0:
234,128,63670,6,0,B|203:93|144:96|155:159|75:145|34:89,1,200,6|0,0:0|0:0,0:0:0:0:
0,46,64070,2,0,L|-3:27,1,14.9999995422363,8|0,0:3|0:0,0:0:0:0:
24,245,64270,6,0,B|29:275|29:275|26:283|26:283|34:319,1,74.9999977111817,2|2,0:0|0:0,0:0:0:0:
45,359,64820,5,0,0:0:0:0:
45,359,64870,5,8,0:0:0:0:
217,283,65070,2,0,L|206:292,1,14.9999995422363
156,242,65270,2,0,P|280:241|248:350,1,269.999991760254,2|0,0:0|0:0,0:0:0:0:
442,201,65670,5,6,0:0:0:0:
185,153,78470,6,0,L|269:169,1,75.0000028610231,2|0,0:0|0:0,0:0:0:0:
328,135,78870,1,8,0:0:0:0:
161,240,79270,2,0,L|81:224,1,75.0000028610231,2|0,0:0|0:0,0:0:0:0:
185,353,79670,5,8,0:0:0:0:
264,330,79870,1,0,0:0:0:0:
342,304,80070,1,2,0:0:0:0:
436,346,80270,1,0,0:0:0:0:
418,163,80470,6,0,L|432:250,1,75.0000028610231,8|0,0:0|0:0,0:0:0:0:
490,99,80870,1,2,0:0:0:0:
401,32,81070,1,0,0:0:0:0:
287,67,81270,1,8,0:0:0:0:
287,67,81370,1,0,0:0:0:0:
287,67,81470,1,0,0:0:0:0:
327,194,81670,6,0,P|340:227|332:275,1,75.0000028610231,2|0,0:0|0:0,0:0:0:0:
201,366,82070,2,0,P|243:330|269:325,1,75.0000028610231,8|0,0:0|0:0,0:0:0:0:
436,361,82470,2,0,P|400:356|363:326,1,75.0000028610231,2|0,0:0|0:0,0:0:0:0:
263,238,82870,1,8,0:0:0:0:
440,160,83070,1,0,0:0:0:0:
431,282,83270,1,2,0:0:0:0:
320,136,83470,6,0,L|322:152,1,14.9999995422363
225,33,83670,2,0,L|207:39,1,14.9999995422363,8|0,0:0|0:0,0:0:0:0:
363,25,83870,2,0,L|380:31,1,14.9999995422363
246,144,84070,6,0,P|206:147|167:118,1,75.0000028610231,2|0,0:0|0:0,0:0:0:0:
37,23,84470,2,0,P|82:22|110:47,1,75.0000028610231,8|0,0:0|0:0,0:0:0:0:
121,62,84720,5,0,0:0:0:0:
125,65,84770,6,0,B|159:47|159:47|200:55|200:55|239:37,1,112.500004291535,6|0,0:0|0:0,0:0:0:0:
43,244,85270,6,0,L|24:171,1,75.0000028610231,8|0,0:0|0:0,0:0:0:0:
6,99,85570,1,0,0:0:0:0:
6,99,85670,1,2,0:0:0:0:
162,228,85870,6,0,L|164:210,1,14.9999995422363
174,138,86070,1,8,0:0:0:0:
147,319,86270,1,0,0:0:0:0:
58,360,86470,5,2,0:0:0:0:
259,302,86670,2,0,P|298:308|318:341,1,75.0000028610231,0|8,0:0|0:0,0:0:0:0:
337,379,86970,2,0,P|343:336|381:275,1,112.500004291535,0|2,0:0|0:0,0:0:0:0:
439,209,87470,1,0,0:0:0:0:
439,209,87570,1,0,0:0:0:0:
439,209,87670,1,8,0:0:0:0:
259,302,87870,1,0,0:0:0:0:
206,116,88070,6,0,L|227:187,1,75.0000028610231,2|0,0:0|0:0,0:0:0:0:
175,263,88470,1,8,0:0:0:0:
319,73,88670,1,0,0:0:0:0:
319,73,88770,1,0,0:0:0:0:
319,73,88870,1,2,0:0:0:0:
81,57,89070,1,0,0:0:0:0:
225,185,89270,2,0,L|308:163,1,75.0000028610231,8|0,0:0|0:0,0:0:0:0:
43,266,89670,6,0,B|21:234|21:234|43:188,1,75.0000028610231,2|0,0:0|0:0,0:0:0:0:
73,128,89970,1,0,0:0:0:0:
73,128,90070,2,0,P|56:85|16:73,1,75.0000028610231,8|0,0:0|0:0,0:0:0:0:
192,195,90470,1,8,0:1:0:0:
351,38,90670,5,8,0:1:0:0:
328,67,90770,1,8,0:1:0:0:
293,77,90870,1,8,0:0:0:0:
258,63,90970,1,8,0:1:0:0:
233,21,91070,5,8,0:1:0:0:
177,9,91170,1,8,0:1:0:0:
135,45,91270,5,6,0:0:0:0:
135,57,91670,1,8,0:0:0:0:
136,66,92070,1,0,0:0:0:0:
285,177,92470,5,8,0:0:0:0:
135,82,92670,1,0,0:0:0:0:
286,192,92870,1,0,0:0:0:0:
287,202,93270,5,8,0:0:0:0:
411,148,93670,5,0,0:0:0:0:
287,211,93870,1,0,0:0:0:0:
424,153,94070,1,8,0:0:0:0:
512,39,94470,5,0,0:0:0:0:
499,125,94670,1,0,0:0:0:0:
486,206,94870,1,8,0:0:0:0:
471,285,95070,1,0,0:0:0:0:
230,34,95470,5,0,0:0:0:0:
308,70,95670,1,8,0:0:0:0:
380,105,95870,1,0,0:0:0:0:
143,207,96270,5,0,0:0:0:0:
123,288,96470,1,8,0:0:0:0:
33,307,96670,1,0,0:0:0:0:
52,380,96870,1,0,0:0:0:0:
4,109,97070,5,0,0:0:0:0:
78,161,97270,1,8,0:0:0:0:
143,207,97470,1,0,0:0:0:0:
253,82,97670,5,4,0:0:0:0:
269,171,97870,1,0,0:0:0:0:
373,133,98070,1,8,0:0:0:0:
382,238,98270,1,0,0:0:0:0:
482,224,98470,1,0,0:0:0:0:
489,357,98670,5,0,0:0:0:0:
399,323,98870,1,8,0:0:0:0:
303,371,99070,1,0,0:0:0:0:
431,242,99270,6,0,B|455:226|455:226|435:180,1,75.0000028610231
420,108,99570,1,0,0:0:0:0:
420,108,99670,2,0,P|455:100|490:125,1,75.0000028610231,8|0,0:0|0:0,0:0:0:0:
341,195,100070,1,8,0:1:0:0:
156,23,100270,5,8,0:1:0:0:
212,33,100370,1,8,0:1:0:0:
269,45,100470,1,8,0:1:0:0:
23,180,100670,1,8,0:1:0:0:
23,180,100770,1,8,0:1:0:0:
23,180,100870,6,0,B|52:150|52:150|27:71,1,119.999996337891,2|0,0:0|0:0,0:0:0:0:
126,219,101270,1,0,0:0:0:0:
114,309,101470,2,0,B|87:314|64:301|60:288|56:275|27:256|-6:264,1,119.999996337891,2|0,0:0|0:0,0:0:0:0:
1,345,101870,1,0,0:0:0:0:
188,369,102070,2,0,P|213:314|173:246,1,119.999996337891,2|0,0:0|0:0,0:0:0:0:
195,144,102470,6,0,L|170:154,1,14.9999995422363,8|0,0:3|0:0,0:0:0:0:
355,93,102770,6,0,L|377:98,1,14.9999995422363,4|0,0:3|0:0,0:0:0:0:
483,93,102970,5,2,0:3:0:0:
494,37,103070,1,4,0:3:0:0:
451,281,103270,6,0,B|462:231|462:231|468:228|468:228|477:181,1,100,2|0,0:1|0:0,0:0:0:0:
415,348,103670,6,0,B|436:236|436:236|460:214|460:214|483:93|483:93|395:151,1,375,2|0,0:0|0:0,0:0:0:0:
189,33,104070,6,0,B|207:10|245:1|301:22|330:78|307:135|307:135|256:132|235:178|235:178|177:194|133:175|119:101|119:101|89:56|31:48|-1:73,1,600,6|2,0:0|0:0,0:0:0:0:
46,152,104870,6,0,L|47:169,1,14.9999995422363,8|0,0:0|0:0,0:0:0:0:
57,250,105070,2,0,L|59:268,1,14.9999995422363
70,347,105270,2,0,L|72:365,1,14.9999995422363
292,254,105470,6,0,B|330:261|330:261|334:267|334:267|364:275,1,75
433,245,105870,6,0,B|442:289|436:322|457:332|388:377|388:377|397:336|372:371|358:291|440:212|440:212|486:164|462:66|393:53,1,500,6|2,0:0|0:0,0:0:0:0:
386,38,106420,5,0,0:0:0:0:
386,38,106470,5,8,0:0:0:0:
294,67,106670,2,0,L|276:65,1,14.9999995422363
208,20,106870,2,0,L|191:24,1,14.9999995422363
116,61,107070,2,0,L|98:57,1,14.9999995422363
359,366,107270,6,0,B|305:366|305:366|279:366|265:366|248:357|234:345|234:304|251:293|269:286|282:286|307:286|307:286|459:286|459:286|491:286|506:262|506:242|500:225|492:207|452:207|452:207|388:207|388:207|358:231,1,600,6|2,0:0|0:0,0:0:0:0:
290,210,108070,2,0,L|275:210,1,14.9999995422363,8|0,0:0|0:0,0:0:0:0:
125,287,108470,6,0,L|140:287,1,14.9999995422363
177,353,108670,2,0,L|176:368,1,14.9999995422363
155,83,109070,6,0,B|45:57|45:57|195:34|195:34|222:55|222:55|222:62|222:62|270:90|270:90|363:75|363:75|388:32,1,500,6|2,0:0|0:0,0:0:0:0:
406,4,109620,5,0,0:0:0:0:
406,4,109670,5,8,0:0:0:0:
503,232,109870,5,8,0:1:0:0:
467,280,109970,1,8,0:1:0:0:
407,280,110070,1,2,0:1:0:0:
373,230,110170,1,0,0:1:0:0:
347,179,110270,1,8,0:1:0:0:
293,152,110370,1,8,0:1:0:0:
235,173,110470,6,0,B|163:155|200:284|305:175|305:175|311:184|311:184|386:109|457:126|511:140|546:219|507:283|398:300|366:215,1,600,6|2,0:0|0:0,0:0:0:0:
311,272,111270,2,0,L|314:300,1,14.9999995422363,8|0,0:0|0:0,0:0:0:0:
327,368,111470,2,0,L|331:386,1,14.9999995422363
275,87,111870,6,0,L|271:69,1,14.9999995422363
111,37,112270,6,0,B|9:49|9:49|-13:87|-13:87|18:121|18:121|174:100|174:100|213:131|213:131|185:172|185:172|113:181,1,500,6|2,0:0|0:0,0:0:0:0:
95,188,112820,5,0,0:0:0:0:
95,188,112870,5,8,0:0:0:0:
33,285,113070,2,0,L|32:268,1,14.9999995422363
115,318,113270,2,0,L|116:299,1,14.9999995422363
193,356,113470,2,0,L|193:339,1,14.9999995422363
333,74,113670,6,0,B|392:49|392:49|456:72|456:72|396:98|396:98|338:78,1,250,6|0,0:0|0:0,0:0:0:0:
321,67,114270,6,0,B|393:36|393:36|478:73|478:73|398:112|398:112|322:84,1,324.999985122681,6|0,0:0|0:0,0:0:0:0:
310,63,114870,6,0,B|396:24|396:24|503:73|503:73|400:125|400:125|270:82|270:82|222:101,1,500,6|0,0:0|0:0,0:0:0:0:
167,61,115470,6,0,L|165:46,1,14.9999995422363,2|0,0:0|0:0,0:0:0:0:
315,220,115870,1,2,0:0:0:0:
259,210,115970,1,0,0:0:0:0:
202,200,116070,1,8,0:0:0:0:
50,327,116270,6,0,B|14:277|14:277|9:276|9:276|123:303|123:303|120:306|120:306|198:367|198:367|202:364|202:364|288:364,1,359.999989013672,6|0,0:0|0:0,0:0:0:0:
512,159,116870,6,0,B|462:180|456:253|456:253|455:178|392:155|392:155|379:159|379:159|371:144|371:144|319:127|317:110|281:45|322:-4|377:-40|466:-13|480:60|432:113,1,600,6|2,0:0|0:0,0:0:0:0:
377,248,117670,2,0,L|356:244,1,14.9999995422363,8|0,0:0|0:0,0:0:0:0:
291,281,118070,2,0,L|267:279,1,14.9999995422363
363,355,118270,6,0,L|364:374,1,14.9999995422363
40,285,118670,6,0,B|68:296|72:356|72:356|96:293|76:216|28:172|28:172|78:215|143:201|189:137|189:137|166:141|142:131,1,500,6|2,0:0|0:0,0:0:0:0:
139,110,119220,5,0,0:0:0:0:
139,110,119270,5,8,0:0:0:0:
228,43,119470,2,0,L|224:24,1,14.9999995422363
321,70,119670,2,0,L|333:58,1,14.9999995422363
347,152,119870,2,0,L|364:163,1,14.9999995422363
444,340,120070,6,0,B|374:369|374:369|379:365|379:365|401:241|401:241|399:236|399:236|438:252|438:252|443:250|443:250|446:255|446:255|508:276|508:276|503:202|503:202|473:164|473:164|473:158|473:158|467:157|467:157|421:95|421:95|440:154,1,600,6|2,0:0|0:0,0:0:0:0:
438,22,120870,2,0,L|456:23,1,14.9999995422363,8|0,0:0|0:0,0:0:0:0:
199,31,121270,6,0,L|175:34,1,14.9999995422363
126,86,121470,2,0,L|128:104,1,14.9999995422363
103,280,121870,6,0,B|-12:328|-39:197|63:163|123:216|140:257|140:257|163:310|213:315|273:296|279:259|279:259|255:256|228:233,1,500,6|2,0:0|0:0,0:0:0:0:
220,213,122420,5,0,0:0:0:0:
220,213,122470,5,8,0:0:0:0:
317,162,122670,2,0,L|337:160,1,14.9999995422363
420,226,122870,2,0,L|440:220,1,14.9999995422363
378,315,123070,2,0,L|396:319,1,14.9999995422363
282,45,123270,6,0,B|378:41|346:119|476:91,1,200,6|0,0:0|0:0,0:0:0:0:
270,56,123870,6,0,B|380:58|329:115|399:130|463:142|505:116|508:47|473:22,1,300.000011444092,6|0,0:0|0:0,0:0:0:0:
259,75,124470,6,0,B|371:63|318:134|395:146|463:153|542:161|549:47|510:-7|445:0,1,400,6|0,0:0|0:0,0:0:0:0:
255,154,125070,6,0,L|234:157,1,20,2|0,0:0|0:0,0:0:0:0:
130,176,125620,5,2,0:0:0:0:
130,176,125670,5,8,0:0:0:0:
131,286,125870,2,0,B|163:281,1,25,2|0,0:0|0:0,0:0:0:0:
236,353,126070,2,0,L|271:357,1,25
322,305,126270,2,0,L|348:313,1,25
497,137,126470,6,0,B|469:135|453:159|453:159|458:130|437:100,1,100,6|0,0:0|0:0,0:0:0:0:
503,60,126870,1,0,0:0:0:0:
301,101,127070,6,0,B|340:100|364:144|364:144|349:95|384:60,1,150.000005722046,6|0,0:0|0:0,0:0:0:0:
314,22,127470,1,0,0:0:0:0:
290,181,127670,6,0,B|247:183|221:240|221:240|225:177|184:148,1,200,6|0,0:0|0:0,0:0:0:0:
130,223,128070,2,0,L|111:229,1,14.9999995422363,8|0,0:1|0:0,0:0:0:0:
0,89,128270,6,0,B|105:98|74:23|194:23,1,200,6|2,0:0|0:0,0:0:0:0:
241,38,128770,5,2,0:0:0:0:
241,38,128820,5,0,0:0:0:0:
241,38,128870,5,8,0:0:0:0:
261,260,129070,5,8,0:1:0:0:
304,266,129170,1,8,0:1:0:0:
337,294,129270,1,8,0:0:0:0:
360,332,129370,1,8,0:1:0:0:
396,357,129470,1,8,0:1:0:0:
439,363,129570,1,8,0:1:0:0:
482,353,129670,5,6,0:0:0:0:
494,34,130870,2,0,P|443:37|420:78,1,100,2|0,0:1|0:0,0:0:0:0:
352,122,131170,1,2,0:1:0:0:
352,122,131270,6,0,B|371:81|371:81|349:29,1,100,2|0,0:1|0:0,0:0:0:0:
426,176,131670,1,2,0:1:0:0:
265,120,131870,1,0,0:0:0:0:
361,249,132070,2,0,B|304:232|248:257|287:294|222:318|173:297,1,200,2|0,0:1|0:0,0:0:0:0:
135,289,132570,1,2,0:1:0:0:
135,289,132670,1,2,0:1:0:0:
289,355,132870,5,2,0:1:0:0:
195,214,133070,1,0,0:0:0:0:
55,285,133270,1,0,0:0:0:0:
207,187,133470,2,0,P|216:137|183:96,1,100,2|0,0:1|0:0,0:0:0:0:
67,48,133870,5,0,0:0:0:0:
2,152,134070,1,2,0:1:0:0:
161,26,134270,2,0,P|214:20|248:54,1,100,2|0,0:1|0:0,0:0:0:0:
420,159,134670,6,0,P|478:100|394:71,1,200,2|0,0:1|0:0,0:0:0:0:
363,89,135170,1,0,0:0:0:0:
363,89,135270,1,2,0:1:0:0:
333,219,135470,1,0,0:0:0:0:
202,131,135670,1,2,0:1:0:0:
300,302,135870,1,0,0:0:0:0:
431,91,136070,5,6,0:0:0:0:
309,40,136270,1,0,0:0:0:0:
440,78,136470,1,2,0:1:0:0:
196,137,136870,5,0,0:0:0:0:
310,183,137070,1,2,0:1:0:0:
91,271,137470,1,2,0:1:0:0:
43,50,137870,1,2,0:1:0:0:
179,88,138270,5,0,0:0:0:0:
43,50,138470,1,2,0:1:0:0:
174,103,138670,1,0,0:0:0:0:
86,171,138870,5,2,0:1:0:0:
273,70,139070,1,0,0:0:0:0:
335,197,139470,5,0,0:0:0:0:
273,70,139670,1,0,0:0:0:0:
332,212,139870,1,2,0:1:0:0:
184,224,140270,5,0,0:0:0:0:
394,102,140470,1,2,0:1:0:0:
486,220,141070,5,0,0:0:0:0:
407,257,141270,1,0,0:0:0:0:
299,305,141470,5,8,0:1:0:0:
153,247,141670,5,8,0:1:0:0:
161,282,141770,1,8,0:1:0:0:
308,127,141970,5,8,0:1:0:0:
303,155,142070,1,8,0:1:0:0:
298,185,142170,1,0,0:0:0:0:
115,66,142270,5,6,0:0:0:0:
