osu file format v14

[General]
AudioFilename: Snail's House - Magical Holiday.mp3
AudioLeadIn: 0
PreviewTime: 90897
Countdown: 0
SampleSet: Drum
StackLeniency: 0.7
Mode: 3
LetterboxInBreaks: 0
SpecialStyle: 0
WidescreenStoryboard: 0

[Editor]
DistanceSpacing: 1.3
BeatDivisor: 16
GridSize: 4
TimelineZoom: 1.3

[Metadata]
Title:Magical Holiday
TitleUnicode:Magical Holiday
Artist:Snail's House
ArtistUnicode:Snail's House
Creator:Youwhang
Version:Follow the Star! [Normal]
Source:
Tags:Ujico* snailchan future kawaii bass ramunechan chill out electronic downtempo instrumental jazz japan
BeatmapID:1881658
BeatmapSetID:898155

[Difficulty]
HPDrainRate:7
CircleSize:4
OverallDifficulty:7
ApproachRate:5
SliderMultiplier:1.4
SliderTickRate:1

[Events]
//Background and Video events
Video,-120,"Snails House - Magical Holiday (Official MV).avi"
0,0,"K-710.png",0,0
//Break Periods
//Storyboard Layer 0 (Background)
//Storyboard Layer 1 (Fail)
//Storyboard Layer 2 (Pass)
//Storyboard Layer 3 (Foreground)
//Storyboard Layer 4 (Overlay)
//Storyboard Sound Samples

[TimingPoints]
9570,375,3,3,0,10,1,0
81570,428.571428571429,3,3,0,10,1,0
81570,-87.719298245614,4,3,0,10,0,0
85855,400,3,3,0,10,1,0
85855,-93.4579439252336,3,3,0,10,0,0
86255,387.096774193548,3,3,0,10,1,0
86255,-97.0873786407767,3,3,0,10,0,0
86630,375,3,3,0,10,1,0
91130,-100,4,3,0,10,0,1
126005,-100,4,3,0,10,0,0
181130,-100,4,3,0,10,0,1
221630,-100,4,3,0,10,0,0

[HitObjects]
64,192,9570,5,0,0:0:0:100:DB_F0.ogg
448,192,9945,1,0,0:0:0:100:Drum_Snare.ogg
448,192,10320,1,0,0:0:0:100:Drum_Snare.ogg
192,192,10695,1,0,0:0:0:100:DB_C1.ogg
448,192,11070,1,0,0:0:0:100:Drum_Snare.ogg
448,192,11445,1,0,0:0:0:100:Drum_Snare.ogg
64,192,11820,1,0,0:0:0:100:DB_F0.ogg
320,192,12195,1,0,0:0:0:100:Drum_Snare.ogg
320,192,12570,1,0,0:0:0:100:Drum_Snare.ogg
64,192,12945,1,0,0:0:0:70:DB_F0.ogg
448,192,13320,1,0,0:0:0:100:Drum_Snare.ogg
64,192,13695,1,0,0:0:0:100:Drum_Snare.ogg
192,192,14070,128,0,14445:0:0:0:100:DB_G0.ogg
448,192,14445,1,0,0:0:0:100:Drum_Snare.ogg
448,192,14820,1,0,0:0:0:100:Drum_Snare.ogg
64,192,15195,128,0,15570:0:0:0:100:DB_C1.ogg
320,192,15570,1,0,0:0:0:100:Drum_Snare.ogg
320,192,15945,1,0,0:0:0:100:Drum_Snare.ogg
64,192,16320,128,0,16695:0:0:0:100:DB_A0.ogg
448,192,16695,1,0,0:0:0:100:Drum_Snare.ogg
448,192,17070,1,0,0:0:0:100:Drum_Snare.ogg
192,192,17445,1,0,0:0:0:100:DB_D1.ogg
320,192,17820,1,0,0:0:0:100:Drum_Snare.ogg
448,192,18570,1,0,0:0:0:100:Drum_Timpani G.ogg
64,192,18570,1,0,0:0:0:70:Drum_Tom1.ogg
192,192,19695,1,0,0:0:0:100:Drum_Timpani C.ogg
320,192,19695,1,0,0:0:0:100:DB_C0.ogg
64,192,20820,1,0,0:0:0:100:Drum_Timpani D.ogg
320,192,20820,1,0,0:0:0:100:DB_A0.ogg
192,192,21945,1,0,0:0:0:100:Drum_Timpani D.ogg
448,192,21945,1,0,0:0:0:100:DB_D1.ogg
192,192,23070,128,0,23445:0:0:0:80:Drum_Kick.ogg
448,192,23445,1,0,0:0:0:50:Drum_Tom Tom 1.ogg
448,192,23820,128,0,24195:0:0:0:50:Drum_Tom Tom 1.ogg
64,192,24195,128,0,24570:0:0:0:80:Drum_Kick.ogg
320,192,24570,128,0,24945:0:0:0:50:Drum_Tom Tom 1.ogg
64,192,25320,128,0,25695:0:0:0:100:Drum_Kick.ogg
192,192,25695,1,0,0:0:0:0:
320,192,26070,128,0,26445:0:0:0:0:
64,192,26445,1,0,0:0:0:0:
448,192,26445,1,0,0:0:0:0:
320,192,26820,128,0,27195:0:0:0:0:
448,192,27195,128,0,27570:0:0:0:0:
64,192,27570,1,0,0:0:0:100:Drum_Kick.ogg
192,192,27570,1,0,0:0:0:100:DB_F0.ogg
448,192,27945,1,0,0:0:0:100:Drum_Snare.ogg
448,192,28320,1,0,0:0:0:100:Drum_Snare.ogg
64,192,28695,1,0,0:0:0:100:Drum_Kick.ogg
320,192,28695,1,0,0:0:0:100:DB_F0.ogg
448,192,29070,1,0,0:0:0:100:Drum_Snare.ogg
448,192,29445,1,0,0:0:0:100:Drum_Snare.ogg
64,192,29820,1,0,0:0:0:100:Drum_Kick.ogg
192,192,29820,1,0,0:0:0:100:DB_F0.ogg
320,192,30195,1,0,0:0:0:100:Drum_Snare.ogg
320,192,30570,1,0,0:0:0:100:Drum_Snare.ogg
64,192,30945,1,0,0:0:0:100:Drum_Kick.ogg
448,192,30945,1,0,0:0:0:100:DB_F0.ogg
320,192,31320,1,0,0:0:0:100:Drum_Snare.ogg
192,192,31695,1,0,0:0:0:100:Drum_Snare.ogg
320,192,32070,1,0,0:0:0:100:Drum_Kick.ogg
64,192,32070,1,0,0:0:0:100:DB_G0.ogg
448,192,32445,1,0,0:0:0:100:Drum_Snare.ogg
448,192,32820,1,0,0:0:0:100:Drum_Snare.ogg
192,192,33195,1,0,0:0:0:100:Drum_Kick.ogg
64,192,33195,1,0,0:0:0:100:DB_C1.ogg
320,192,33570,1,0,0:0:0:100:Drum_Snare.ogg
320,192,33945,1,0,0:0:0:100:Drum_Snare.ogg
64,192,34320,1,0,0:0:0:100:Drum_Kick.ogg
448,192,34320,1,0,0:0:0:100:DB_A0.ogg
192,192,34695,1,0,0:0:0:100:Drum_Snare.ogg
192,192,35070,1,0,0:0:0:100:Drum_Snare.ogg
448,192,35445,1,0,0:0:0:100:Drum_Kick.ogg
64,192,35445,128,0,35820:0:0:0:100:DB_D1.ogg
320,192,35820,1,0,0:0:0:100:Drum_Snare.ogg
192,192,36007,1,0,0:0:0:0:
320,192,36195,1,0,0:0:0:0:
448,192,36382,1,0,0:0:0:0:
192,192,36570,1,0,0:0:0:100:Drum_Tom Tom 1.ogg
64,192,36570,128,0,36945:0:0:0:100:DB_G0.ogg
448,192,36945,1,0,0:0:0:70:Drum_Tom Tom 1.ogg
320,192,37132,1,0,0:0:0:0:
192,192,37320,1,0,0:0:0:50:Drum_Tom Tom 1.ogg
320,192,37507,1,0,0:0:0:0:
64,192,37695,1,0,0:0:0:100:Drum_Tom Tom 1.ogg
448,192,37695,128,0,38070:0:0:0:100:DB_C1.ogg
320,192,38070,1,0,0:0:0:50:Drum_Tom Tom 1.ogg
192,192,38257,1,0,0:0:0:0:
64,192,38445,1,0,0:0:0:50:Drum_Tom Tom 1.ogg
192,192,38632,1,0,0:0:0:0:
448,192,38820,1,0,0:0:0:100:Drum_Tom Tom 1.ogg
320,192,38820,128,0,39195:0:0:0:100:DB_A0.ogg
192,192,39195,1,0,0:0:0:50:Drum_Tom Tom 1.ogg
448,192,39382,1,0,0:0:0:0:
320,192,39570,1,0,0:0:0:80:Drum_Tom Tom 1.ogg
64,192,39757,1,0,0:0:0:0:
448,192,39945,1,0,0:0:0:50:Drum_Tom Tom 1.ogg
192,192,39945,128,0,40320:0:0:0:100:DB_D0.ogg
448,192,40695,1,0,0:0:0:0:
320,192,40695,1,0,0:0:0:0:
64,192,41070,128,0,41445:0:0:0:100:Drum_Cymbals A.ogg
448,192,41445,1,0,0:0:0:0:
448,192,41820,128,0,42195:0:0:0:0:
192,192,42195,128,0,42570:0:0:0:0:
320,192,42570,128,0,42945:0:0:0:0:
64,192,43320,128,0,43695:0:0:0:0:
320,192,43695,1,0,0:0:0:0:
320,192,44070,128,0,44445:0:0:0:0:
64,192,44445,128,0,44820:0:0:0:0:
448,192,44445,128,0,44820:0:0:0:0:
320,192,44820,1,0,0:0:0:0:
192,192,44945,1,0,0:0:0:0:
448,192,45070,1,0,0:0:0:0:
320,192,45195,1,0,0:0:0:0:
192,192,45320,1,0,0:0:0:0:
320,192,45445,1,0,0:0:0:0:
64,192,45570,1,0,0:0:0:100:Drum_Kick.ogg
192,192,45570,1,0,0:0:0:100:DB_F0.ogg
448,192,45945,1,0,0:0:0:100:Drum_Snare.ogg
448,192,46320,1,0,0:0:0:90:Drum_Snare.ogg
64,192,46695,1,0,0:0:0:100:Drum_Kick.ogg
320,192,46695,1,0,0:0:0:100:DB_C1.ogg
448,192,47070,1,0,0:0:0:100:Drum_Snare.ogg
448,192,47445,1,0,0:0:0:90:Drum_Snare.ogg
64,192,47820,1,0,0:0:0:100:Drum_Kick.ogg
192,192,47820,1,0,0:0:0:100:DB_F0.ogg
448,192,48195,1,0,0:0:0:100:Drum_Snare.ogg
448,192,48570,1,0,0:0:0:90:Drum_Snare.ogg
64,192,48945,1,0,0:0:0:100:Drum_Kick.ogg
320,192,48945,1,0,0:0:0:100:DB_F0.ogg
448,192,49320,1,0,0:0:0:100:Drum_Snare.ogg
64,192,49695,1,0,0:0:0:90:Drum_Snare.ogg
320,192,49695,1,0,0:0:0:100:DB_F#0.ogg
192,192,50070,1,0,0:0:0:100:Drum_Kick.ogg
448,192,50070,1,0,0:0:0:100:DB_G0.ogg
320,192,50445,1,0,0:0:0:100:Drum_Snare.ogg
320,192,50820,1,0,0:0:0:90:Drum_Snare.ogg
448,192,51195,1,0,0:0:0:100:Drum_Kick.ogg
64,192,51195,1,0,0:0:0:100:DB_C1.ogg
192,192,51570,1,0,0:0:0:100:Drum_Snare.ogg
192,192,51945,1,0,0:0:0:90:Drum_Snare.ogg
64,192,52320,1,0,0:0:0:100:Drum_Kick.ogg
320,192,52320,1,0,0:0:0:100:DB_A0.ogg
448,192,52695,1,0,0:0:0:100:Drum_Snare.ogg
448,192,53070,1,0,0:0:0:90:Drum_Snare.ogg
64,192,53445,1,0,0:0:0:100:Drum_Kick.ogg
192,192,53445,1,0,0:0:0:100:DB_D1.ogg
320,192,53820,1,0,0:0:0:55:Drum_Snare.ogg
64,192,54570,1,0,0:0:0:100:Drum_Cymbals A.ogg
448,192,54570,1,0,0:0:0:100:DB_G1.ogg
192,192,54570,1,0,0:0:0:0:
64,192,54945,1,0,0:0:0:0:
192,192,55132,1,0,0:0:0:0:
320,192,55320,1,0,0:0:0:0:
448,192,55538,1,0,0:0:0:0:
192,192,55695,128,0,56070:0:0:0:100:DB_C1.ogg
320,192,55695,1,0,0:0:0:0:
64,192,56070,1,0,0:0:0:0:
448,192,56445,1,0,0:0:0:0:
192,192,56820,1,0,0:0:0:100:DB_A0.ogg
320,192,56820,128,0,57570:0:0:0:0:
448,192,57570,1,0,0:0:0:0:
64,192,57945,1,0,0:0:0:100:DB_D1.ogg
192,192,57945,128,0,58320:0:0:0:0:
64,192,59070,1,0,0:0:0:50:Drum_Snare.ogg
448,192,59445,1,0,0:0:0:50:Drum_Snare.ogg
448,192,59820,1,0,0:0:0:50:Drum_Snare.ogg
192,192,60195,1,0,0:0:0:50:Drum_Snare.ogg
320,192,60570,1,0,0:0:0:50:Drum_Snare.ogg
192,192,61320,1,0,0:0:0:50:Drum_Snare.ogg
320,192,61695,1,0,0:0:0:50:Drum_Snare.ogg
320,192,62070,1,0,0:0:0:50:Drum_Snare.ogg
64,192,62445,1,0,0:0:0:50:Drum_Snare.ogg
320,192,62820,1,0,0:0:0:50:Drum_Snare.ogg
320,192,63195,1,0,0:0:0:50:Drum_Snare.ogg
64,192,63570,1,0,0:0:0:100:Drum_Kick.ogg
192,192,63570,1,0,0:0:0:100:DB_F0.ogg
448,192,63945,1,0,0:0:0:80:Drum_Snare.ogg
448,192,64320,1,0,0:0:0:85:Drum_Snare.ogg
320,192,64695,1,0,0:0:0:100:Drum_Kick.ogg
192,192,64695,1,0,0:0:0:100:DB_A#0.ogg
448,192,65070,1,0,0:0:0:80:Drum_Snare.ogg
448,192,65445,1,0,0:0:0:80:Drum_Snare.ogg
64,192,65820,1,0,0:0:0:100:Drum_Kick.ogg
320,192,65820,1,0,0:0:0:100:DB_D1.ogg
192,192,66195,1,0,0:0:0:80:Drum_Snare.ogg
192,192,66570,1,0,0:0:0:85:Drum_Snare.ogg
320,192,66945,1,0,0:0:0:100:Drum_Kick.ogg
64,192,66945,1,0,0:0:0:100:DB_A#0.ogg
448,192,67320,1,0,0:0:0:80:Drum_Snare.ogg
448,192,67695,1,0,0:0:0:80:Drum_Snare.ogg
320,192,67695,1,0,0:0:0:0:
64,192,68070,1,0,0:0:0:100:Drum_Kick.ogg
192,192,68070,1,0,0:0:0:100:DB_F0.ogg
320,192,68445,1,0,0:0:0:80:Drum_Snare.ogg
320,192,68820,1,0,0:0:0:85:Drum_Snare.ogg
64,192,69195,1,0,0:0:0:100:Drum_Kick.ogg
192,192,69195,1,0,0:0:0:100:DB_A#0.ogg
448,192,69570,1,0,0:0:0:80:Drum_Snare.ogg
448,192,69945,1,0,0:0:0:80:Drum_Snare.ogg
64,192,70320,1,0,0:0:0:100:Drum_Kick.ogg
320,192,70320,1,0,0:0:0:100:DB_C1.ogg
192,192,70695,1,0,0:0:0:80:Drum_Snare.ogg
192,192,71070,1,0,0:0:0:85:Drum_Snare.ogg
64,192,71445,1,0,0:0:0:100:Drum_Kick.ogg
448,192,71445,1,0,0:0:0:100:DB_D1.ogg
320,192,71820,1,0,0:0:0:80:Drum_Snare.ogg
320,192,72195,1,0,0:0:0:80:Drum_Snare.ogg
64,192,72570,128,0,72945:0:0:0:100:Drum_Kick.ogg
192,192,72570,128,0,72945:0:0:0:100:DB_F0.ogg
448,192,72945,1,0,0:0:0:80:Drum_Snare.ogg
448,192,73320,1,0,0:0:0:85:Drum_Snare.ogg
320,192,73695,128,0,74070:0:0:0:100:Drum_Kick.ogg
64,192,73695,128,0,74070:0:0:0:100:DB_C1.ogg
448,192,74070,1,0,0:0:0:80:Drum_Snare.ogg
448,192,74445,1,0,0:0:0:80:Drum_Snare.ogg
64,192,74820,1,0,0:0:0:100:Drum_Kick.ogg
192,192,74820,1,0,0:0:0:100:DB_F0.ogg
320,192,75195,1,0,0:0:0:80:Drum_Snare.ogg
320,192,75570,1,0,0:0:0:85:Drum_Snare.ogg
64,192,75945,1,0,0:0:0:100:Drum_Kick.ogg
192,192,75945,1,0,0:0:0:100:DB_F0.ogg
448,192,76320,1,0,0:0:0:80:Drum_Snare.ogg
64,192,76695,1,0,0:0:0:80:Drum_Snare.ogg
320,192,76695,1,0,0:0:0:100:DB_F#0.ogg
192,192,77070,128,0,77445:0:0:0:100:Drum_Kick.ogg
448,192,77070,128,0,77445:0:0:0:100:DB_G0.ogg
320,192,77445,1,0,0:0:0:80:Drum_Snare.ogg
320,192,77820,1,0,0:0:0:85:Drum_Snare.ogg
64,192,78195,128,0,78570:0:0:0:100:Drum_Kick.ogg
448,192,78195,128,0,78570:0:0:0:100:DB_C1.ogg
192,192,78570,1,0,0:0:0:80:Drum_Snare.ogg
192,192,78945,1,0,0:0:0:80:Drum_Snare.ogg
320,192,79320,128,0,79695:0:0:0:100:Drum_Kick.ogg
64,192,79320,128,0,79695:0:0:0:100:DB_A0.ogg
448,192,79695,1,0,0:0:0:80:Drum_Snare.ogg
448,192,80070,1,0,0:0:0:85:Drum_Snare.ogg
320,192,80445,128,0,80820:0:0:0:100:Drum_Kick.ogg
192,192,80445,128,0,80820:0:0:0:100:DB_D1.ogg
448,192,80820,1,0,0:0:0:80:Drum_Snare.ogg
192,192,81570,1,0,0:0:0:80:Piano_n4 F4.ogg
448,192,81570,1,0,0:0:0:80:Piano_n1 G1.wav
64,192,81998,1,0,0:0:0:80:Piano_n4 E4.ogg
192,192,82427,1,0,0:0:0:80:Piano_n4 F4.ogg
320,192,82855,1,0,0:0:0:80:Piano_n4 G4.ogg
64,192,82855,1,0,0:0:0:80:Piano_n1 C2.ogg
192,192,83284,1,0,0:0:0:80:Piano_n4 F4.ogg
320,192,83712,1,0,0:0:0:80:Piano_n4 G4 0.5.ogg
192,192,83927,1,0,0:0:0:80:Piano_n4 F4 0.5.ogg
448,192,84141,1,0,0:0:0:80:Piano_n2 A2.wav
64,192,84141,1,0,0:0:0:80:Piano_n4 C5.ogg
320,192,84570,1,0,0:0:0:80:Piano_n4 E5.ogg
448,192,84998,1,0,0:0:0:80:Piano_n4 F5.ogg
64,192,85427,128,0,86255:0:0:0:80:Piano_n44 c5.ogg
320,192,86255,1,0,0:0:0:80:Piano_n44 g3.ogg
448,192,86630,1,0,0:0:0:100:Drum_Cymbals A.ogg
192,192,86630,128,0,90005:0:0:0:0:
448,192,90005,5,0,0:0:0:0:
320,192,90380,1,0,0:0:0:0:
192,192,90755,5,0,0:0:0:100:Drum_Tom3.ogg
320,192,91005,1,0,0:0:0:100:Drum_Tom2.ogg
448,192,91130,1,0,0:0:0:100:Drum_Kick.ogg
192,192,91130,1,0,0:0:0:100:DB_F0.ogg
64,192,91505,1,0,0:0:0:80:Drum_Snare.ogg
320,192,91505,1,0,0:0:0:0:
64,192,92255,1,0,0:0:0:100:Drum_Kick.ogg
448,192,92255,1,0,0:0:0:100:DB_F0.ogg
192,192,92255,1,0,0:0:0:0:
192,192,92630,1,0,0:0:0:80:Drum_Snare.ogg
64,192,92630,1,0,0:0:0:0:
320,192,93005,1,0,0:0:0:80:Drum_Snare.ogg
448,192,93255,1,0,0:0:0:70:Drum_Snare.ogg
64,192,93380,1,0,0:0:0:100:Drum_Kick.ogg
192,192,93380,1,0,0:0:0:100:DB_F0.ogg
192,192,93755,1,0,0:0:0:80:Drum_Snare.ogg
320,192,93755,1,0,0:0:0:0:
64,192,94505,1,0,0:0:0:100:Drum_Kick.ogg
320,192,94505,1,0,0:0:0:100:DB_F0.ogg
448,192,94505,1,0,0:0:0:0:
192,192,94880,1,0,0:0:0:80:Drum_Snare.ogg
448,192,94880,1,0,0:0:0:0:
64,192,95255,1,0,0:0:0:80:Drum_Snare.ogg
192,192,95505,1,0,0:0:0:70:Drum_Snare.ogg
320,192,95630,128,0,96005:0:0:0:100:Drum_Kick.ogg
448,192,95630,128,0,96005:0:0:0:100:DB_G0.ogg
64,192,96005,1,0,0:0:0:80:Drum_Snare.ogg
192,192,96005,1,0,0:0:0:0:
448,192,96755,128,0,97505:0:0:0:100:DB_C1.ogg
64,192,96755,1,0,0:0:0:100:Drum_Kick.ogg
192,192,96755,128,0,97505:0:0:0:0:
320,192,97755,1,0,0:0:0:70:Drum_Snare.ogg
64,192,97880,1,0,0:0:0:100:Drum_Kick.ogg
192,192,97880,1,0,0:0:0:100:DB_A0.ogg
192,192,98255,1,0,0:0:0:80:Drum_Snare.ogg
320,192,98630,1,0,0:0:0:85:Drum_Snare.ogg
320,192,99005,128,0,99755:0:0:0:100:Drum_Kick.ogg
448,192,99005,128,0,99755:0:0:0:100:DB_D1.ogg
64,192,99005,1,0,0:0:0:0:
64,192,100005,1,0,0:0:0:70:Drum_Snare.ogg
192,192,100130,1,0,0:0:0:100:Drum_Kick.ogg
448,192,100130,1,0,0:0:0:100:DB_G0.ogg
64,192,100505,1,0,0:0:0:80:Drum_Snare.ogg
320,192,100505,1,0,0:0:0:0:
320,192,101255,128,0,101630:0:0:0:100:Drum_Kick.ogg
448,192,101255,128,0,101630:0:0:0:100:DB_C1.ogg
192,192,101630,128,0,102005:0:0:0:80:Drum_Snare.ogg
64,192,101630,128,0,102005:0:0:0:0:
64,192,102380,128,0,102755:0:0:0:100:Drum_Kick.ogg
320,192,102380,128,0,102755:0:0:0:100:DB_A0.ogg
192,192,102755,128,0,103130:0:0:0:80:Drum_Snare.ogg
320,192,103130,128,0,103505:0:0:0:85:Drum_Snare.ogg
448,192,103505,128,0,104067:0:0:0:100:Drum_Kick.ogg
64,192,103505,128,0,104067:0:0:0:100:DB_D1.ogg
64,192,104630,1,0,0:0:0:100:Drum_Kick.ogg
320,192,105005,1,0,0:0:0:100:Drum_Tom Tom 1.ogg
64,192,105005,1,0,0:0:0:0:
192,192,105380,1,0,0:0:0:100:Drum_Tom Tom 1.ogg
448,192,105380,1,0,0:0:0:0:
64,192,105755,1,0,0:0:0:100:Drum_Kick.ogg
192,192,106130,1,0,0:0:0:100:Drum_Tom Tom 1.ogg
320,192,106130,1,0,0:0:0:0:
192,192,106505,1,0,0:0:0:100:Drum_Tom Tom 1.ogg
448,192,106505,1,0,0:0:0:0:
64,192,106880,1,0,0:0:0:100:DB_F0.ogg
192,192,107255,1,0,0:0:0:100:DB_F0.ogg
320,192,107255,1,0,0:0:0:0:
320,192,107630,1,0,0:0:0:100:DB_F0.ogg
448,192,107630,1,0,0:0:0:0:
448,192,108005,128,0,108755:0:0:0:0:
320,192,108380,128,0,108755:0:0:0:0:
192,192,108755,128,0,109130:0:0:0:0:
448,192,109130,1,0,0:0:0:100:Drum_Cymbals A.ogg
64,192,109130,1,0,0:0:0:100:Drum_Kick.ogg
320,192,109505,1,0,0:0:0:80:Drum_Snare.ogg
320,192,109880,1,0,0:0:0:85:Drum_Snare.ogg
64,192,110255,1,0,0:0:0:100:Drum_Kick.ogg
192,192,110255,1,0,0:0:0:100:DB_F0.ogg
448,192,110255,1,0,0:0:0:0:
320,192,110630,1,0,0:0:0:80:Drum_Snare.ogg
192,192,111005,1,0,0:0:0:100:Drum_Kick.ogg
320,192,111255,1,0,0:0:0:70:Drum_Snare.ogg
448,192,111380,1,0,0:0:0:100:Drum_Kick.ogg
64,192,111380,1,0,0:0:0:100:DB_F0.ogg
192,192,111755,1,0,0:0:0:80:Drum_Snare.ogg
192,192,112130,1,0,0:0:0:85:Drum_Snare.ogg
64,192,112505,1,0,0:0:0:100:Drum_Kick.ogg
448,192,112505,1,0,0:0:0:100:DB_F0.ogg
320,192,112505,1,0,0:0:0:0:
192,192,112880,1,0,0:0:0:80:Drum_Snare.ogg
448,192,113255,1,0,0:0:0:80:Drum_Snare.ogg
64,192,113505,1,0,0:0:0:70:Drum_Snare.ogg
192,192,113630,128,0,114005:0:0:0:100:Drum_Kick.ogg
448,192,113630,128,0,114005:0:0:0:100:DB_G0.ogg
64,192,114005,1,0,0:0:0:80:Drum_Snare.ogg
64,192,114380,1,0,0:0:0:80:Drum_Snare.ogg
448,192,114755,1,0,0:0:0:100:Drum_Kick.ogg
320,192,114755,128,0,115505:0:0:0:100:DB_C1.ogg
192,192,114755,1,0,0:0:0:0:
192,192,115130,1,0,0:0:0:80:Drum_Snare.ogg
448,192,115505,1,0,0:0:0:80:Drum_Snare.ogg
64,192,115755,1,0,0:0:0:70:Drum_Snare.ogg
192,192,115880,1,0,0:0:0:100:Drum_Kick.ogg
320,192,115880,1,0,0:0:0:100:DB_A0.wav
320,192,116255,1,0,0:0:0:80:Drum_Snare.ogg
448,192,116630,1,0,0:0:0:85:Drum_Snare.ogg
448,192,117005,128,0,117755:0:0:0:100:Drum_Kick.ogg
192,192,117005,128,0,117755:0:0:0:100:DB_D1.ogg
320,192,117005,1,0,0:0:0:0:
192,192,118130,128,0,118880:0:0:0:100:Drum_Kick.ogg
448,192,118130,1,0,0:0:0:100:DB_G0.ogg
64,192,118505,128,0,118880:0:0:0:80:Drum_Snare.ogg
448,192,118880,1,0,0:0:0:85:Drum_Snare.ogg
448,192,119255,128,0,120005:0:0:0:100:Drum_Kick.ogg
192,192,119255,1,0,0:0:0:100:DB_C1.ogg
64,192,119630,128,0,120005:0:0:0:80:Drum_Snare.ogg
320,192,120005,1,0,0:0:0:80:Drum_Snare.ogg
320,192,120380,128,0,121130:0:0:0:100:Drum_Kick.ogg
64,192,120380,1,0,0:0:0:100:DB_A0.ogg
448,192,120755,128,0,121130:0:0:0:80:Drum_Snare.ogg
192,192,121130,1,0,0:0:0:85:Drum_Snare.ogg
192,192,121505,128,0,122255:0:0:0:100:Drum_Kick.ogg
320,192,121505,1,0,0:0:0:100:DB_D1.ogg
64,192,121880,1,0,0:0:0:80:Drum_Snare.ogg
448,192,122255,1,0,0:0:0:80:Drum_Snare.ogg
64,192,122630,1,0,0:0:0:100:Drum_Kick.ogg
448,192,123005,1,0,0:0:0:0:
448,192,123380,1,0,0:0:0:0:
64,192,123755,1,0,0:0:0:100:Drum_Kick.ogg
320,192,124130,1,0,0:0:0:0:
192,192,124880,1,0,0:0:0:100:Drum_Kick.ogg
448,192,125255,1,0,0:0:0:0:
448,192,125630,1,0,0:0:0:0:
192,192,126005,1,0,0:0:0:100:Drum_Kick.ogg
448,192,126380,1,0,0:0:0:100:Drum_Tom4.ogg
64,192,126630,1,0,0:0:0:80:Drum_Tom1.wav
448,192,126880,1,0,0:0:0:70:Drum_Tom1.wav
192,192,127130,1,0,0:0:0:100:Drum_Kick.ogg
64,192,127130,128,0,127505:0:0:0:100:DB_G0.ogg
448,192,127505,1,0,0:0:0:80:Drum_Snare.ogg
192,192,127755,1,0,0:0:0:70:Drum_Snare.ogg
448,192,127880,1,0,0:0:0:85:Drum_Snare.ogg
64,192,128255,1,0,0:0:0:100:Drum_Kick.ogg
320,192,128255,128,0,128630:0:0:0:100:DB_C1.ogg
448,192,128630,1,0,0:0:0:80:Drum_Snare.ogg
192,192,128880,1,0,0:0:0:0:
320,192,129005,1,0,0:0:0:80:Drum_Snare.ogg
448,192,129380,1,0,0:0:0:100:Drum_Kick.ogg
64,192,129380,128,0,129755:0:0:0:100:DB_F1.ogg
320,192,129755,1,0,0:0:0:80:Drum_Snare.ogg
192,192,130005,1,0,0:0:0:70:Drum_Snare.ogg
320,192,130130,1,0,0:0:0:85:Drum_Snare.ogg
448,192,130505,1,0,0:0:0:100:Drum_Kick.ogg
192,192,130505,128,0,130880:0:0:0:100:DB_A#1.ogg
320,192,130880,1,0,0:0:0:80:Drum_Snare.ogg
64,192,131130,1,0,0:0:0:0:
448,192,131255,1,0,0:0:0:80:Drum_Snare.ogg
192,192,131630,1,0,0:0:0:100:Drum_Kick.ogg
320,192,131630,128,0,132005:0:0:0:100:DB_D#1.ogg
448,192,132005,1,0,0:0:0:80:Drum_Snare.ogg
64,192,132255,1,0,0:0:0:70:Drum_Snare.ogg
320,192,132380,1,0,0:0:0:85:Drum_Snare.ogg
192,192,132755,1,0,0:0:0:100:Drum_Kick.ogg
448,192,132755,128,0,133130:0:0:0:100:DB_G#1.ogg
320,192,133130,1,0,0:0:0:80:Drum_Snare.ogg
192,192,133380,1,0,0:0:0:0:
448,192,133505,1,0,0:0:0:80:Drum_Snare.ogg
192,192,133880,128,0,134255:0:0:0:100:Drum_Kick.ogg
64,192,133880,1,0,0:0:0:100:DB_C#1.ogg
320,192,134255,1,0,0:0:0:80:Drum_Snare.ogg
192,192,134505,1,0,0:0:0:70:Drum_Snare.ogg
448,192,134630,1,0,0:0:0:85:Drum_Snare.ogg
320,192,135005,1,0,0:0:0:100:Drum_Kick.ogg
448,192,135005,128,0,135380:0:0:0:100:DB_F#1.ogg
320,192,135380,1,0,0:0:0:80:Drum_Snare.ogg
192,192,135630,1,0,0:0:0:0:
320,192,135755,1,0,0:0:0:80:Drum_Snare.ogg
192,192,136005,1,0,0:0:0:70:Drum_Snare.ogg
320,192,136130,1,0,0:0:0:100:Drum_Kick.ogg
64,192,136130,128,0,136505:0:0:0:100:DB_B0.ogg
320,192,136505,1,0,0:0:0:80:Drum_Snare.ogg
448,192,136505,1,0,0:0:0:0:
192,192,136755,1,0,0:0:0:70:Drum_Snare.ogg
448,192,136880,1,0,0:0:0:85:Drum_Snare.ogg
192,192,137255,1,0,0:0:0:100:Drum_Kick.ogg
448,192,137255,128,0,137630:0:0:0:100:DB_E1.ogg
320,192,137630,1,0,0:0:0:80:Drum_Snare.ogg
192,192,137630,1,0,0:0:0:0:
64,192,137880,1,0,0:0:0:0:
320,192,138005,1,0,0:0:0:80:Drum_Snare.ogg
448,192,138380,1,0,0:0:0:100:Drum_Kick.ogg
64,192,138380,128,0,138755:0:0:0:100:DB_C#1.ogg
448,192,138755,1,0,0:0:0:80:Drum_Snare.ogg
320,192,138755,1,0,0:0:0:0:
192,192,139005,1,0,0:0:0:70:Drum_Snare.ogg
320,192,139130,1,0,0:0:0:85:Drum_Snare.ogg
192,192,139505,128,0,139880:0:0:0:100:Drum_Kick.ogg
64,192,139505,128,0,139880:0:0:0:100:DB_G1.ogg
320,192,139880,128,0,140255:0:0:0:80:Drum_Snare.ogg
448,192,139880,128,0,140255:0:0:0:0:
192,192,140255,1,0,0:0:0:80:Drum_Snare.ogg
320,192,140630,1,0,0:0:0:100:Drum_Kick.ogg
64,192,140630,128,0,141005:0:0:0:100:DB_B0.ogg
448,192,141005,1,0,0:0:0:80:Drum_Snare.ogg
320,192,141005,1,0,0:0:0:0:
192,192,141255,1,0,0:0:0:70:Drum_Snare.ogg
448,192,141380,1,0,0:0:0:85:Drum_Snare.ogg
64,192,141755,1,0,0:0:0:100:Drum_Kick.ogg
320,192,141755,128,0,142130:0:0:0:100:DB_E1.ogg
192,192,142130,1,0,0:0:0:80:Drum_Snare.ogg
64,192,142130,1,0,0:0:0:0:
448,192,142505,1,0,0:0:0:80:Drum_Snare.ogg
320,192,142630,1,0,0:0:0:0:
192,192,142755,1,0,0:0:0:70:Drum_Snare.ogg
64,192,142880,128,0,143255:0:0:0:100:Drum_Kick.ogg
448,192,142880,128,0,143255:0:0:0:100:DB_A0.ogg
320,192,143255,1,0,0:0:0:0:
192,192,143630,1,0,0:0:0:0:
64,192,144005,1,0,0:0:0:0:
448,192,144005,1,0,0:0:0:0:
448,192,144380,1,0,0:0:0:80:Drum_Snare.ogg
192,192,144630,1,0,0:0:0:0:
320,192,144880,1,0,0:0:0:0:
64,192,145130,1,0,0:0:0:100:Drum_Kick.ogg
320,192,145505,1,0,0:0:0:80:Drum_Snare.ogg
448,192,145505,1,0,0:0:0:0:
320,192,145880,1,0,0:0:0:85:Drum_Snare.ogg
448,192,145880,1,0,0:0:0:0:
192,192,146255,1,0,0:0:0:100:Drum_Kick.ogg
320,192,146630,1,0,0:0:0:80:Drum_Snare.ogg
448,192,146630,1,0,0:0:0:0:
320,192,147005,1,0,0:0:0:80:Drum_Snare.ogg
448,192,147005,1,0,0:0:0:0:
64,192,147380,1,0,0:0:0:100:Drum_Kick.ogg
192,192,147755,1,0,0:0:0:80:Drum_Snare.ogg
448,192,147755,1,0,0:0:0:0:
192,192,148130,1,0,0:0:0:85:Drum_Snare.ogg
448,192,148130,1,0,0:0:0:0:
64,192,148505,1,0,0:0:0:100:Drum_Kick.ogg
320,192,148880,1,0,0:0:0:80:Drum_Snare.ogg
448,192,148880,1,0,0:0:0:0:
448,192,149255,1,0,0:0:0:80:Drum_Snare.ogg
320,192,149255,1,0,0:0:0:0:
64,192,149630,1,0,0:0:0:100:Drum_Kick.ogg
192,192,150005,1,0,0:0:0:80:Drum_Snare.ogg
448,192,150005,1,0,0:0:0:0:
192,192,150380,1,0,0:0:0:85:Drum_Snare.ogg
448,192,150380,1,0,0:0:0:0:
64,192,150755,1,0,0:0:0:100:Drum_Kick.ogg
320,192,151130,1,0,0:0:0:80:Drum_Snare.ogg
448,192,151130,1,0,0:0:0:0:
448,192,151505,1,0,0:0:0:80:Drum_Snare.ogg
320,192,151505,1,0,0:0:0:0:
64,192,151880,1,0,0:0:0:100:Drum_Kick.ogg
192,192,152255,1,0,0:0:0:80:Drum_Snare.ogg
320,192,152255,1,0,0:0:0:0:
192,192,152630,1,0,0:0:0:85:Drum_Snare.ogg
320,192,152630,1,0,0:0:0:0:
448,192,153005,1,0,0:0:0:100:Drum_Kick.ogg
64,192,153380,1,0,0:0:0:80:Drum_Snare.ogg
320,192,153380,1,0,0:0:0:0:
192,192,153755,1,0,0:0:0:80:Drum_Snare.ogg
448,192,153755,1,0,0:0:0:0:
192,192,154130,1,0,0:0:0:100:Drum_Kick.ogg
320,192,154505,1,0,0:0:0:80:Drum_Snare.ogg
64,192,154505,1,0,0:0:0:0:
192,192,154880,1,0,0:0:0:85:Drum_Snare.ogg
448,192,154880,1,0,0:0:0:0:
320,192,155255,1,0,0:0:0:100:Drum_Kick.ogg
64,192,155630,1,0,0:0:0:80:Drum_Snare.ogg
320,192,155630,1,0,0:0:0:0:
192,192,156005,1,0,0:0:0:80:Drum_Snare.ogg
448,192,156005,1,0,0:0:0:0:
64,192,156380,1,0,0:0:0:100:Drum_Kick.ogg
64,192,156755,1,0,0:0:0:80:Drum_Snare.ogg
192,192,156755,1,0,0:0:0:0:
192,192,157130,1,0,0:0:0:85:Drum_Snare.ogg
320,192,157130,1,0,0:0:0:0:
448,192,157505,1,0,0:0:0:100:Drum_Kick.ogg
448,192,157880,1,0,0:0:0:80:Drum_Snare.ogg
320,192,157880,1,0,0:0:0:0:
320,192,158255,1,0,0:0:0:80:Drum_Snare.ogg
192,192,158255,1,0,0:0:0:100:DB_A#0.ogg
64,192,158630,1,0,0:0:0:100:Drum_Kick.ogg
448,192,158630,1,0,0:0:0:100:DB_B0.ogg
192,192,159005,1,0,0:0:0:80:Drum_Snare.ogg
320,192,159380,1,0,0:0:0:85:Drum_Snare.ogg
64,192,159755,1,0,0:0:0:100:Drum_Kick.ogg
448,192,159755,1,0,0:0:0:100:DB_E1.ogg
320,192,160130,1,0,0:0:0:80:Drum_Snare.ogg
192,192,160505,1,0,0:0:0:80:Drum_Snare.ogg
64,192,160880,1,0,0:0:0:100:Drum_Kick.ogg
320,192,160880,1,0,0:0:0:100:DB_C#1.ogg
192,192,161255,1,0,0:0:0:80:Drum_Snare.ogg
320,192,161630,1,0,0:0:0:85:Drum_Snare.ogg
448,192,162005,1,0,0:0:0:100:Drum_Kick.ogg
192,192,162005,1,0,0:0:0:100:DB_F#1.ogg
320,192,162380,1,0,0:0:0:80:Drum_Snare.ogg
192,192,162755,1,0,0:0:0:80:Drum_Snare.ogg
64,192,163130,1,0,0:0:0:100:Drum_Kick.ogg
192,192,163130,1,0,0:0:0:100:DB_B0.ogg
448,192,163130,1,0,0:0:0:0:
320,192,163505,1,0,0:0:0:100:Drum_Tom Tom 1.ogg
448,192,163880,1,0,0:0:0:100:Drum_Tom Tom 1.ogg
320,192,164005,1,0,0:0:0:0:
192,192,164130,1,0,0:0:0:0:
64,192,164255,1,0,0:0:0:100:Drum_Kick.ogg
448,192,164255,1,0,0:0:0:100:DB_E0.ogg
192,192,164630,1,0,0:0:0:100:Drum_Tom Tom 1.ogg
320,192,165005,1,0,0:0:0:100:Drum_Tom Tom 1.ogg
192,192,165130,1,0,0:0:0:0:
64,192,165255,1,0,0:0:0:0:
192,192,165380,1,0,0:0:0:100:Drum_Kick.ogg
448,192,165380,1,0,0:0:0:100:DB_C#1.ogg
320,192,165755,1,0,0:0:0:100:Drum_Tom Tom 1.ogg
192,192,166130,1,0,0:0:0:100:Drum_Tom Tom 1.ogg
320,192,166255,1,0,0:0:0:0:
448,192,166380,1,0,0:0:0:0:
64,192,166505,1,0,0:0:0:100:Drum_Kick.ogg
192,192,166505,1,0,0:0:0:100:DB_F#1.ogg
320,192,166880,1,0,0:0:0:100:Drum_Tom Tom 1.ogg
192,192,167130,1,0,0:0:0:0:
320,192,167380,1,0,0:0:0:0:
64,192,167630,128,0,168005:0:0:0:100:Drum_Cymbals A.ogg
320,192,168005,1,0,0:0:0:0:
320,192,168380,128,0,168755:0:0:0:0:
192,192,168755,128,0,169130:0:0:0:0:
448,192,169130,128,0,169505:0:0:0:0:
320,192,169880,128,0,170255:0:0:0:0:
64,192,170255,1,0,0:0:0:0:
64,192,170630,128,0,171005:0:0:0:0:
448,192,171005,1,0,0:0:0:0:
64,192,172130,128,0,172880:0:0:0:0:
320,192,172130,1,0,0:0:0:0:
192,192,172505,1,0,0:0:0:0:
320,192,172880,1,0,0:0:0:0:
448,192,173255,1,0,0:0:0:0:
192,192,173255,128,0,174005:0:0:0:0:
320,192,173630,1,0,0:0:0:0:
448,192,174005,1,0,0:0:0:0:
64,192,174380,1,0,0:0:0:0:
192,192,174380,128,0,175130:0:0:0:0:
320,192,174755,1,0,0:0:0:0:
448,192,175130,1,0,0:0:0:0:
320,192,175505,128,0,175880:0:0:0:0:
64,192,175505,1,0,0:0:0:0:
448,192,175880,1,0,0:0:0:0:
192,192,176067,1,0,0:0:0:0:
320,192,176255,1,0,0:0:0:0:
192,192,176442,1,0,0:0:0:0:
64,192,176630,1,0,0:0:0:100:Drum_Cymbals A.ogg
320,192,176630,1,0,0:0:0:0:
448,192,176630,1,0,0:0:0:0:
64,192,177005,1,0,0:0:0:0:
64,192,177380,1,0,0:0:0:0:
64,192,177755,1,0,0:0:0:0:
320,192,177755,1,0,0:0:0:0:
192,192,178130,1,0,0:0:0:0:
448,192,178130,1,0,0:0:0:0:
64,192,178505,1,0,0:0:0:0:
320,192,178505,1,0,0:0:0:0:
448,192,178880,1,0,0:0:0:0:
448,192,179255,1,0,0:0:0:0:
448,192,179630,1,0,0:0:0:0:
64,192,179630,1,0,0:0:0:0:
448,192,180005,1,0,0:0:0:100:Drum_Kick.ogg
320,192,180005,1,0,0:0:0:0:
192,192,180380,1,0,0:0:0:80:Drum_Snare.ogg
320,192,180380,1,0,0:0:0:0:
64,192,180630,1,0,0:0:0:80:Drum_Snare.wav
448,192,180880,1,0,0:0:0:70:Drum_Snare.ogg
64,192,181130,1,0,0:0:0:100:Drum_Kick.ogg
320,192,181505,1,0,0:0:0:80:Drum_Snare.ogg
448,192,181505,1,0,0:0:0:0:
192,192,181880,1,0,0:0:0:85:Drum_Snare.ogg
448,192,181880,1,0,0:0:0:0:
64,192,182255,1,0,0:0:0:100:Drum_Kick.ogg
192,192,182630,1,0,0:0:0:80:Drum_Snare.ogg
320,192,182630,1,0,0:0:0:0:
192,192,183005,1,0,0:0:0:80:Drum_Snare.ogg
448,192,183005,1,0,0:0:0:0:
320,192,183380,1,0,0:0:0:100:Drum_Kick.ogg
448,192,183755,1,0,0:0:0:80:Drum_Snare.ogg
192,192,183755,1,0,0:0:0:0:
192,192,184130,1,0,0:0:0:85:Drum_Snare.ogg
320,192,184130,1,0,0:0:0:0:
448,192,184505,1,0,0:0:0:100:Drum_Kick.ogg
64,192,184880,1,0,0:0:0:80:Drum_Snare.ogg
320,192,184880,1,0,0:0:0:0:
64,192,185255,1,0,0:0:0:80:Drum_Snare.ogg
448,192,185255,1,0,0:0:0:100:DB_A#0.ogg
192,192,185630,1,0,0:0:0:100:Drum_Kick.ogg
320,192,186005,1,0,0:0:0:80:Drum_Snare.ogg
448,192,186005,1,0,0:0:0:0:
320,192,186380,1,0,0:0:0:85:Drum_Snare.ogg
448,192,186380,1,0,0:0:0:0:
64,192,186755,1,0,0:0:0:100:Drum_Kick.ogg
192,192,187130,1,0,0:0:0:80:Drum_Snare.ogg
320,192,187130,1,0,0:0:0:0:
192,192,187505,1,0,0:0:0:80:Drum_Snare.ogg
448,192,187505,1,0,0:0:0:0:
64,192,187880,1,0,0:0:0:100:Drum_Kick.ogg
192,192,188255,1,0,0:0:0:80:Drum_Snare.ogg
448,192,188255,1,0,0:0:0:0:
320,192,188630,1,0,0:0:0:85:Drum_Snare.ogg
448,192,188630,1,0,0:0:0:0:
192,192,189005,1,0,0:0:0:100:Drum_Kick.ogg
64,192,189380,128,0,189755:0:0:0:80:Drum_Snare.ogg
320,192,189380,128,0,189755:0:0:0:0:
320,192,190130,1,0,0:0:0:100:Drum_Cymbals A.ogg
192,192,190505,1,0,0:0:0:0:
320,192,190880,1,0,0:0:0:0:
64,192,191255,128,0,192005:0:0:0:0:
448,192,192005,128,0,192255:0:0:0:0:
320,192,192255,1,0,0:0:0:0:
192,192,192380,128,0,193505:0:0:0:0:
64,192,193505,128,0,194255:0:0:0:100:Drum_Kick.ogg
192,192,194630,128,0,195755:0:0:0:100:Drum_Cymbals A.ogg
448,192,194630,1,0,0:0:0:50:Drum_Tom1.ogg
64,192,195005,1,0,0:0:0:0:
64,192,195380,1,0,0:0:0:0:
320,192,195755,128,0,196880:0:0:0:0:
192,192,196130,1,0,0:0:0:0:
192,192,196505,1,0,0:0:0:0:
448,192,196880,128,0,198005:0:0:0:0:
320,192,197255,1,0,0:0:0:0:
320,192,197630,1,0,0:0:0:0:
192,192,198005,128,0,198380:0:0:0:100:Drum_Kick.ogg
64,192,198005,128,0,198380:0:0:0:0:
448,192,198380,1,0,0:0:0:100:Drum_Tom4.ogg
320,192,198380,1,0,0:0:0:0:
64,192,198755,1,0,0:0:0:0:
320,192,198755,1,0,0:0:0:0:
192,192,199005,1,0,0:0:0:70:Drum_Tom2.ogg
320,192,199130,1,0,0:0:0:100:Drum_Cymbals A.ogg
448,192,199130,1,0,0:0:0:100:DB_A0.ogg
64,192,199505,1,0,0:0:0:80:Drum_Snare.ogg
192,192,199505,1,0,0:0:0:0:
192,192,200255,1,0,0:0:0:100:Drum_Kick.ogg
448,192,200255,1,0,0:0:0:100:DB_A0.ogg
64,192,200630,1,0,0:0:0:80:Drum_Snare.ogg
320,192,200630,1,0,0:0:0:0:
192,192,201005,1,0,0:0:0:80:Drum_Snare.ogg
448,192,201005,1,0,0:0:0:0:
448,192,201255,1,0,0:0:0:70:Drum_Snare.ogg
320,192,201380,1,0,0:0:0:100:Drum_Kick.ogg
192,192,201380,1,0,0:0:0:100:DB_A0.ogg
64,192,201755,1,0,0:0:0:80:Drum_Snare.ogg
192,192,201755,1,0,0:0:0:0:
192,192,202505,1,0,0:0:0:100:Drum_Kick.ogg
448,192,202505,1,0,0:0:0:100:DB_A0.ogg
64,192,202880,1,0,0:0:0:80:Drum_Snare.ogg
320,192,202880,1,0,0:0:0:0:
320,192,203255,1,0,0:0:0:80:Drum_Snare.ogg
448,192,203255,1,0,0:0:0:100:DB_A#0.ogg
64,192,203505,1,0,0:0:0:70:Drum_Snare.ogg
192,192,203505,1,0,0:0:0:0:
320,192,203630,128,0,204005:0:0:0:100:Drum_Kick.ogg
448,192,203630,128,0,204005:0:0:0:100:DB_B0.ogg
192,192,204005,1,0,0:0:0:80:Drum_Snare.ogg
192,192,204755,128,0,205505:0:0:0:100:Drum_Kick.ogg
320,192,204755,128,0,205505:0:0:0:100:DB_E1.ogg
448,192,205755,1,0,0:0:0:70:Drum_Snare.ogg
320,192,205755,1,0,0:0:0:0:
64,192,205880,1,0,0:0:0:100:Drum_Kick.ogg
64,192,206255,1,0,0:0:0:80:Drum_Snare.ogg
192,192,206255,1,0,0:0:0:0:
192,192,206630,1,0,0:0:0:85:Drum_Snare.ogg
320,192,206630,1,0,0:0:0:0:
320,192,207005,128,0,207755:0:0:0:100:Drum_Kick.ogg
448,192,207005,128,0,207755:0:0:0:100:DB_F#1.ogg
192,192,208130,128,0,208880:0:0:0:100:Drum_Snare.ogg
320,192,208880,1,0,0:0:0:100:Drum_Snare.ogg
64,192,209255,128,0,210005:0:0:0:45:Drum_Snare.ogg
448,192,210005,1,0,0:0:0:95:Drum_Snare.ogg
320,192,210380,128,0,211130:0:0:0:100:Drum_Snare.ogg
448,192,211130,1,0,0:0:0:100:Drum_Snare.ogg
192,192,211505,128,0,212255:0:0:0:45:Drum_Snare.ogg
448,192,212255,1,0,0:0:0:95:Drum_Snare.ogg
320,192,212630,128,0,214130:0:0:0:100:Drum_Cymbals A.ogg
320,192,216005,128,0,216755:0:0:0:0:
64,192,216755,128,0,217130:0:0:0:0:
448,192,217130,128,0,218255:0:0:0:100:Drum_Kick.ogg
192,192,217130,1,0,0:0:0:100:DB_B1.ogg
64,192,217505,1,0,0:0:0:50:Drum_Tom Tom 1.ogg
192,192,217880,1,0,0:0:0:50:Drum_Tom Tom 1.ogg
64,192,218255,128,0,219380:0:0:0:100:DB_E1.ogg
320,192,218255,1,0,0:0:0:100:Drum_Kick.ogg
448,192,218630,1,0,0:0:0:50:Drum_Tom Tom 1.ogg
192,192,219005,1,0,0:0:0:50:Drum_Tom Tom 1.ogg
320,192,219380,128,0,220505:0:0:0:100:DB_A1.ogg
448,192,219380,1,0,0:0:0:100:Drum_Kick.ogg
64,192,219755,1,0,0:0:0:50:Drum_Tom Tom 1.ogg
192,192,220130,1,0,0:0:0:50:Drum_Tom Tom 1.ogg
64,192,220505,1,0,0:0:0:100:Drum_Kick.ogg
448,192,220505,1,0,0:0:0:0:
448,192,220880,1,0,0:0:0:100:Drum_Tom4.ogg
192,192,221130,1,0,0:0:0:90:Drum_Tom2.ogg
320,192,221380,1,0,0:0:0:95:Drum_Tom3.ogg
192,192,221505,1,0,0:0:0:70:Drum_Tom2.ogg
64,192,221630,1,0,0:0:0:100:Drum_Cymbals A.ogg
