osu file format v14

[General]
AudioFilename: Snail's House - Magical Holiday.mp3
AudioLeadIn: 0
PreviewTime: 90897
Countdown: 0
SampleSet: Drum
StackLeniency: 0.7
Mode: 3
LetterboxInBreaks: 0
SpecialStyle: 0
WidescreenStoryboard: 1

[Editor]
DistanceSpacing: 1.3
BeatDivisor: 8
GridSize: 4
TimelineZoom: 2.6

[Metadata]
Title:Magical Holiday
TitleUnicode:Magical Holiday
Artist:Snail's House
ArtistUnicode:Snail's House
Creator:Youwhang
Version:Catch the Star! [Hard]
Source:
Tags:Ujico* snailchan future kawaii bass ramunechan chill out electronic downtempo instrumental jazz japan
BeatmapID:1881657
BeatmapSetID:898155

[Difficulty]
HPDrainRate:7.5
CircleSize:4
OverallDifficulty:7.5
ApproachRate:5
SliderMultiplier:1.4
SliderTickRate:1

[Events]
//Background and Video events
Video,-120,"Snails House - Magical Holiday (Official MV).avi"
0,0,"K-710.png",0,0
//Break Periods
//Storyboard Layer 0 (Background)
//Storyboard Layer 1 (Fail)
//Storyboard Layer 2 (Pass)
//Storyboard Layer 3 (Foreground)
//Storyboard Layer 4 (Overlay)
//Storyboard Sound Samples
Sample,194130,0,"Drum_Tom2.wav",90
Sample,194380,0,"Drum_Tom3.wav",95
Sample,194505,0,"Drum_Tom2.wav",70

[TimingPoints]
9570,375,3,3,0,10,1,0
79695,-100,3,3,0,10,0,0
79820,-102.040816326531,3,3,0,10,0,0
79945,-104.166666666667,3,3,0,10,0,0
80070,-106.382978723404,3,3,0,10,0,0
80195,-108.695652173913,3,3,0,10,0,0
80320,-111.111111111111,3,3,0,10,0,0
80445,-113.636363636364,3,3,0,10,0,0
80570,-116.279069767442,3,3,0,10,0,0
80695,-119.047619047619,3,3,0,10,0,0
80820,-121.951219512195,3,3,0,10,0,0
80945,-125,3,3,0,10,0,0
81070,-128.205128205128,3,3,0,10,0,0
81195,-131.578947368421,3,3,0,10,0,0
81320,-135.135135135135,3,3,0,10,0,0
81445,-138.888888888889,3,3,0,10,0,0
81570,428.571428571429,3,3,0,10,1,0
81570,-125,3,3,0,10,0,0
85427,-121.951219512195,3,3,0,10,0,0
85534,-119.047619047619,3,3,0,10,0,0
85641,-116.279069767442,3,3,0,10,0,0
85748,-113.636363636364,3,3,0,10,0,0
85855,400,3,3,0,10,1,0
85855,-119.047619047619,3,3,0,10,0,0
85955,-116.279069767442,3,3,0,10,0,0
86055,-112.359550561798,3,3,0,10,0,0
86155,-111.111111111111,3,3,0,10,0,0
86255,387.096774193548,3,3,0,10,1,0
86255,-108.695652173913,3,3,0,10,0,0
86351,-106.382978723404,3,3,0,10,0,0
86448,-104.166666666667,3,3,0,10,0,0
86545,-103.092783505155,3,3,0,10,0,0
86630,375,3,3,0,10,1,0
86630,-100,3,3,0,10,0,0
91130,-100,4,3,0,10,0,1
126005,-100,4,3,0,10,0,0
181130,-100,4,3,0,10,0,1
221630,-100,4,3,0,10,0,0

[HitObjects]
192,192,8820,128,0,9570:0:0:0:0:
320,192,9195,128,0,9570:0:0:0:0:
64,192,9570,5,0,0:0:0:100:DB_F0.ogg
448,192,9945,1,0,0:0:0:100:Drum_Snare.ogg
320,192,9945,1,0,0:0:0:0:
448,192,10320,1,0,0:0:0:100:Drum_Snare.ogg
320,192,10320,1,0,0:0:0:0:
192,192,10695,1,0,0:0:0:100:DB_C1.ogg
320,192,11070,1,0,0:0:0:100:Drum_Snare.ogg
448,192,11070,1,0,0:0:0:0:
320,192,11445,1,0,0:0:0:100:Drum_Snare.ogg
448,192,11445,1,0,0:0:0:0:
64,192,11820,1,0,0:0:0:100:DB_F0.ogg
192,192,12195,1,0,0:0:0:100:Drum_Snare.ogg
448,192,12195,1,0,0:0:0:0:
320,192,12570,1,0,0:0:0:100:Drum_Snare.ogg
448,192,12570,1,0,0:0:0:0:
192,192,12945,1,0,0:0:0:70:DB_F0.ogg
320,192,13320,1,0,0:0:0:100:Drum_Snare.ogg
448,192,13320,1,0,0:0:0:0:
64,192,13695,1,0,0:0:0:100:Drum_Snare.ogg
320,192,13695,1,0,0:0:0:100:DB_F#0.ogg
192,192,14070,1,0,0:0:0:100:DB_G0.ogg
320,192,14445,1,0,0:0:0:100:Drum_Snare.ogg
448,192,14445,1,0,0:0:0:0:
320,192,14820,1,0,0:0:0:100:Drum_Snare.ogg
448,192,14820,1,0,0:0:0:0:
64,192,15195,1,0,0:0:0:100:DB_C1.ogg
192,192,15570,1,0,0:0:0:100:Drum_Snare.ogg
448,192,15570,1,0,0:0:0:0:
192,192,15945,1,0,0:0:0:100:Drum_Snare.ogg
320,192,15945,1,0,0:0:0:0:
64,192,16320,1,0,0:0:0:100:DB_A0.ogg
192,192,16695,1,0,0:0:0:100:Drum_Snare.ogg
448,192,16695,1,0,0:0:0:0:
64,192,17070,1,0,0:0:0:100:Drum_Snare.ogg
448,192,17070,1,0,0:0:0:0:
320,192,17445,1,0,0:0:0:100:DB_D1.ogg
448,192,17820,1,0,0:0:0:100:Drum_Snare.ogg
64,192,17820,1,0,0:0:0:0:
320,192,18195,1,0,0:0:0:100:Drum_Tom4.ogg
192,192,18445,1,0,0:0:0:65:Drum_Tom2.ogg
64,192,18570,1,0,0:0:0:100:Drum_Timpani G.ogg
320,192,18570,1,0,0:0:0:70:Drum_Tom1.ogg
448,192,18570,1,0,0:0:0:100:DB_G0.ogg
64,192,19695,1,0,0:0:0:100:Drum_Timpani C.ogg
192,192,19695,1,0,0:0:0:100:DB_C0.ogg
448,192,19695,1,0,0:0:0:0:
192,192,20820,1,0,0:0:0:100:Drum_Timpani D.ogg
320,192,20820,1,0,0:0:0:100:DB_A0.ogg
64,192,20820,1,0,0:0:0:0:
192,192,21945,1,0,0:0:0:100:Drum_Timpani D.ogg
320,192,21945,1,0,0:0:0:100:DB_D1.ogg
448,192,21945,1,0,0:0:0:0:
64,192,23070,1,0,0:0:0:80:Drum_Kick.ogg
320,192,23070,1,0,0:0:0:0:
448,192,23445,1,0,0:0:0:50:Drum_Tom Tom 1.ogg
320,192,23695,1,0,0:0:0:0:
448,192,23820,1,0,0:0:0:50:Drum_Tom Tom 1.ogg
320,192,23945,1,0,0:0:0:0:
192,192,24070,1,0,0:0:0:0:
64,192,24195,128,0,24570:0:0:0:80:Drum_Kick.ogg
192,192,24570,1,0,0:0:0:50:Drum_Tom Tom 1.ogg
448,192,24570,1,0,0:0:0:0:
320,192,24945,1,0,0:0:0:50:Drum_Tom Tom 1.ogg
448,192,25195,1,0,0:0:0:0:
64,192,25320,128,0,25695:0:0:0:100:Drum_Kick.ogg
448,192,25695,1,0,0:0:0:0:
448,192,26070,128,0,26445:0:0:0:0:
192,192,26445,1,0,0:0:0:0:
320,192,26445,1,0,0:0:0:0:
64,192,26820,1,0,0:0:0:0:
448,192,26820,128,0,27570:0:0:0:0:
320,192,27195,128,0,27570:0:0:0:0:
192,192,27570,1,0,0:0:0:100:Drum_Kick.ogg
64,192,27570,1,0,0:0:0:100:DB_F0.ogg
320,192,27820,1,0,0:0:0:0:
192,192,27945,1,0,0:0:0:100:Drum_Snare.ogg
320,192,28195,1,0,0:0:0:0:
192,192,28320,1,0,0:0:0:100:Drum_Snare.ogg
448,192,28570,1,0,0:0:0:0:
64,192,28695,1,0,0:0:0:100:Drum_Kick.ogg
320,192,28695,1,0,0:0:0:100:DB_F0.ogg
192,192,28945,1,0,0:0:0:0:
448,192,29070,1,0,0:0:0:100:Drum_Snare.ogg
320,192,29320,1,0,0:0:0:0:
448,192,29445,1,0,0:0:0:100:Drum_Snare.ogg
192,192,29695,1,0,0:0:0:0:
64,192,29820,1,0,0:0:0:100:Drum_Kick.ogg
320,192,29820,1,0,0:0:0:100:DB_F0.ogg
192,192,30070,1,0,0:0:0:0:
320,192,30195,1,0,0:0:0:100:Drum_Snare.ogg
448,192,30445,1,0,0:0:0:0:
320,192,30570,1,0,0:0:0:100:Drum_Snare.ogg
192,192,30820,1,0,0:0:0:0:
64,192,30945,1,0,0:0:0:100:Drum_Kick.ogg
448,192,30945,1,0,0:0:0:100:DB_F0.ogg
64,192,31195,1,0,0:0:0:0:
192,192,31320,1,0,0:0:0:100:Drum_Snare.ogg
320,192,31320,128,0,31695:0:0:0:0:
448,192,31695,1,0,0:0:0:100:Drum_Snare.ogg
192,192,31695,128,0,32070:0:0:0:100:DB_F#0.ogg
320,192,32070,128,0,32445:0:0:0:100:Drum_Kick.ogg
448,192,32070,1,0,0:0:0:100:DB_G0.ogg
64,192,32320,1,0,0:0:0:0:
192,192,32445,1,0,0:0:0:100:Drum_Snare.ogg
320,192,32695,1,0,0:0:0:0:
192,192,32820,1,0,0:0:0:100:Drum_Snare.ogg
64,192,33070,1,0,0:0:0:0:
192,192,33195,1,0,0:0:0:100:Drum_Kick.ogg
448,192,33195,1,0,0:0:0:100:DB_C1.ogg
64,192,33445,1,0,0:0:0:0:
192,192,33570,1,0,0:0:0:100:Drum_Snare.ogg
320,192,33820,1,0,0:0:0:0:
448,192,33945,1,0,0:0:0:100:Drum_Snare.ogg
64,192,34195,1,0,0:0:0:0:
192,192,34320,1,0,0:0:0:100:Drum_Kick.ogg
448,192,34320,1,0,0:0:0:100:DB_A0.ogg
320,192,34570,1,0,0:0:0:0:
192,192,34695,1,0,0:0:0:100:Drum_Snare.ogg
320,192,34945,1,0,0:0:0:0:
64,192,35070,1,0,0:0:0:100:Drum_Snare.ogg
320,192,35320,1,0,0:0:0:0:
64,192,35445,1,0,0:0:0:100:Drum_Kick.ogg
192,192,35445,1,0,0:0:0:100:DB_D1.ogg
448,192,35445,1,0,0:0:0:0:
64,192,35820,128,0,36195:0:0:0:100:Drum_Snare.ogg
192,192,35820,128,0,36195:0:0:0:0:
320,192,36195,1,0,0:0:0:0:
448,192,36195,1,0,0:0:0:0:
64,192,36570,1,0,0:0:0:100:Drum_Tom Tom 1.ogg
448,192,36570,1,0,0:0:0:100:DB_G0.ogg
320,192,36663,1,0,0:0:0:0:
192,192,36757,1,0,0:0:0:0:
64,192,36851,1,0,0:0:0:0:
448,192,36945,1,0,0:0:0:70:Drum_Tom Tom 1.ogg
320,192,37038,1,0,0:0:0:0:
192,192,37132,1,0,0:0:0:0:
64,192,37226,1,0,0:0:0:0:
448,192,37320,1,0,0:0:0:50:Drum_Tom Tom 1.ogg
320,192,37413,1,0,0:0:0:0:
192,192,37507,1,0,0:0:0:0:
320,192,37601,1,0,0:0:0:0:
64,192,37695,1,0,0:0:0:100:Drum_Tom Tom 1.ogg
448,192,37695,1,0,0:0:0:100:DB_C1.ogg
192,192,37788,1,0,0:0:0:0:
320,192,37882,1,0,0:0:0:0:
448,192,37976,1,0,0:0:0:0:
64,192,38070,1,0,0:0:0:50:Drum_Tom Tom 1.ogg
192,192,38163,1,0,0:0:0:0:
320,192,38257,1,0,0:0:0:0:
192,192,38351,1,0,0:0:0:0:
64,192,38445,1,0,0:0:0:50:Drum_Tom Tom 1.ogg
192,192,38538,1,0,0:0:0:0:
320,192,38632,1,0,0:0:0:0:
448,192,38726,1,0,0:0:0:0:
64,192,38820,1,0,0:0:0:100:Drum_Tom Tom 1.ogg
320,192,38820,1,0,0:0:0:100:DB_A0.ogg
192,192,38913,1,0,0:0:0:0:
448,192,39007,1,0,0:0:0:0:
320,192,39101,1,0,0:0:0:0:
192,192,39195,1,0,0:0:0:50:Drum_Tom Tom 1.ogg
320,192,39288,1,0,0:0:0:0:
64,192,39382,1,0,0:0:0:0:
192,192,39476,1,0,0:0:0:0:
448,192,39570,1,0,0:0:0:80:Drum_Tom Tom 1.ogg
320,192,39663,1,0,0:0:0:0:
192,192,39757,1,0,0:0:0:0:
320,192,39851,1,0,0:0:0:0:
448,192,39945,1,0,0:0:0:50:Drum_Tom Tom 1.ogg
64,192,39945,128,0,40601:0:0:0:100:DB_D0.ogg
192,192,40320,1,0,0:0:0:100:Drum_Tom Tom 1.ogg
448,192,40601,1,0,0:0:0:0:
320,192,40695,1,0,0:0:0:0:
192,192,40788,1,0,0:0:0:0:
448,192,40882,1,0,0:0:0:0:
320,192,40976,1,0,0:0:0:0:
64,192,41070,128,0,41445:0:0:0:100:Drum_Cymbals A.ogg
192,192,41070,1,0,0:0:0:0:
320,192,41445,128,0,41538:0:0:0:0:
448,192,41445,128,0,41820:0:0:0:0:
320,192,41820,128,0,42195:0:0:0:0:
64,192,42195,128,0,42570:0:0:0:0:
192,192,42570,128,0,42945:0:0:0:0:
448,192,42570,128,0,42945:0:0:0:0:
64,192,43320,128,0,43695:0:0:0:0:
320,192,43695,128,0,43788:0:0:0:0:
320,192,44070,128,0,44445:0:0:0:0:
64,192,44445,1,0,0:0:0:0:
448,192,44820,1,0,0:0:0:0:
192,192,44945,1,0,0:0:0:0:
320,192,45070,1,0,0:0:0:0:
64,192,45195,1,0,0:0:0:0:
192,192,45320,1,0,0:0:0:0:
448,192,45445,1,0,0:0:0:0:
64,192,45570,128,0,45945:0:0:0:100:Drum_Kick.ogg
320,192,45570,1,0,0:0:0:100:DB_F0.ogg
448,192,45945,1,0,0:0:0:100:Drum_Snare.ogg
192,192,45945,1,0,0:0:0:0:
448,192,46320,1,0,0:0:0:90:Drum_Snare.ogg
320,192,46320,1,0,0:0:0:0:
192,192,46695,128,0,47070:0:0:0:100:Drum_Kick.ogg
64,192,46695,1,0,0:0:0:100:DB_C1.ogg
320,192,47070,1,0,0:0:0:100:Drum_Snare.ogg
448,192,47070,1,0,0:0:0:0:
448,192,47445,1,0,0:0:0:90:Drum_Snare.ogg
192,192,47445,1,0,0:0:0:0:
320,192,47695,1,0,0:0:0:30:Drum_Snare.ogg
192,192,47820,1,0,0:0:0:100:Drum_Kick.ogg
64,192,47820,128,0,48195:0:0:0:100:DB_F0.ogg
320,192,48195,1,0,0:0:0:100:Drum_Snare.ogg
448,192,48195,1,0,0:0:0:0:
192,192,48570,1,0,0:0:0:90:Drum_Snare.ogg
448,192,48570,1,0,0:0:0:0:
192,192,48945,128,0,49320:0:0:0:100:Drum_Kick.ogg
320,192,48945,1,0,0:0:0:100:DB_F0.ogg
64,192,49320,1,0,0:0:0:100:Drum_Snare.ogg
448,192,49320,1,0,0:0:0:0:
192,192,49695,128,0,50070:0:0:0:90:Drum_Snare.ogg
64,192,49695,1,0,0:0:0:100:DB_F#0.ogg
64,192,49945,1,0,0:0:0:30:Drum_Snare.ogg
448,192,50070,128,0,50445:0:0:0:100:Drum_Kick.ogg
320,192,50070,1,0,0:0:0:100:DB_G0.ogg
64,192,50445,128,0,50820:0:0:0:100:Drum_Snare.ogg
320,192,50445,1,0,0:0:0:0:
320,192,50820,1,0,0:0:0:90:Drum_Snare.ogg
64,192,51195,1,0,0:0:0:100:Drum_Kick.ogg
448,192,51195,1,0,0:0:0:100:DB_C1.ogg
192,192,51195,1,0,0:0:0:0:
192,192,51570,1,0,0:0:0:100:Drum_Snare.ogg
320,192,51570,1,0,0:0:0:0:
320,192,51945,1,0,0:0:0:90:Drum_Snare.ogg
64,192,51945,1,0,0:0:0:0:
448,192,52070,1,0,0:0:0:40:Drum_Snare.ogg
320,192,52195,1,0,0:0:0:30:Drum_Snare.ogg
64,192,52320,1,0,0:0:0:100:Drum_Kick.ogg
192,192,52320,1,0,0:0:0:100:DB_A0.ogg
448,192,52320,1,0,0:0:0:0:
192,192,52695,1,0,0:0:0:100:Drum_Snare.ogg
320,192,52695,1,0,0:0:0:0:
448,192,52945,1,0,0:0:0:40:Drum_Snare.ogg
64,192,53070,1,0,0:0:0:90:Drum_Snare.ogg
320,192,53070,1,0,0:0:0:0:
192,192,53195,1,0,0:0:0:40:Drum_Snare.ogg
320,192,53320,1,0,0:0:0:30:Drum_Snare.ogg
448,192,53445,1,0,0:0:0:100:Drum_Kick.ogg
64,192,53445,1,0,0:0:0:100:DB_D1.ogg
192,192,53570,1,0,0:0:0:35:Drum_Snare.ogg
64,192,53695,1,0,0:0:0:35:Drum_Snare.ogg
448,192,53820,1,0,0:0:0:55:Drum_Snare.ogg
320,192,53820,1,0,0:0:0:0:
192,192,53945,1,0,0:0:0:55:Drum_Snare.ogg
320,192,54070,1,0,0:0:0:75:Drum_Snare.ogg
448,192,54195,1,0,0:0:0:75:Drum_Snare.ogg
64,192,54320,1,0,0:0:0:95:Drum_Snare.ogg
192,192,54445,1,0,0:0:0:95:Drum_Snare.ogg
320,192,54570,128,0,54945:0:0:0:100:Drum_Cymbals A.ogg
448,192,54570,128,0,54945:0:0:0:100:DB_G1.ogg
64,192,54945,1,0,0:0:0:0:
192,192,55132,1,0,0:0:0:0:
192,192,55320,1,0,0:0:0:0:
448,192,55538,1,0,0:0:0:0:
192,192,55695,128,0,56070:0:0:0:100:DB_C1.ogg
320,192,55695,128,0,56070:0:0:0:0:
64,192,56070,1,0,0:0:0:0:
448,192,56445,1,0,0:0:0:0:
64,192,56820,128,0,57570:0:0:0:100:DB_A0.ogg
320,192,56820,128,0,57570:0:0:0:0:
448,192,57570,1,0,0:0:0:0:
192,192,57945,128,0,58273:0:0:0:100:DB_D1.ogg
64,192,57945,128,0,58273:0:0:0:0:
320,192,58273,1,0,0:0:0:0:
448,192,58366,1,0,0:0:0:0:
64,192,59070,1,0,0:0:0:50:Drum_Snare.ogg
192,192,59445,1,0,0:0:0:50:Drum_Snare.ogg
448,192,59445,1,0,0:0:0:0:
448,192,59820,1,0,0:0:0:50:Drum_Snare.ogg
192,192,60195,1,0,0:0:0:50:Drum_Snare.ogg
320,192,60570,1,0,0:0:0:50:Drum_Snare.ogg
448,192,60570,1,0,0:0:0:0:
64,192,61320,1,0,0:0:0:50:Drum_Snare.ogg
192,192,61695,1,0,0:0:0:50:Drum_Snare.ogg
320,192,61695,1,0,0:0:0:0:
320,192,62070,1,0,0:0:0:50:Drum_Snare.ogg
64,192,62445,1,0,0:0:0:50:Drum_Snare.ogg
64,192,62820,1,0,0:0:0:50:Drum_Snare.ogg
192,192,62945,1,0,0:0:0:0:
320,192,63070,1,0,0:0:0:0:
448,192,63195,1,0,0:0:0:50:Drum_Snare.ogg
192,192,63320,1,0,0:0:0:0:
320,192,63445,1,0,0:0:0:0:
64,192,63570,1,0,0:0:0:100:Drum_Kick.ogg
192,192,63570,1,0,0:0:0:100:DB_F0.ogg
192,192,63945,1,0,0:0:0:80:Drum_Snare.ogg
448,192,63945,1,0,0:0:0:0:
320,192,64195,1,0,0:0:0:70:Drum_Snare.ogg
448,192,64320,1,0,0:0:0:85:Drum_Snare.ogg
192,192,64320,1,0,0:0:0:0:
64,192,64445,1,0,0:0:0:65:Drum_Snare.ogg
320,192,64570,1,0,0:0:0:50:Drum_Snare.ogg
64,192,64695,1,0,0:0:0:100:Drum_Kick.ogg
192,192,64695,1,0,0:0:0:100:DB_A#0.ogg
320,192,65070,1,0,0:0:0:80:Drum_Snare.ogg
448,192,65070,1,0,0:0:0:0:
448,192,65445,1,0,0:0:0:80:Drum_Snare.ogg
320,192,65445,1,0,0:0:0:0:
64,192,65695,1,0,0:0:0:70:Drum_Snare.ogg
448,192,65820,1,0,0:0:0:100:Drum_Kick.ogg
192,192,65820,1,0,0:0:0:100:DB_D1.ogg
192,192,66195,1,0,0:0:0:80:Drum_Snare.ogg
320,192,66195,1,0,0:0:0:0:
192,192,66445,1,0,0:0:0:70:Drum_Snare.ogg
64,192,66570,1,0,0:0:0:85:Drum_Snare.ogg
448,192,66570,1,0,0:0:0:0:
320,192,66695,1,0,0:0:0:65:Drum_Snare.ogg
192,192,66820,1,0,0:0:0:50:Drum_Snare.ogg
64,192,66945,1,0,0:0:0:100:Drum_Kick.ogg
320,192,66945,1,0,0:0:0:100:DB_A#0.ogg
192,192,67320,128,0,67695:0:0:0:80:Drum_Snare.ogg
448,192,67320,128,0,67695:0:0:0:0:
320,192,67695,128,0,68070:0:0:0:80:Drum_Snare.ogg
192,192,67945,1,0,0:0:0:70:Drum_Snare.ogg
64,192,68070,128,0,68445:0:0:0:100:Drum_Kick.ogg
448,192,68070,128,0,68445:0:0:0:100:DB_F0.ogg
320,192,68445,128,0,68820:0:0:0:80:Drum_Snare.ogg
64,192,68695,1,0,0:0:0:70:Drum_Snare.ogg
448,192,68820,1,0,0:0:0:85:Drum_Snare.ogg
192,192,68945,1,0,0:0:0:65:Drum_Snare.ogg
320,192,69070,1,0,0:0:0:50:Drum_Snare.ogg
64,192,69195,128,0,69570:0:0:0:100:Drum_Kick.ogg
192,192,69195,1,0,0:0:0:100:DB_A#0.ogg
192,192,69570,128,0,69945:0:0:0:80:Drum_Snare.ogg
320,192,69945,1,0,0:0:0:80:Drum_Snare.ogg
448,192,70195,1,0,0:0:0:70:Drum_Snare.ogg
64,192,70320,128,0,70695:0:0:0:100:Drum_Kick.ogg
320,192,70320,1,0,0:0:0:100:DB_C1.ogg
448,192,70695,1,0,0:0:0:80:Drum_Snare.ogg
192,192,70695,1,0,0:0:0:0:
320,192,70945,1,0,0:0:0:70:Drum_Snare.ogg
192,192,71070,1,0,0:0:0:85:Drum_Snare.ogg
320,192,71195,1,0,0:0:0:65:Drum_Snare.ogg
192,192,71320,1,0,0:0:0:50:Drum_Snare.ogg
64,192,71445,128,0,71820:0:0:0:100:Drum_Kick.ogg
448,192,71445,128,0,71820:0:0:0:100:DB_D1.ogg
192,192,71820,1,0,0:0:0:80:Drum_Snare.ogg
320,192,71820,1,0,0:0:0:0:
64,192,72195,1,0,0:0:0:80:Drum_Snare.ogg
320,192,72195,1,0,0:0:0:0:
448,192,72445,1,0,0:0:0:70:Drum_Snare.ogg
64,192,72570,128,0,72945:0:0:0:100:Drum_Kick.ogg
320,192,72570,1,0,0:0:0:100:DB_F0.ogg
192,192,72945,1,0,0:0:0:80:Drum_Snare.ogg
448,192,72945,1,0,0:0:0:0:
64,192,73320,1,0,0:0:0:85:Drum_Snare.ogg
320,192,73320,1,0,0:0:0:0:
448,192,73695,128,0,74070:0:0:0:100:Drum_Kick.ogg
192,192,73695,1,0,0:0:0:100:DB_C1.ogg
64,192,74070,1,0,0:0:0:80:Drum_Snare.ogg
320,192,74070,1,0,0:0:0:0:
192,192,74445,1,0,0:0:0:80:Drum_Snare.ogg
448,192,74445,1,0,0:0:0:0:
64,192,74820,128,0,75195:0:0:0:100:Drum_Kick.ogg
192,192,74820,1,0,0:0:0:100:DB_F0.ogg
320,192,75195,1,0,0:0:0:80:Drum_Snare.ogg
192,192,75195,1,0,0:0:0:0:
448,192,75570,1,0,0:0:0:85:Drum_Snare.ogg
320,192,75570,1,0,0:0:0:0:
64,192,75945,128,0,76320:0:0:0:100:Drum_Kick.ogg
320,192,75945,1,0,0:0:0:100:DB_F0.ogg
448,192,76320,1,0,0:0:0:80:Drum_Snare.ogg
320,192,76320,1,0,0:0:0:0:
64,192,76695,128,0,77070:0:0:0:80:Drum_Snare.ogg
192,192,76695,1,0,0:0:0:100:DB_F#0.ogg
192,192,77070,128,0,77445:0:0:0:100:Drum_Kick.ogg
320,192,77070,1,0,0:0:0:100:DB_G0.ogg
448,192,77445,128,0,77820:0:0:0:80:Drum_Snare.ogg
64,192,77445,1,0,0:0:0:0:
320,192,77820,1,0,0:0:0:85:Drum_Snare.ogg
192,192,77820,1,0,0:0:0:0:
448,192,77945,1,0,0:0:0:65:Drum_Snare.ogg
320,192,78070,1,0,0:0:0:50:Drum_Snare.ogg
448,192,78195,1,0,0:0:0:100:Drum_Kick.ogg
192,192,78195,128,0,78570:0:0:0:100:DB_C1.ogg
64,192,78570,1,0,0:0:0:80:Drum_Snare.ogg
320,192,78570,1,0,0:0:0:0:
192,192,78945,1,0,0:0:0:80:Drum_Snare.ogg
448,192,78945,1,0,0:0:0:0:
320,192,79070,1,0,0:0:0:0:
192,192,79195,1,0,0:0:0:70:Drum_Snare.ogg
64,192,79320,128,0,79695:0:0:0:100:DB_A0.wav
448,192,79320,1,0,0:0:0:100:Drum_Kick.ogg
192,192,79695,1,0,0:0:0:80:Drum_Snare.ogg
320,192,79695,1,0,0:0:0:0:
64,192,80070,1,0,0:0:0:85:Drum_Snare.ogg
448,192,80070,1,0,0:0:0:0:
192,192,80195,1,0,0:0:0:65:Drum_Snare.ogg
64,192,80320,1,0,0:0:0:50:Drum_Snare.ogg
192,192,80445,1,0,0:0:0:100:Drum_Kick.ogg
448,192,80445,1,0,0:0:0:100:DB_D1.ogg
320,192,80820,1,0,0:0:0:80:Drum_Snare.ogg
448,192,80820,1,0,0:0:0:0:
64,192,80820,1,0,0:0:0:0:
64,192,81570,1,0,0:0:0:80:Piano_n4 F4.ogg
448,192,81570,1,0,0:0:0:80:Piano_n1 G1.wav
192,192,81784,1,0,0:0:0:80:Piano_n2 D3.ogg
320,192,81998,1,0,0:0:0:80:Piano_n4 E4.ogg
448,192,81998,1,0,0:0:0:80:Piano_n2 F3.ogg
64,192,82212,1,0,0:0:0:80:Piano_n2 A3.ogg
320,192,82427,1,0,0:0:0:80:Piano_n4 F4.ogg
192,192,82427,1,0,0:0:0:80:Piano_n2 C4.ogg
448,192,82641,1,0,0:0:0:80:Piano_n2 D4.ogg
320,192,82855,1,0,0:0:0:80:Piano_n4 G4.ogg
64,192,82855,1,0,0:0:0:80:Piano_n1 C2.ogg
192,192,83070,1,0,0:0:0:80:Piano_n2 D3.ogg
448,192,83284,1,0,0:0:0:80:Piano_n2 G3 1.5.ogg
64,192,83284,1,0,0:0:0:80:Piano_n4 F4.ogg
64,192,83570,1,0,0:0:0:80:Piano_n2 A3 0.5.ogg
192,192,83712,1,0,0:0:0:80:Piano_n4 G4 0.5.ogg
448,192,83712,1,0,0:0:0:80:Piano_n2 D4.ogg
64,192,83927,1,0,0:0:0:80:Piano_n4 F4 0.5.ogg
448,192,84141,128,0,84570:0:0:0:80:Piano_n2 A2.wav
192,192,84141,1,0,0:0:0:80:Piano_n4 C5.ogg
64,192,84355,1,0,0:0:0:80:Piano_n2 G3.ogg
320,192,84570,128,0,84998:0:0:0:80:Piano_n4 E5.ogg
192,192,84570,1,0,0:0:0:80:Piano_n2 C4.ogg
64,192,84784,1,0,0:0:0:80:Piano_n2 E4.ogg
448,192,84998,128,0,85427:0:0:0:80:Piano_n4 F5.ogg
192,192,84998,1,0,0:0:0:80:Piano_n2 F4.ogg
320,192,85212,1,0,0:0:0:80:Piano_n2 G4.ogg
64,192,85427,1,0,0:0:0:80:Piano_n44 c5.ogg
320,192,85534,1,0,0:0:0:80:Piano_n44 f5.ogg
192,192,85641,1,0,0:0:0:80:Piano_n44 e5.ogg
64,192,85748,1,0,0:0:0:80:Piano_n44 c5.ogg
448,192,85855,1,0,0:0:0:80:Piano_n44 g4.ogg
320,192,85955,1,0,0:0:0:80:Piano_n44 f4.ogg
192,192,86055,1,0,0:0:0:80:Piano_n44 e4.ogg
64,192,86155,1,0,0:0:0:80:Piano_n44 c4.ogg
448,192,86255,1,0,0:0:0:80:Piano_n44 g3.ogg
64,192,86351,1,0,0:0:0:80:Piano_n44 f3.ogg
320,192,86448,1,0,0:0:0:80:Piano_n44 e3.ogg
192,192,86545,1,0,0:0:0:80:Piano_n44 a2.ogg
448,192,86630,1,0,0:0:0:100:Drum_Cymbals A.ogg
64,192,86630,1,0,0:0:0:0:
320,192,90755,5,0,0:0:0:100:Drum_Tom3.ogg
192,192,90755,1,0,0:0:0:0:
448,192,91005,1,0,0:0:0:100:Drum_Tom2.ogg
64,192,91130,1,0,0:0:0:100:Drum_Kick.ogg
320,192,91130,128,0,91317:0:0:0:100:DB_F0.ogg
448,192,91505,1,0,0:0:0:80:Drum_Snare.ogg
192,192,91505,128,0,91755:0:0:0:0:
64,192,91880,1,0,0:0:0:85:Drum_Snare.ogg
320,192,91880,1,0,0:0:0:0:
448,192,92005,1,0,0:0:0:65:Drum_Snare.ogg
64,192,92130,1,0,0:0:0:50:Drum_Snare.ogg
192,192,92255,1,0,0:0:0:100:Drum_Kick.ogg
448,192,92255,1,0,0:0:0:100:DB_F0.ogg
320,192,92255,1,0,0:0:0:0:
320,192,92630,1,0,0:0:0:80:Drum_Snare.ogg
64,192,92630,128,0,92817:0:0:0:0:
192,192,93005,1,0,0:0:0:80:Drum_Snare.ogg
320,192,93005,1,0,0:0:0:0:
448,192,93255,1,0,0:0:0:70:Drum_Snare.ogg
64,192,93380,1,0,0:0:0:100:Drum_Kick.ogg
320,192,93380,128,0,93567:0:0:0:100:DB_F0.ogg
64,192,93755,128,0,93942:0:0:0:80:Drum_Snare.ogg
448,192,93755,1,0,0:0:0:0:
192,192,94130,1,0,0:0:0:85:Drum_Snare.ogg
320,192,94130,1,0,0:0:0:0:
64,192,94255,1,0,0:0:0:65:Drum_Snare.ogg
448,192,94380,1,0,0:0:0:50:Drum_Snare.ogg
64,192,94505,1,0,0:0:0:100:Drum_Kick.ogg
192,192,94505,1,0,0:0:0:100:DB_F0.ogg
320,192,94505,1,0,0:0:0:0:
64,192,94880,1,0,0:0:0:80:Drum_Snare.ogg
192,192,94880,128,0,95067:0:0:0:0:
320,192,95255,128,0,95505:0:0:0:80:Drum_Snare.ogg
192,192,95255,1,0,0:0:0:100:DB_F#0.ogg
64,192,95505,1,0,0:0:0:70:Drum_Snare.ogg
448,192,95505,1,0,0:0:0:0:
192,192,95630,1,0,0:0:0:100:Drum_Kick.ogg
320,192,95630,128,0,95880:0:0:0:100:DB_G0.ogg
448,192,96005,1,0,0:0:0:80:Drum_Snare.ogg
64,192,96005,128,0,96192:0:0:0:0:
192,192,96380,1,0,0:0:0:85:Drum_Snare.ogg
448,192,96380,1,0,0:0:0:0:
64,192,96505,1,0,0:0:0:65:Drum_Snare.ogg
320,192,96630,1,0,0:0:0:50:Drum_Snare.ogg
448,192,96755,128,0,97505:0:0:0:100:Drum_Kick.ogg
64,192,96755,1,0,0:0:0:100:DB_C1.ogg
192,192,96755,1,0,0:0:0:0:
320,192,97130,1,0,0:0:0:80:Drum_Snare.ogg
192,192,97505,1,0,0:0:0:80:Drum_Snare.ogg
320,192,97755,128,0,97880:0:0:0:70:Drum_Snare.ogg
192,192,97880,1,0,0:0:0:100:Drum_Kick.ogg
64,192,97880,128,0,98067:0:0:0:100:DB_A0.ogg
448,192,98255,1,0,0:0:0:80:Drum_Snare.ogg
192,192,98255,128,0,98505:0:0:0:0:
320,192,98630,1,0,0:0:0:85:Drum_Snare.ogg
64,192,98630,1,0,0:0:0:0:
448,192,98755,1,0,0:0:0:65:Drum_Snare.ogg
192,192,98880,1,0,0:0:0:50:Drum_Snare.ogg
448,192,99005,128,0,99755:0:0:0:100:Drum_Kick.ogg
320,192,99005,1,0,0:0:0:100:DB_D1.ogg
64,192,99005,1,0,0:0:0:0:
192,192,99380,1,0,0:0:0:80:Drum_Snare.ogg
192,192,99661,1,0,0:0:0:0:
320,192,99755,1,0,0:0:0:80:Drum_Snare.ogg
64,192,99755,1,0,0:0:0:0:
192,192,99848,1,0,0:0:0:0:
320,192,99942,1,0,0:0:0:0:
192,192,100036,1,0,0:0:0:0:
320,192,100130,1,0,0:0:0:100:Drum_Kick.ogg
448,192,100223,1,0,0:0:0:0:
320,192,100317,1,0,0:0:0:0:
192,192,100411,1,0,0:0:0:0:
448,192,100505,1,0,0:0:0:80:Drum_Snare.ogg
320,192,100598,1,0,0:0:0:0:
192,192,100692,1,0,0:0:0:0:
64,192,100786,1,0,0:0:0:0:
320,192,100880,1,0,0:0:0:85:Drum_Snare.ogg
192,192,100973,1,0,0:0:0:0:
448,192,101067,1,0,0:0:0:0:
320,192,101161,1,0,0:0:0:0:
192,192,101255,1,0,0:0:0:100:Drum_Kick.ogg
64,192,101348,1,0,0:0:0:0:
320,192,101442,1,0,0:0:0:0:
448,192,101536,1,0,0:0:0:0:
192,192,101630,1,0,0:0:0:80:Drum_Snare.ogg
320,192,101723,1,0,0:0:0:0:
64,192,101817,1,0,0:0:0:0:
192,192,101911,1,0,0:0:0:0:
320,192,102005,1,0,0:0:0:80:Drum_Snare.ogg
64,192,102098,1,0,0:0:0:0:
192,192,102192,1,0,0:0:0:0:
448,192,102286,1,0,0:0:0:0:
320,192,102380,1,0,0:0:0:100:Drum_Kick.ogg
192,192,102473,1,0,0:0:0:0:
64,192,102567,1,0,0:0:0:0:
448,192,102661,1,0,0:0:0:0:
320,192,102755,1,0,0:0:0:80:Drum_Snare.ogg
192,192,102848,1,0,0:0:0:0:
64,192,102942,1,0,0:0:0:0:
192,192,103036,1,0,0:0:0:0:
320,192,103130,1,0,0:0:0:85:Drum_Snare.ogg
192,192,103223,1,0,0:0:0:0:
64,192,103317,1,0,0:0:0:0:
192,192,103411,1,0,0:0:0:0:
448,192,103505,128,0,103880:0:0:0:100:Drum_Kick.ogg
320,192,103505,128,0,103880:0:0:0:100:DB_D1.ogg
192,192,103880,1,0,0:0:0:80:Drum_Snare.ogg
64,192,103880,1,0,0:0:0:0:
192,192,104255,1,0,0:0:0:100:Drum_Tom Tom 1.ogg
448,192,104348,1,0,0:0:0:0:
64,192,104630,1,0,0:0:0:100:Drum_Kick.ogg
320,192,104630,1,0,0:0:0:100:DB_G0.ogg
192,192,105005,1,0,0:0:0:100:Drum_Tom Tom 1.ogg
320,192,105098,1,0,0:0:0:0:
448,192,105192,1,0,0:0:0:0:
320,192,105286,1,0,0:0:0:0:
192,192,105380,1,0,0:0:0:100:Drum_Tom Tom 1.ogg
192,192,105755,1,0,0:0:0:100:Drum_Kick.ogg
448,192,105755,1,0,0:0:0:100:DB_C1.ogg
320,192,106130,1,0,0:0:0:100:Drum_Tom Tom 1.ogg
192,192,106223,1,0,0:0:0:0:
64,192,106317,1,0,0:0:0:0:
192,192,106411,1,0,0:0:0:0:
64,192,106505,1,0,0:0:0:100:Drum_Tom Tom 1.ogg
64,192,106880,1,0,0:0:0:100:DB_F0.ogg
448,192,106880,1,0,0:0:0:0:
64,192,107255,128,0,107630:0:0:0:100:DB_F0.ogg
320,192,107255,128,0,107630:0:0:0:0:
448,192,107630,128,0,108005:0:0:0:100:DB_F0.ogg
192,192,107630,1,0,0:0:0:0:
192,192,108005,128,0,108380:0:0:0:0:
320,192,108005,1,0,0:0:0:0:
64,192,108380,1,0,0:0:0:0:
320,192,108380,128,0,108755:0:0:0:0:
192,192,108755,128,0,109005:0:0:0:0:
448,192,109005,1,0,0:0:0:0:
64,192,109130,1,0,0:0:0:100:Drum_Cymbals A.ogg
192,192,109130,1,0,0:0:0:100:Drum_Kick.ogg
320,192,109130,128,0,109380:0:0:0:100:DB_F0.ogg
448,192,109380,1,0,0:0:0:0:
64,192,109505,1,0,0:0:0:80:Drum_Snare.ogg
192,192,109505,128,0,109755:0:0:0:0:
320,192,109755,1,0,0:0:0:70:Drum_Snare.ogg
64,192,109880,1,0,0:0:0:85:Drum_Snare.ogg
448,192,110005,1,0,0:0:0:65:Drum_Snare.ogg
320,192,110130,1,0,0:0:0:50:Drum_Snare.ogg
64,192,110255,1,0,0:0:0:100:Drum_Kick.ogg
192,192,110255,1,0,0:0:0:100:DB_F0.ogg
64,192,110505,1,0,0:0:0:0:
192,192,110630,128,0,110880:0:0:0:80:Drum_Snare.ogg
320,192,110630,1,0,0:0:0:0:
448,192,110880,1,0,0:0:0:0:
64,192,111005,1,0,0:0:0:100:Drum_Kick.ogg
320,192,111005,128,0,111255:0:0:0:80:Drum_Snare.ogg
448,192,111255,128,0,111380:0:0:0:70:Drum_Snare.ogg
64,192,111380,1,0,0:0:0:100:Drum_Kick.ogg
320,192,111380,128,0,111630:0:0:0:100:DB_F0.ogg
192,192,111630,1,0,0:0:0:0:
64,192,111755,128,0,112005:0:0:0:80:Drum_Snare.ogg
448,192,111755,1,0,0:0:0:0:
448,192,112005,1,0,0:0:0:70:Drum_Snare.ogg
320,192,112130,1,0,0:0:0:85:Drum_Snare.ogg
64,192,112255,1,0,0:0:0:65:Drum_Snare.ogg
192,192,112380,1,0,0:0:0:50:Drum_Snare.ogg
320,192,112505,1,0,0:0:0:100:Drum_Kick.ogg
64,192,112505,1,0,0:0:0:100:DB_F0.ogg
320,192,112755,1,0,0:0:0:0:
192,192,112880,128,0,113130:0:0:0:80:Drum_Snare.ogg
64,192,113130,1,0,0:0:0:0:
448,192,113255,128,0,113505:0:0:0:80:Drum_Snare.ogg
320,192,113255,1,0,0:0:0:100:DB_F#0.ogg
64,192,113505,1,0,0:0:0:70:Drum_Snare.ogg
448,192,113630,128,0,114005:0:0:0:100:Drum_Kick.ogg
320,192,113630,1,0,0:0:0:100:DB_G0.ogg
64,192,113880,1,0,0:0:0:0:
192,192,114005,1,0,0:0:0:80:Drum_Snare.ogg
448,192,114255,1,0,0:0:0:70:Drum_Snare.ogg
64,192,114380,1,0,0:0:0:85:Drum_Snare.ogg
320,192,114380,1,0,0:0:0:0:
192,192,114630,1,0,0:0:0:50:Drum_Snare.ogg
64,192,114755,128,0,115130:0:0:0:100:Drum_Kick.ogg
448,192,114755,128,0,115505:0:0:0:100:DB_C1.ogg
192,192,115005,1,0,0:0:0:0:
320,192,115130,1,0,0:0:0:80:Drum_Snare.ogg
64,192,115380,1,0,0:0:0:0:
192,192,115505,1,0,0:0:0:80:Drum_Snare.ogg
320,192,115755,128,0,115880:0:0:0:70:Drum_Snare.ogg
64,192,115880,1,0,0:0:0:100:Drum_Kick.ogg
192,192,115880,1,0,0:0:0:100:DB_A0.ogg
320,192,116255,1,0,0:0:0:80:Drum_Snare.ogg
64,192,116255,128,0,116505:0:0:0:0:
192,192,116505,1,0,0:0:0:70:Drum_Snare.ogg
448,192,116630,1,0,0:0:0:85:Drum_Snare.ogg
320,192,116630,128,0,116880:0:0:0:0:
64,192,117005,1,0,0:0:0:100:Drum_Kick.ogg
320,192,117005,1,0,0:0:0:100:DB_D1.ogg
448,192,117005,128,0,117380:0:0:0:0:
192,192,117380,1,0,0:0:0:80:Drum_Snare.ogg
64,192,117473,1,0,0:0:0:0:
192,192,117567,1,0,0:0:0:0:
320,192,117661,1,0,0:0:0:0:
64,192,117755,1,0,0:0:0:80:Drum_Snare.ogg
192,192,117848,1,0,0:0:0:0:
320,192,117942,1,0,0:0:0:0:
448,192,118036,1,0,0:0:0:0:
64,192,118130,1,0,0:0:0:100:Drum_Kick.ogg
192,192,118223,1,0,0:0:0:0:
448,192,118317,1,0,0:0:0:0:
320,192,118411,1,0,0:0:0:0:
192,192,118505,1,0,0:0:0:80:Drum_Snare.ogg
64,192,118598,1,0,0:0:0:0:
192,192,118692,1,0,0:0:0:0:
320,192,118786,1,0,0:0:0:0:
448,192,118880,1,0,0:0:0:85:Drum_Snare.ogg
64,192,118973,1,0,0:0:0:0:
192,192,119067,1,0,0:0:0:0:
320,192,119161,1,0,0:0:0:0:
448,192,119255,1,0,0:0:0:100:Drum_Kick.ogg
320,192,119348,1,0,0:0:0:0:
192,192,119442,1,0,0:0:0:0:
64,192,119536,1,0,0:0:0:0:
448,192,119630,1,0,0:0:0:80:Drum_Snare.ogg
320,192,119723,1,0,0:0:0:0:
192,192,119817,1,0,0:0:0:0:
320,192,119911,1,0,0:0:0:0:
192,192,120005,1,0,0:0:0:80:Drum_Snare.ogg
64,192,120098,1,0,0:0:0:0:
320,192,120192,1,0,0:0:0:0:
448,192,120286,1,0,0:0:0:0:
192,192,120380,1,0,0:0:0:100:Drum_Kick.ogg
64,192,120473,1,0,0:0:0:0:
320,192,120567,1,0,0:0:0:0:
448,192,120661,1,0,0:0:0:0:
192,192,120755,1,0,0:0:0:80:Drum_Snare.ogg
320,192,120848,1,0,0:0:0:0:
64,192,120942,1,0,0:0:0:0:
192,192,121036,1,0,0:0:0:0:
320,192,121130,1,0,0:0:0:85:Drum_Snare.ogg
448,192,121223,1,0,0:0:0:0:
192,192,121317,1,0,0:0:0:0:
64,192,121411,1,0,0:0:0:0:
192,192,121505,1,0,0:0:0:100:Drum_Kick.ogg
320,192,121598,128,0,122067:0:0:0:0:
448,192,122255,1,0,0:0:0:80:Drum_Snare.ogg
192,192,122255,1,0,0:0:0:0:
64,192,122630,128,0,123005:0:0:0:100:Drum_Kick.ogg
320,192,122630,1,0,0:0:0:0:
192,192,123005,1,0,0:0:0:0:
320,192,123098,1,0,0:0:0:0:
448,192,123192,1,0,0:0:0:0:
320,192,123286,1,0,0:0:0:0:
192,192,123380,1,0,0:0:0:0:
448,192,123755,128,0,124130:0:0:0:100:Drum_Kick.ogg
192,192,123755,1,0,0:0:0:0:
64,192,124130,1,0,0:0:0:0:
192,192,124223,1,0,0:0:0:0:
320,192,124317,1,0,0:0:0:0:
192,192,124411,1,0,0:0:0:0:
64,192,124505,1,0,0:0:0:0:
64,192,124880,128,0,125255:0:0:0:100:Drum_Kick.ogg
192,192,125255,1,0,0:0:0:0:
448,192,125255,1,0,0:0:0:0:
320,192,125630,1,0,0:0:0:0:
448,192,125630,1,0,0:0:0:0:
64,192,126005,1,0,0:0:0:100:Drum_Kick.ogg
320,192,126005,1,0,0:0:0:0:
448,192,126005,1,0,0:0:0:0:
192,192,126380,1,0,0:0:0:100:Drum_Tom4.ogg
64,192,126380,1,0,0:0:0:0:
320,192,126505,1,0,0:0:0:85:Drum_Tom3.ogg
192,192,126630,1,0,0:0:0:70:Drum_Tom2.ogg
64,192,126755,1,0,0:0:0:85:Drum_Tom3.ogg
448,192,126755,1,0,0:0:0:0:
320,192,126880,1,0,0:0:0:70:Drum_Tom2.ogg
448,192,127005,1,0,0:0:0:55:Drum_Tom1.ogg
64,192,127130,1,0,0:0:0:100:Drum_Kick.ogg
192,192,127130,1,0,0:0:0:100:DB_G0.ogg
320,192,127505,1,0,0:0:0:80:Drum_Snare.ogg
448,192,127505,1,0,0:0:0:0:
320,192,127755,1,0,0:0:0:70:Drum_Snare.ogg
192,192,127880,1,0,0:0:0:85:Drum_Snare.ogg
448,192,127880,1,0,0:0:0:0:
64,192,128130,1,0,0:0:0:50:Drum_Snare.ogg
320,192,128255,1,0,0:0:0:100:Drum_Kick.ogg
192,192,128255,1,0,0:0:0:100:DB_C1.ogg
320,192,128505,1,0,0:0:0:0:
192,192,128630,1,0,0:0:0:80:Drum_Snare.ogg
448,192,128630,1,0,0:0:0:0:
320,192,128880,1,0,0:0:0:0:
64,192,129005,1,0,0:0:0:80:Drum_Snare.ogg
448,192,129005,1,0,0:0:0:0:
64,192,129255,1,0,0:0:0:70:Drum_Snare.ogg
320,192,129380,128,0,129755:0:0:0:100:Drum_Kick.ogg
448,192,129380,128,0,129755:0:0:0:100:DB_F1.ogg
64,192,129755,1,0,0:0:0:80:Drum_Snare.ogg
192,192,130005,1,0,0:0:0:70:Drum_Snare.ogg
64,192,130130,1,0,0:0:0:85:Drum_Snare.ogg
320,192,130130,1,0,0:0:0:0:
192,192,130380,1,0,0:0:0:50:Drum_Snare.ogg
320,192,130505,128,0,130880:0:0:0:100:Drum_Kick.ogg
448,192,130505,128,0,130755:0:0:0:100:DB_A#1.ogg
448,192,130880,1,0,0:0:0:80:Drum_Snare.ogg
192,192,130880,1,0,0:0:0:0:
320,192,131130,1,0,0:0:0:0:
64,192,131255,1,0,0:0:0:80:Drum_Snare.ogg
192,192,131505,1,0,0:0:0:70:Drum_Snare.ogg
448,192,131630,1,0,0:0:0:100:Drum_Kick.ogg
64,192,131630,128,0,132005:0:0:0:100:DB_D#1.ogg
320,192,132005,1,0,0:0:0:80:Drum_Snare.ogg
192,192,132005,1,0,0:0:0:0:
64,192,132255,1,0,0:0:0:70:Drum_Snare.ogg
192,192,132380,128,0,132755:0:0:0:85:Drum_Snare.ogg
448,192,132380,128,0,132755:0:0:0:0:
320,192,132755,128,0,133130:0:0:0:100:Drum_Kick.ogg
448,192,133130,1,0,0:0:0:80:Drum_Snare.ogg
64,192,133130,1,0,0:0:0:0:
64,192,133380,1,0,0:0:0:0:
192,192,133505,1,0,0:0:0:80:Drum_Snare.ogg
448,192,133505,1,0,0:0:0:0:
64,192,133880,128,0,134255:0:0:0:100:Drum_Kick.ogg
448,192,133880,128,0,134255:0:0:0:100:DB_C#1.ogg
192,192,133880,1,0,0:0:0:0:
192,192,134255,1,0,0:0:0:80:Drum_Snare.ogg
64,192,134505,1,0,0:0:0:70:Drum_Snare.ogg
320,192,134630,1,0,0:0:0:85:Drum_Snare.ogg
192,192,135005,128,0,135380:0:0:0:100:Drum_Kick.ogg
320,192,135005,1,0,0:0:0:100:DB_F#1.ogg
448,192,135005,128,0,135755:0:0:0:0:
64,192,135380,1,0,0:0:0:80:Drum_Snare.ogg
320,192,135755,1,0,0:0:0:80:Drum_Snare.ogg
64,192,136005,1,0,0:0:0:70:Drum_Snare.ogg
320,192,136130,1,0,0:0:0:100:Drum_Kick.ogg
448,192,136130,1,0,0:0:0:100:DB_B0.ogg
192,192,136130,128,0,136505:0:0:0:0:
64,192,136505,1,0,0:0:0:80:Drum_Snare.ogg
448,192,136505,1,0,0:0:0:0:
320,192,136880,1,0,0:0:0:85:Drum_Snare.ogg
448,192,136880,1,0,0:0:0:0:
448,192,137130,1,0,0:0:0:50:Drum_Snare.ogg
64,192,137255,1,0,0:0:0:100:Drum_Kick.ogg
192,192,137255,1,0,0:0:0:100:DB_E1.ogg
320,192,137255,128,0,137630:0:0:0:0:
448,192,137630,1,0,0:0:0:80:Drum_Snare.ogg
64,192,137630,1,0,0:0:0:0:
64,192,138005,1,0,0:0:0:80:Drum_Snare.ogg
192,192,138005,1,0,0:0:0:0:
192,192,138255,1,0,0:0:0:70:Drum_Snare.ogg
320,192,138380,1,0,0:0:0:100:Drum_Kick.ogg
448,192,138380,1,0,0:0:0:100:DB_C#1.ogg
64,192,138380,128,0,138755:0:0:0:0:
192,192,138755,1,0,0:0:0:80:Drum_Snare.ogg
320,192,138755,1,0,0:0:0:0:
64,192,139130,1,0,0:0:0:85:Drum_Snare.ogg
448,192,139130,1,0,0:0:0:0:
320,192,139380,1,0,0:0:0:50:Drum_Snare.ogg
64,192,139505,1,0,0:0:0:100:Drum_Kick.ogg
192,192,139505,1,0,0:0:0:100:DB_G1.ogg
448,192,139505,128,0,139880:0:0:0:0:
64,192,139880,128,0,140255:0:0:0:80:Drum_Snare.ogg
320,192,139880,128,0,140255:0:0:0:0:
192,192,140255,1,0,0:0:0:80:Drum_Snare.ogg
320,192,140630,128,0,141005:0:0:0:100:Drum_Kick.ogg
192,192,140630,1,0,0:0:0:100:DB_B0.ogg
64,192,141005,1,0,0:0:0:80:Drum_Snare.ogg
448,192,141005,1,0,0:0:0:0:
192,192,141255,1,0,0:0:0:70:Drum_Snare.wav
320,192,141380,1,0,0:0:0:85:Drum_Snare.ogg
448,192,141380,1,0,0:0:0:0:
192,192,141630,1,0,0:0:0:50:Drum_Snare.ogg
64,192,141755,128,0,142130:0:0:0:100:Drum_Kick.ogg
320,192,141755,1,0,0:0:0:100:DB_E1.ogg
192,192,142130,1,0,0:0:0:80:Drum_Snare.ogg
448,192,142130,1,0,0:0:0:0:
448,192,142505,1,0,0:0:0:80:Drum_Snare.ogg
320,192,142630,1,0,0:0:0:0:
192,192,142755,1,0,0:0:0:70:Drum_Snare.ogg
64,192,142880,1,0,0:0:0:100:Drum_Kick.ogg
448,192,142880,1,0,0:0:0:100:DB_A0.ogg
192,192,143255,1,0,0:0:0:80:Drum_Snare.ogg
320,192,143317,1,0,0:0:0:0:
192,192,143630,1,0,0:0:0:0:
192,192,144005,1,0,0:0:0:0:
64,192,144255,1,0,0:0:0:0:
320,192,144380,1,0,0:0:0:80:Drum_Snare.ogg
448,192,144380,1,0,0:0:0:0:
64,192,144630,1,0,0:0:0:0:
448,192,144755,1,0,0:0:0:80:Drum_Snare.ogg
192,192,144880,1,0,0:0:0:0:
320,192,145005,1,0,0:0:0:70:Drum_Snare.ogg
64,192,145130,128,0,145505:0:0:0:100:Drum_Kick.ogg
448,192,145505,1,0,0:0:0:80:Drum_Snare.ogg
192,192,145505,1,0,0:0:0:0:
448,192,145880,1,0,0:0:0:85:Drum_Snare.ogg
192,192,145880,1,0,0:0:0:0:
64,192,146005,1,0,0:0:0:65:Drum_Snare.ogg
320,192,146130,1,0,0:0:0:50:Drum_Snare.ogg
192,192,146255,128,0,146630:0:0:0:100:Drum_Kick.ogg
320,192,146630,1,0,0:0:0:80:Drum_Snare.ogg
64,192,146630,1,0,0:0:0:0:
64,192,147005,1,0,0:0:0:80:Drum_Snare.ogg
320,192,147005,1,0,0:0:0:0:
192,192,147130,1,0,0:0:0:0:
64,192,147255,1,0,0:0:0:70:Drum_Snare.ogg
320,192,147380,128,0,147755:0:0:0:100:Drum_Kick.ogg
64,192,147755,1,0,0:0:0:80:Drum_Snare.ogg
448,192,147755,1,0,0:0:0:0:
64,192,148130,1,0,0:0:0:85:Drum_Snare.ogg
448,192,148130,1,0,0:0:0:0:
320,192,148255,1,0,0:0:0:65:Drum_Snare.ogg
448,192,148380,1,0,0:0:0:50:Drum_Snare.ogg
64,192,148505,128,0,148880:0:0:0:100:Drum_Kick.ogg
192,192,148880,1,0,0:0:0:80:Drum_Snare.ogg
448,192,148880,1,0,0:0:0:0:
320,192,149130,1,0,0:0:0:0:
448,192,149255,1,0,0:0:0:80:Drum_Snare.ogg
64,192,149255,1,0,0:0:0:0:
192,192,149380,1,0,0:0:0:0:
320,192,149505,1,0,0:0:0:70:Drum_Snare.ogg
64,192,149630,128,0,150005:0:0:0:100:Drum_Kick.ogg
192,192,150005,1,0,0:0:0:80:Drum_Snare.ogg
320,192,150005,1,0,0:0:0:0:
64,192,150130,1,0,0:0:0:0:
192,192,150255,1,0,0:0:0:70:Drum_Snare.ogg
320,192,150380,1,0,0:0:0:85:Drum_Snare.ogg
448,192,150380,1,0,0:0:0:0:
192,192,150505,1,0,0:0:0:65:Drum_Snare.ogg
320,192,150630,1,0,0:0:0:50:Drum_Snare.ogg
448,192,150755,128,0,151130:0:0:0:100:Drum_Kick.ogg
192,192,151130,1,0,0:0:0:80:Drum_Snare.ogg
64,192,151130,1,0,0:0:0:0:
320,192,151255,1,0,0:0:0:0:
192,192,151380,1,0,0:0:0:0:
448,192,151505,1,0,0:0:0:80:Drum_Snare.ogg
64,192,151505,1,0,0:0:0:0:
320,192,151630,1,0,0:0:0:0:
192,192,151755,1,0,0:0:0:70:Drum_Snare.ogg
448,192,151880,1,0,0:0:0:100:Drum_Kick.ogg
64,192,151880,128,0,152255:0:0:0:100:DB_E0.ogg
192,192,152255,1,0,0:0:0:80:Drum_Snare.ogg
448,192,152255,1,0,0:0:0:0:
320,192,152380,1,0,0:0:0:0:
192,192,152505,1,0,0:0:0:70:Drum_Snare.ogg
448,192,152630,1,0,0:0:0:85:Drum_Snare.ogg
64,192,152630,1,0,0:0:0:0:
192,192,152755,1,0,0:0:0:65:Drum_Snare.ogg
320,192,152880,1,0,0:0:0:50:Drum_Snare.ogg
64,192,153005,1,0,0:0:0:100:Drum_Kick.ogg
192,192,153005,128,0,153380:0:0:0:100:DB_F#0.ogg
320,192,153380,1,0,0:0:0:80:Drum_Snare.ogg
64,192,153380,1,0,0:0:0:0:
448,192,153505,1,0,0:0:0:0:
320,192,153630,1,0,0:0:0:0:
64,192,153755,1,0,0:0:0:80:Drum_Snare.ogg
192,192,153755,1,0,0:0:0:0:
320,192,153880,1,0,0:0:0:0:
448,192,154005,1,0,0:0:0:70:Drum_Snare.ogg
192,192,154130,1,0,0:0:0:100:Drum_Kick.ogg
64,192,154130,128,0,154505:0:0:0:100:DB_A0.ogg
320,192,154505,1,0,0:0:0:80:Drum_Snare.ogg
448,192,154505,1,0,0:0:0:0:
320,192,154880,1,0,0:0:0:85:Drum_Snare.ogg
448,192,154880,1,0,0:0:0:0:
192,192,155255,128,0,155630:0:0:0:100:Drum_Kick.ogg
64,192,155255,1,0,0:0:0:100:DB_E1.ogg
320,192,155630,1,0,0:0:0:80:Drum_Snare.ogg
448,192,155630,1,0,0:0:0:0:
320,192,156005,1,0,0:0:0:80:Drum_Snare.ogg
192,192,156005,1,0,0:0:0:0:
64,192,156380,128,0,156755:0:0:0:100:Drum_Kick.ogg
192,192,156380,1,0,0:0:0:100:DB_A0.ogg
192,192,156755,1,0,0:0:0:80:Drum_Snare.ogg
320,192,156755,1,0,0:0:0:0:
320,192,157130,1,0,0:0:0:85:Drum_Snare.ogg
448,192,157130,1,0,0:0:0:0:
64,192,157505,1,0,0:0:0:100:Drum_Kick.ogg
192,192,157505,128,0,157880:0:0:0:100:DB_A0.ogg
320,192,157880,1,0,0:0:0:80:Drum_Snare.ogg
448,192,157880,1,0,0:0:0:0:
320,192,158255,1,0,0:0:0:80:Drum_Snare.ogg
64,192,158255,128,0,158630:0:0:0:100:DB_A#0.ogg
448,192,158630,1,0,0:0:0:100:Drum_Kick.ogg
320,192,158630,128,0,159005:0:0:0:100:DB_B0.ogg
192,192,159005,1,0,0:0:0:80:Drum_Snare.ogg
448,192,159005,128,0,159380:0:0:0:0:
64,192,159380,1,0,0:0:0:85:Drum_Snare.ogg
192,192,159505,1,0,0:0:0:65:Drum_Snare.ogg
320,192,159630,1,0,0:0:0:50:Drum_Snare.ogg
64,192,159755,1,0,0:0:0:100:Drum_Kick.ogg
192,192,159755,1,0,0:0:0:100:DB_E1.ogg
320,192,160130,1,0,0:0:0:80:Drum_Snare.ogg
448,192,160130,1,0,0:0:0:0:
192,192,160505,1,0,0:0:0:80:Drum_Snare.ogg
320,192,160598,1,0,0:0:0:0:
448,192,160692,1,0,0:0:0:0:
320,192,160786,1,0,0:0:0:0:
64,192,160880,1,0,0:0:0:100:Drum_Kick.ogg
192,192,160880,1,0,0:0:0:100:DB_C#1.ogg
448,192,161255,1,0,0:0:0:80:Drum_Snare.ogg
320,192,161255,1,0,0:0:0:0:
192,192,161630,1,0,0:0:0:85:Drum_Snare.ogg
448,192,161630,1,0,0:0:0:0:
320,192,162005,128,0,162380:0:0:0:100:Drum_Kick.ogg
64,192,162005,1,0,0:0:0:100:DB_F#1.ogg
448,192,162380,1,0,0:0:0:80:Drum_Snare.ogg
192,192,162380,128,0,162755:0:0:0:0:
448,192,162755,1,0,0:0:0:0:
64,192,163130,1,0,0:0:0:100:Drum_Kick.ogg
448,192,163130,1,0,0:0:0:100:DB_B0.ogg
320,192,163255,1,0,0:0:0:0:
192,192,163380,1,0,0:0:0:0:
320,192,163505,1,0,0:0:0:100:Drum_Tom Tom 1.ogg
448,192,163630,1,0,0:0:0:0:
320,192,163755,1,0,0:0:0:0:
192,192,163880,1,0,0:0:0:100:Drum_Tom Tom 1.ogg
64,192,164005,1,0,0:0:0:0:
192,192,164130,1,0,0:0:0:0:
320,192,164255,1,0,0:0:0:100:Drum_Kick.ogg
448,192,164255,1,0,0:0:0:100:DB_E0.wav
64,192,164380,1,0,0:0:0:0:
192,192,164505,1,0,0:0:0:0:
448,192,164630,1,0,0:0:0:100:Drum_Tom Tom 1.ogg
320,192,164755,1,0,0:0:0:0:
64,192,164880,1,0,0:0:0:0:
192,192,165005,1,0,0:0:0:100:Drum_Tom Tom 1.ogg
320,192,165130,1,0,0:0:0:0:
448,192,165255,1,0,0:0:0:0:
64,192,165380,1,0,0:0:0:100:Drum_Kick.ogg
192,192,165380,1,0,0:0:0:100:DB_C#1.wav
320,192,165505,1,0,0:0:0:0:
448,192,165630,1,0,0:0:0:0:
192,192,165755,1,0,0:0:0:100:Drum_Tom Tom 1.ogg
320,192,165880,1,0,0:0:0:0:
448,192,166005,1,0,0:0:0:0:
64,192,166130,1,0,0:0:0:100:Drum_Tom Tom 1.ogg
320,192,166255,1,0,0:0:0:0:
192,192,166380,1,0,0:0:0:0:
448,192,166505,128,0,167255:0:0:0:100:Drum_Kick.ogg
320,192,166505,1,0,0:0:0:100:DB_F#1.ogg
64,192,166505,1,0,0:0:0:0:
320,192,166880,1,0,0:0:0:100:Drum_Tom Tom 1.ogg
192,192,167130,1,0,0:0:0:0:
320,192,167380,1,0,0:0:0:0:
192,192,167505,1,0,0:0:0:0:
64,192,167630,1,0,0:0:0:100:Drum_Cymbals A.ogg
448,192,167630,1,0,0:0:0:0:
320,192,168005,1,0,0:0:0:0:
192,192,168005,1,0,0:0:0:0:
320,192,168255,1,0,0:0:0:0:
448,192,168380,1,0,0:0:0:0:
64,192,168380,1,0,0:0:0:0:
192,192,168630,1,0,0:0:0:0:
320,192,168755,1,0,0:0:0:0:
448,192,168755,1,0,0:0:0:0:
320,192,169130,128,0,169505:0:0:0:0:
64,192,169130,128,0,169505:0:0:0:0:
192,192,169505,1,0,0:0:0:0:
64,192,169880,128,0,170255:0:0:0:0:
320,192,170255,1,0,0:0:0:0:
448,192,170255,1,0,0:0:0:0:
448,192,170630,128,0,171005:0:0:0:0:
64,192,171005,1,0,0:0:0:0:
192,192,171005,1,0,0:0:0:0:
448,192,171380,1,0,0:0:0:0:
192,192,171505,1,0,0:0:0:0:
320,192,171630,128,0,171817:0:0:0:0:
192,192,172130,1,0,0:0:0:0:
320,192,172130,128,0,172505:0:0:0:0:
64,192,172380,1,0,0:0:0:0:
192,192,172505,1,0,0:0:0:0:
64,192,172755,1,0,0:0:0:0:
320,192,172880,1,0,0:0:0:0:
448,192,172880,1,0,0:0:0:0:
192,192,173130,1,0,0:0:0:0:
448,192,173255,1,0,0:0:0:0:
64,192,173255,128,0,173630:0:0:0:0:
192,192,173505,1,0,0:0:0:0:
320,192,173630,1,0,0:0:0:0:
192,192,173880,1,0,0:0:0:0:
320,192,174005,1,0,0:0:0:0:
64,192,174005,1,0,0:0:0:0:
320,192,174255,1,0,0:0:0:0:
192,192,174380,1,0,0:0:0:0:
448,192,174380,128,0,174755:0:0:0:0:
64,192,174630,1,0,0:0:0:0:
192,192,174755,1,0,0:0:0:0:
320,192,174755,1,0,0:0:0:0:
64,192,175005,1,0,0:0:0:0:
192,192,175130,1,0,0:0:0:0:
448,192,175130,1,0,0:0:0:0:
192,192,175380,1,0,0:0:0:0:
320,192,175505,1,0,0:0:0:0:
64,192,175505,1,0,0:0:0:0:
448,192,175598,1,0,0:0:0:0:
192,192,175692,1,0,0:0:0:0:
64,192,175786,1,0,0:0:0:0:
320,192,175880,1,0,0:0:0:0:
192,192,175973,1,0,0:0:0:0:
64,192,176067,1,0,0:0:0:0:
192,192,176161,1,0,0:0:0:0:
448,192,176255,1,0,0:0:0:0:
320,192,176348,1,0,0:0:0:0:
192,192,176442,1,0,0:0:0:0:
64,192,176536,1,0,0:0:0:0:
192,192,176630,1,0,0:0:0:100:Drum_Cymbals A.ogg
320,192,176630,1,0,0:0:0:0:
448,192,176630,1,0,0:0:0:0:
320,192,177005,1,0,0:0:0:0:
192,192,177005,1,0,0:0:0:0:
192,192,177380,1,0,0:0:0:0:
320,192,177380,1,0,0:0:0:0:
448,192,177755,1,0,0:0:0:0:
320,192,177755,1,0,0:0:0:0:
64,192,177755,1,0,0:0:0:0:
192,192,178130,1,0,0:0:0:0:
64,192,178130,1,0,0:0:0:0:
192,192,178505,1,0,0:0:0:0:
320,192,178505,1,0,0:0:0:0:
448,192,178880,1,0,0:0:0:0:
192,192,178880,1,0,0:0:0:0:
64,192,178880,1,0,0:0:0:0:
192,192,179255,1,0,0:0:0:0:
320,192,179255,1,0,0:0:0:0:
64,192,179630,1,0,0:0:0:0:
448,192,179630,1,0,0:0:0:0:
320,192,179630,128,0,180755:0:0:0:0:
448,192,180005,1,0,0:0:0:100:Drum_Kick.ogg
192,192,180005,1,0,0:0:0:0:
192,192,180380,1,0,0:0:0:80:Drum_Snare.ogg
64,192,180380,1,0,0:0:0:0:
64,192,180630,1,0,0:0:0:70:Drum_Snare.ogg
448,192,180755,1,0,0:0:0:85:Drum_Snare.ogg
192,192,180880,1,0,0:0:0:65:Drum_Snare.ogg
320,192,181005,1,0,0:0:0:50:Drum_Snare.ogg
192,192,181130,1,0,0:0:0:100:Drum_Kick.ogg
448,192,181130,1,0,0:0:0:100:DB_A0.ogg
64,192,181130,1,0,0:0:0:0:
320,192,181505,1,0,0:0:0:80:Drum_Snare.ogg
448,192,181505,1,0,0:0:0:0:
320,192,181880,1,0,0:0:0:85:Drum_Snare.ogg
448,192,181880,1,0,0:0:0:0:
64,192,182255,1,0,0:0:0:100:Drum_Kick.ogg
192,192,182255,1,0,0:0:0:100:DB_A0.ogg
320,192,182255,1,0,0:0:0:0:
192,192,182630,1,0,0:0:0:80:Drum_Snare.ogg
448,192,182630,1,0,0:0:0:0:
192,192,183005,1,0,0:0:0:80:Drum_Snare.ogg
448,192,183005,1,0,0:0:0:0:
64,192,183380,1,0,0:0:0:100:Drum_Kick.ogg
192,192,183380,1,0,0:0:0:100:DB_A0.ogg
448,192,183380,1,0,0:0:0:0:
64,192,183755,1,0,0:0:0:80:Drum_Snare.ogg
192,192,183755,1,0,0:0:0:0:
64,192,184130,1,0,0:0:0:85:Drum_Snare.ogg
192,192,184130,1,0,0:0:0:0:
64,192,184505,1,0,0:0:0:100:Drum_Kick.ogg
320,192,184505,1,0,0:0:0:100:DB_A0.ogg
448,192,184505,1,0,0:0:0:0:
192,192,184880,1,0,0:0:0:80:Drum_Snare.ogg
320,192,184880,1,0,0:0:0:0:
64,192,185255,128,0,185630:0:0:0:80:Drum_Snare.ogg
320,192,185255,1,0,0:0:0:100:DB_A#0.ogg
320,192,185630,128,0,187130:0:0:0:100:Drum_Kick.ogg
448,192,185630,1,0,0:0:0:100:DB_B0.ogg
192,192,185630,1,0,0:0:0:0:
192,192,186005,1,0,0:0:0:80:Drum_Snare.ogg
448,192,186380,1,0,0:0:0:85:Drum_Snare.ogg
64,192,186755,1,0,0:0:0:100:Drum_Kick.ogg
448,192,186755,1,0,0:0:0:100:DB_E1.ogg
192,192,186755,1,0,0:0:0:0:
192,192,187130,1,0,0:0:0:80:Drum_Snare.ogg
64,192,187380,1,0,0:0:0:0:
192,192,187505,128,0,187630:0:0:0:80:Drum_Snare.ogg
320,192,187505,1,0,0:0:0:0:
448,192,187880,128,0,189005:0:0:0:100:Drum_Kick.ogg
64,192,187880,1,0,0:0:0:100:DB_C#1.ogg
320,192,187880,1,0,0:0:0:0:
192,192,188255,1,0,0:0:0:80:Drum_Snare.ogg
64,192,188630,1,0,0:0:0:85:Drum_Snare.ogg
64,192,189005,128,0,190130:0:0:0:100:Drum_Kick.ogg
192,192,189005,1,0,0:0:0:100:DB_F#1.ogg
320,192,189380,1,0,0:0:0:80:Drum_Snare.ogg
320,192,189755,128,0,190130:0:0:0:80:Drum_Snare.ogg
448,192,190130,1,0,0:0:0:100:Drum_Cymbals A.ogg
192,192,190255,1,0,0:0:0:0:
320,192,190380,1,0,0:0:0:0:
64,192,190505,1,0,0:0:0:0:
64,192,190755,1,0,0:0:0:0:
192,192,190880,1,0,0:0:0:0:
448,192,190880,1,0,0:0:0:0:
192,192,191130,1,0,0:0:0:0:
320,192,191255,1,0,0:0:0:0:
448,192,191255,1,0,0:0:0:0:
320,192,191505,1,0,0:0:0:0:
192,192,191630,1,0,0:0:0:0:
448,192,191630,1,0,0:0:0:0:
192,192,191880,1,0,0:0:0:0:
64,192,192005,1,0,0:0:0:0:
448,192,192005,1,0,0:0:0:0:
64,192,192255,1,0,0:0:0:0:
320,192,192380,1,0,0:0:0:0:
192,192,192380,1,0,0:0:0:0:
192,192,192630,1,0,0:0:0:0:
320,192,192755,1,0,0:0:0:0:
448,192,192755,1,0,0:0:0:0:
192,192,193005,1,0,0:0:0:0:
64,192,193130,1,0,0:0:0:0:
448,192,193130,1,0,0:0:0:0:
320,192,193380,1,0,0:0:0:0:
64,192,193505,1,0,0:0:0:100:Drum_Kick.ogg
448,192,193505,1,0,0:0:0:0:
320,192,193598,1,0,0:0:0:0:
64,192,193692,1,0,0:0:0:0:
192,192,193786,1,0,0:0:0:0:
320,192,193880,1,0,0:0:0:100:Drum_Tom4.ogg
448,192,193973,1,0,0:0:0:0:
320,192,194067,1,0,0:0:0:0:
192,192,194161,1,0,0:0:0:0:
448,192,194255,1,0,0:0:0:0:
320,192,194348,1,0,0:0:0:0:
192,192,194442,1,0,0:0:0:0:
64,192,194536,1,0,0:0:0:0:
448,192,194630,128,0,195005:0:0:0:100:Drum_Cymbals A.ogg
320,192,194630,1,0,0:0:0:50:Drum_Tom1.ogg
192,192,195005,128,0,195380:0:0:0:0:
64,192,195005,1,0,0:0:0:0:
448,192,195380,128,0,195755:0:0:0:0:
320,192,195380,1,0,0:0:0:0:
64,192,195755,128,0,196130:0:0:0:0:
320,192,195755,1,0,0:0:0:0:
448,192,196130,128,0,196505:0:0:0:0:
192,192,196130,1,0,0:0:0:0:
64,192,196505,128,0,196880:0:0:0:0:
320,192,196505,1,0,0:0:0:0:
320,192,196880,128,0,197255:0:0:0:0:
448,192,196880,1,0,0:0:0:0:
64,192,197255,128,0,197630:0:0:0:0:
448,192,197255,1,0,0:0:0:0:
192,192,197630,128,0,198005:0:0:0:0:
320,192,197630,1,0,0:0:0:0:
64,192,198005,128,0,198755:0:0:0:100:Drum_Kick.ogg
320,192,198005,128,0,198380:0:0:0:0:
192,192,198380,128,0,198755:0:0:0:100:Drum_Tom4.ogg
448,192,198505,1,0,0:0:0:0:
320,192,198630,1,0,0:0:0:90:Drum_Tom2.ogg
448,192,198755,1,0,0:0:0:0:
192,192,198880,1,0,0:0:0:95:Drum_Tom3.ogg
448,192,199005,1,0,0:0:0:70:Drum_Tom2.ogg
64,192,199130,1,0,0:0:0:100:Drum_Cymbals A.ogg
192,192,199130,1,0,0:0:0:50:Drum_Tom1.ogg
320,192,199130,1,0,0:0:0:0:
320,192,199505,1,0,0:0:0:80:Drum_Snare.ogg
192,192,199505,1,0,0:0:0:0:
64,192,200255,1,0,0:0:0:100:Drum_Kick.ogg
192,192,200255,1,0,0:0:0:100:DB_A0.ogg
320,192,200255,1,0,0:0:0:0:
448,192,200255,1,0,0:0:0:0:
64,192,200630,1,0,0:0:0:80:Drum_Snare.ogg
192,192,200630,1,0,0:0:0:0:
448,192,200630,1,0,0:0:0:0:
192,192,201005,1,0,0:0:0:80:Drum_Snare.ogg
320,192,201005,1,0,0:0:0:0:
448,192,201255,1,0,0:0:0:70:Drum_Snare.ogg
64,192,201380,1,0,0:0:0:100:Drum_Kick.ogg
192,192,201380,1,0,0:0:0:100:DB_A0.ogg
320,192,201380,1,0,0:0:0:0:
320,192,201755,1,0,0:0:0:80:Drum_Snare.ogg
448,192,201755,1,0,0:0:0:0:
448,192,202505,1,0,0:0:0:100:Drum_Kick.ogg
320,192,202505,1,0,0:0:0:100:DB_A0.ogg
192,192,202505,1,0,0:0:0:0:
64,192,202505,1,0,0:0:0:0:
448,192,202880,1,0,0:0:0:80:Drum_Snare.ogg
192,192,202880,1,0,0:0:0:0:
64,192,202880,1,0,0:0:0:0:
448,192,203255,1,0,0:0:0:80:Drum_Snare.ogg
64,192,203255,1,0,0:0:0:100:DB_A#0.ogg
192,192,203505,1,0,0:0:0:70:Drum_Snare.ogg
320,192,203630,128,0,204005:0:0:0:100:Drum_Kick.ogg
448,192,203630,1,0,0:0:0:100:DB_B0.ogg
64,192,203630,1,0,0:0:0:0:
192,192,204005,1,0,0:0:0:80:Drum_Snare.ogg
448,192,204005,1,0,0:0:0:0:
320,192,204755,128,0,205505:0:0:0:100:Drum_Kick.ogg
448,192,204755,1,0,0:0:0:100:DB_E1.ogg
64,192,204755,1,0,0:0:0:0:
192,192,204755,1,0,0:0:0:0:
192,192,205130,1,0,0:0:0:80:Drum_Snare.ogg
448,192,205505,1,0,0:0:0:80:Drum_Snare.ogg
192,192,205755,1,0,0:0:0:70:Drum_Snare.ogg
64,192,205880,1,0,0:0:0:100:Drum_Kick.ogg
64,192,206255,1,0,0:0:0:80:Drum_Snare.ogg
192,192,206255,1,0,0:0:0:0:
64,192,206630,1,0,0:0:0:85:Drum_Snare.ogg
320,192,206630,1,0,0:0:0:0:
192,192,206630,1,0,0:0:0:0:
448,192,207005,128,0,207755:0:0:0:100:Drum_Kick.ogg
64,192,207005,128,0,207755:0:0:0:100:DB_F#1.ogg
192,192,207005,1,0,0:0:0:0:
320,192,207005,1,0,0:0:0:0:
192,192,207380,1,0,0:0:0:80:Drum_Snare.ogg
320,192,207755,1,0,0:0:0:80:Drum_Snare.ogg
448,192,208005,1,0,0:0:0:70:Drum_Snare.ogg
64,192,208130,128,0,208880:0:0:0:100:Drum_Snare.ogg
320,192,208130,1,0,0:0:0:0:
320,192,208505,1,0,0:0:0:80:Drum_Snare.ogg
192,192,208505,1,0,0:0:0:0:
192,192,208755,1,0,0:0:0:0:
320,192,208880,1,0,0:0:0:100:Drum_Snare.ogg
448,192,208880,1,0,0:0:0:0:
192,192,209005,1,0,0:0:0:80:Drum_Snare.ogg
448,192,209130,1,0,0:0:0:60:Drum_Snare.ogg
192,192,209255,128,0,210005:0:0:0:45:Drum_Snare.ogg
64,192,209255,1,0,0:0:0:0:
448,192,209630,1,0,0:0:0:85:Drum_Snare.ogg
320,192,209630,1,0,0:0:0:0:
320,192,209880,1,0,0:0:0:0:
448,192,210005,1,0,0:0:0:95:Drum_Snare.ogg
64,192,210005,1,0,0:0:0:0:
320,192,210130,1,0,0:0:0:0:
192,192,210255,1,0,0:0:0:80:Drum_Snare.ogg
320,192,210380,128,0,211130:0:0:0:100:Drum_Snare.ogg
448,192,210380,1,0,0:0:0:0:
64,192,210755,1,0,0:0:0:80:Drum_Snare.ogg
448,192,210755,1,0,0:0:0:0:
64,192,211005,1,0,0:0:0:0:
448,192,211130,1,0,0:0:0:100:Drum_Snare.ogg
192,192,211255,1,0,0:0:0:80:Drum_Snare.ogg
320,192,211380,1,0,0:0:0:60:Drum_Snare.ogg
64,192,211505,1,0,0:0:0:45:Drum_Snare.ogg
192,192,211505,1,0,0:0:0:0:
320,192,211598,1,0,0:0:0:0:
448,192,211692,1,0,0:0:0:0:
192,192,211786,1,0,0:0:0:0:
64,192,211880,1,0,0:0:0:85:Drum_Snare.ogg
320,192,211973,1,0,0:0:0:0:
192,192,212067,1,0,0:0:0:0:
64,192,212161,1,0,0:0:0:0:
320,192,212255,1,0,0:0:0:95:Drum_Snare.ogg
448,192,212348,1,0,0:0:0:0:
320,192,212442,1,0,0:0:0:0:
192,192,212536,1,0,0:0:0:0:
64,192,212630,128,0,214130:0:0:0:100:Drum_Cymbals A.ogg
320,192,212630,128,0,214130:0:0:0:0:
192,192,217130,5,0,0:0:0:100:Drum_Kick.ogg
320,192,217130,1,0,0:0:0:100:DB_B1.ogg
448,192,217380,1,0,0:0:0:0:
320,192,217505,1,0,0:0:0:50:Drum_Tom Tom 1.ogg
448,192,217755,1,0,0:0:0:0:
320,192,217880,1,0,0:0:0:50:Drum_Tom Tom 1.ogg
192,192,218005,1,0,0:0:0:0:
320,192,218130,1,0,0:0:0:0:
64,192,218255,1,0,0:0:0:100:Drum_Kick.ogg
448,192,218255,1,0,0:0:0:100:DB_E1.ogg
192,192,218505,1,0,0:0:0:0:
448,192,218630,1,0,0:0:0:50:Drum_Tom Tom 1.ogg
320,192,218880,1,0,0:0:0:0:
448,192,219005,128,0,219255:0:0:0:50:Drum_Tom Tom 1.ogg
320,192,219255,1,0,0:0:0:0:
448,192,219380,1,0,0:0:0:100:Drum_Kick.ogg
64,192,219380,128,0,220130:0:0:0:100:DB_A1.ogg
320,192,219630,1,0,0:0:0:0:
192,192,219755,1,0,0:0:0:50:Drum_Tom Tom 1.ogg
320,192,220005,1,0,0:0:0:0:
192,192,220130,1,0,0:0:0:50:Drum_Tom Tom 1.ogg
448,192,220380,1,0,0:0:0:0:
320,192,220505,1,0,0:0:0:100:Drum_Kick.ogg
192,192,220505,1,0,0:0:0:0:
448,192,220880,1,0,0:0:0:100:Drum_Tom4.ogg
192,192,221130,1,0,0:0:0:90:Drum_Tom2.ogg
320,192,221380,1,0,0:0:0:95:Drum_Tom3.ogg
192,192,221505,1,0,0:0:0:70:Drum_Tom2.ogg
448,192,221630,1,0,0:0:0:100:Drum_Cymbals A.ogg
64,192,221630,1,0,0:0:0:50:Drum_Tom1.ogg
