osu file format v14

[General]
AudioFilename: audio.mp3
AudioLeadIn: 0
PreviewTime: 35395
Countdown: 0
SampleSet: Soft
StackLeniency: 0.3
Mode: 0
LetterboxInBreaks: 0
WidescreenStoryboard: 1

[Editor]
Bookmarks: 2365,13400,24434,35469,46503,57538,68572,79607,90641,101676,112710,123055
DistanceSpacing: 1
BeatDivisor: 4
GridSize: 4
TimelineZoom: 2.999999

[Metadata]
Title:Magical
TitleUnicode:Magical
Artist:Snail's House
ArtistUnicode:Snail's House
Creator:VoiceCore
Version:Normal
Source:beatmania IIDX 24 SINOBUZ
Tags:Suiyu karen video game kawaii future bass Ujico* instrumental
BeatmapID:2277779
BeatmapSetID:1083332

[Difficulty]
HPDrainRate:4.2
CircleSize:3
OverallDifficulty:4.2
ApproachRate:5.2
SliderMultiplier:1.2
SliderTickRate:1

[Events]
//Background and Video events
0,0,"IMG_20191124_082521.jpg",0,0
//Break Periods
2,68784,78448
//Storyboard Layer 0 (Background)
//Storyboard Layer 1 (Fail)
//Storyboard Layer 2 (Pass)
//Storyboard Layer 3 (Foreground)
//Storyboard Layer 4 (Overlay)
//Storyboard Sound Samples

[TimingPoints]
998,344.827586206897,4,2,1,40,1,0
7894,-125,4,2,2,40,0,0
13411,-125,4,2,1,40,0,0
24446,-111.111111111111,4,2,1,50,0,0
29963,-111.111111111111,4,2,2,50,0,0
34791,-100,4,2,1,5,0,0
35480,-100,4,2,1,60,0,1
40998,-111.111111111111,4,2,1,60,0,1
41687,-100,4,2,1,60,0,1
57549,-111.111111111111,4,2,1,60,0,0
79618,-111.111111111111,4,2,2,50,0,0
85135,-111.111111111111,4,2,1,50,0,0
89963,-100,4,2,1,5,0,0
90653,-100,4,2,1,60,0,1
112722,-100,4,2,2,40,0,0

[Colours]
Combo1 : 255,226,26
Combo2 : 49,152,255
Combo3 : 174,215,255
Combo4 : 255,128,192
Combo5 : 255,21,138
Combo6 : 255,135,15

[HitObjects]
148,158,7894,6,0,L|41:173,2,96,2|0|8,1:2|1:0|0:2,0:0:0:0:
196,158,8756,1,2,0:2:0:0:
228,248,9101,2,0,P|308:307|399:272,1,192,2|2,1:2|1:2,0:0:0:0:
426,249,9963,1,8,0:2:0:0:
489,67,10653,6,0,L|496:172,2,96,2|0|10,1:2|1:0|0:2,0:0:0:0:
402,38,11687,1,2,0:2:0:0:
402,38,11860,2,0,P|310:22|216:73,1,192,2|0,1:2|1:0,0:0:0:0:
189,96,12722,2,0,L|200:200,1,96,10|2,0:2|0:0,0:0:0:0:
213,286,13411,70,0,P|287:265|317:271,1,96,2|2,1:2|0:0,0:0:0:0:
342,298,13929,2,0,L|403:308,2,48,2|2|2,0:0|0:0|0:0,0:0:0:0:
279,370,14618,1,2,0:0:0:0:
191,330,14963,1,2,0:0:0:0:
210,235,15308,2,0,L|215:124,1,96,2|2,0:2|0:0,0:0:0:0:
176,109,15825,2,0,L|170:42,2,48,2|2|2,0:0|0:0|0:2,0:0:0:0:
133,131,16342,5,2,0:0:0:0:
71,204,16687,1,2,0:0:0:0:
122,285,17032,1,2,0:0:0:0:
217,275,17377,2,0,P|275:307|358:289,1,144,2|2,0:2|0:0,0:0:0:0:
385,263,18066,2,0,B|404:218|404:218|394:164,1,96,2|2,0:0|0:0,0:0:0:0:
374,128,18584,2,0,L|319:132,2,48,2|2|2,0:0|0:0|0:2,0:0:0:0:
405,91,19101,69,2,0:0:0:0:
338,21,19446,1,2,0:0:0:0:
250,64,19791,1,2,0:0:0:0:
264,161,20135,2,0,L|254:267,1,96,2|2,0:0|0:0,0:0:0:0:
276,350,20825,2,0,L|170:361,1,96,2|2,0:0|0:0,0:0:0:0:
90,325,21515,6,0,P|45:252|157:170,1,240,0|2,0:0|0:0,0:0:0:0:
192,170,22549,2,0,L|197:111,1,48,2|2,0:0|0:0,0:0:0:0:
204,74,22894,2,0,L|312:88,2,96,2|2|2,0:2|0:2|0:0,0:0:0:0:
172,37,23756,2,0,P|97:23|62:34,1,96,2|2,0:0|0:0,0:0:0:0:
39,127,24446,6,0,B|27:183|27:183|46:243,1,107.999996704102,0|12,1:0|0:1,0:0:0:0:
119,306,25135,2,0,B|175:318|175:318|235:299,1,107.999996704102,0|12,1:0|0:1,0:0:0:0:
307,236,25825,1,0,1:0:0:0:
270,138,26170,1,12,0:1:0:0:
165,116,26515,2,0,L|172:225,1,107.999996704102,0|12,1:0|0:1,0:0:0:0:
161,331,27204,6,0,P|230:314|273:333,1,107.999996704102,0|12,1:0|0:1,0:0:0:0:
368,351,27894,2,0,P|437:368|480:349,1,107.999996704102,0|12,1:0|0:1,0:0:0:0:
503,253,28584,1,0,1:0:0:0:
449,159,28929,1,12,0:1:0:0:
345,188,29273,2,0,B|313:193|313:193|231:184,1,107.999996704102,0|12,1:0|0:1,0:0:0:0:
138,140,29963,38,0,P|75:129|31:157,1,107.999996704102,0|0,1:0|1:0,0:0:0:0:
50,256,30653,2,0,P|113:267|157:239,1,107.999996704102,0|0,1:0|1:0,0:0:0:0:
237,184,31342,2,0,L|247:69,1,107.999996704102,0|0,1:0|1:0,0:0:0:0:
343,27,32032,2,0,L|356:144,1,107.999996704102,0|0,1:0|1:0,0:0:0:0:
256,192,32722,12,0,34791,3:0:0:0:
37,363,35480,53,0,1:0:0:0:
107,266,35825,2,0,P|106:212|94:191,1,60,0|0,1:0|0:0,0:0:0:0:
73,155,36170,2,0,P|150:163|200:140,1,120,10|0,0:2|0:0,0:0:0:0:
213,93,36687,2,0,L|336:120,2,120,0|0|0,1:0|2:0|1:0,0:0:0:0:
183,40,37549,1,8,0:2:0:0:
63,46,37894,1,2,0:2:0:0:
28,161,38239,5,0,1:0:0:0:
121,236,38584,2,0,P|158:229|206:228,1,60,2|2,1:2|0:2,0:0:0:0:
236,248,38929,2,0,P|277:277|342:265,1,120,8|0,0:2|0:0,0:0:0:0:
382,219,39446,2,0,L|392:344,2,120,0|0|0,1:0|0:0|1:0,0:0:0:0:
345,171,40308,2,0,L|351:97,2,60,8|2|2,0:2|0:2|0:2,0:0:0:0:
305,271,40998,70,0,P|252:296|182:288,1,107.999996704102,0|0,0:0|0:0,0:0:0:0:
172,180,41687,2,0,P|107:164|43:193,1,120,10|0,0:2|0:0,0:0:0:0:
22,228,42204,2,0,L|32:354,2,120,2|0|0,1:2|0:0|1:0,0:0:0:0:
58,180,43066,1,8,0:2:0:0:
83,62,43411,1,2,0:2:0:0:
190,10,43756,5,0,1:0:0:0:
200,129,44101,2,0,L|205:192,1,60,2|2,1:2|0:2,0:0:0:0:
259,214,44446,2,0,P|329:236|388:205,1,120,10|2,0:2|0:2,0:0:0:0:
424,191,44963,1,0,1:0:0:0:
424,191,45135,2,0,L|419:261,2,60,0|0|0,3:3|3:3|3:3,0:0:0:0:
318,132,45825,2,0,L|310:66,2,60,8|0|0,3:2|3:3|3:3,0:0:0:0:
210,187,46515,70,0,L|220:307,1,120,0|8,1:0|0:1,0:0:0:0:
229,370,47032,1,0,0:0:0:0:
229,370,47204,2,0,P|296:349|346:359,1,120,0|8,1:2|0:1,0:0:0:0:
463,349,47894,2,0,P|491:283|478:226,1,120,0|8,1:0|0:1,0:0:0:0:
369,276,48584,1,2,1:2:0:0:
268,210,48929,1,8,0:1:0:0:
153,249,49273,6,0,P|79:254|42:230,1,120,0|8,1:0|0:1,0:0:0:0:
26,178,49791,1,0,0:0:0:0:
26,178,49963,2,0,L|42:52,1,120,0|8,1:0|0:1,0:0:0:0:
159,37,50653,2,0,B|219:28|219:28|279:53,1,120,0|8,1:0|0:1,0:0:0:0:
328,88,51170,1,0,0:0:0:0:
328,88,51342,2,0,L|403:74,2,60,0|0|8,1:0|0:0|0:1,0:0:0:0:
236,165,52032,70,0,P|315:208|361:202,1,120,0|8,1:0|0:1,0:0:0:0:
403,190,52549,1,0,0:0:0:0:
403,190,52722,2,0,L|386:312,1,120,0|8,1:0|0:1,0:0:0:0:
266,300,53411,2,0,B|205:282|205:282|151:305,1,120,0|8,1:0|0:1,0:0:0:0:
44,354,54101,1,0,1:0:0:0:
48,234,54446,1,8,0:1:0:0:
50,113,54791,6,0,P|109:72|166:81,1,120,0|8,1:0|0:1,0:0:0:0:
189,132,55308,1,0,0:0:0:0:
189,132,55480,2,0,P|249:170|303:164,1,120,2|8,1:2|0:1,0:0:0:0:
362,65,56170,2,0,L|492:44,1,120,0|8,1:0|0:1,0:0:0:0:
470,108,56687,1,0,0:0:0:0:
470,108,56860,2,0,L|447:226,1,120,0|8,1:0|0:1,0:0:0:0:
387,316,57549,6,0,P|334:301|273:306,1,107.999996704102,0|8,1:0|2:0,0:0:0:0:
234,329,58066,2,0,P|181:344|120:339,1,107.999996704102,0|8,1:0|2:0,0:0:0:0:
86,307,58584,2,0,L|98:193,1,107.999996704102,0|8,1:0|2:0,0:0:0:0:
51,170,59101,2,0,L|47:56,1,107.999996704102,0|0,1:0|1:0,0:0:0:0:
11,21,59618,1,8,3:2:0:0:
226,29,60308,6,0,P|278:85|281:127,1,107.999996704102,0|8,1:0|2:0,0:0:0:0:
260,163,60825,2,0,L|148:157,1,107.999996704102,0|8,1:0|2:0,0:0:0:0:
98,161,61342,2,0,P|72:228|96:280,1,107.999996704102,0|8,1:0|2:0,0:0:0:0:
106,308,61860,2,0,L|272:297,1,161.999995056153,0|2,1:0|0:2,0:0:0:0:
465,211,63066,70,0,P|481:129|466:100,1,107.999996704102,0|8,1:0|2:0,0:0:0:0:
427,79,63584,2,0,B|375:84|375:84|323:53,1,107.999996704102,0|8,1:0|2:0,0:0:0:0:
275,39,64101,2,0,B|223:34|223:34|171:65,1,107.999996704102,0|8,1:0|2:0,0:0:0:0:
133,97,64618,2,0,L|139:206,1,107.999996704102,0|0,1:0|1:0,0:0:0:0:
398,280,65825,6,0,P|352:250|286:264,1,107.999996704102,0|8,1:0|2:0,0:0:0:0:
268,298,66342,2,0,L|256:177,1,107.999996704102,0|8,1:0|2:0,0:0:0:0:
251,136,66860,2,0,P|205:166|139:152,1,107.999996704102,0|8,1:0|2:0,0:0:0:0:
120,118,67377,1,0,3:0:0:0:
256,192,67549,12,0,68584,1:0:0:0:
334,352,79618,70,0,P|353:265|342:238,1,107.999996704102,0|2,1:0|1:2,0:0:0:0:
260,185,80308,2,0,P|241:98|252:71,1,107.999996704102,2|0,1:2|1:0,0:0:0:0:
342,32,80998,1,0,1:0:0:0:
424,101,81342,1,0,1:0:0:0:
367,191,81687,2,0,L|258:184,1,107.999996704102,0|2,1:0|1:2,0:0:0:0:
160,140,82377,6,0,P|77:137|46:156,1,107.999996704102,0|2,1:0|1:2,0:0:0:0:
10,245,83066,2,0,P|48:318|80:335,1,107.999996704102,2|2,1:2|1:2,0:0:0:0:
176,325,83756,1,0,1:0:0:0:
226,229,84101,1,0,1:0:0:0:
331,251,84446,2,0,P|403:263|445:258,1,107.999996704102,0|2,1:0|1:2,0:0:0:0:
456,153,85135,70,0,B|426:105|426:105|369:129,1,107.999996704102,0|0,1:0|1:0,0:0:0:0:
276,161,85825,2,0,B|246:209|246:209|189:185,1,107.999996704102,0|0,1:0|1:0,0:0:0:0:
150,91,86515,1,0,1:0:0:0:
41,106,86860,1,0,1:0:0:0:
22,213,87204,1,0,1:0:0:0:
118,263,87549,1,0,1:0:0:0:
256,192,87894,12,0,89963,3:0:0:0:
470,292,90653,53,0,1:0:0:0:
407,189,90998,2,0,P|364:185|336:193,1,60,0|0,1:0|0:0,0:0:0:0:
302,227,91342,2,0,P|230:238|173:223,1,120,10|0,0:2|0:0,0:0:0:0:
135,192,91860,2,0,L|147:318,2,120,0|0|0,1:0|0:0|1:0,0:0:0:0:
100,142,92722,2,0,P|100:67|138:20,1,120,10|0,0:2|0:0,0:0:0:0:
214,110,93411,5,0,1:0:0:0:
330,140,93756,1,0,1:0:0:0:
438,87,94101,2,0,L|449:27,2,60,10|2|2,0:2|0:2|0:2,0:0:0:0:
477,132,94618,2,0,L|485:261,1,120,2|0,1:2|0:0,0:0:0:0:
390,327,95308,1,0,1:0:0:0:
337,298,95480,2,0,P|267:281|209:313,1,120,8|0,0:2|0:0,0:0:0:0:
126,367,96170,69,0,1:0:0:0:
74,258,96515,2,0,P|69:220|73:190,1,60,0|0,1:0|0:0,0:0:0:0:
115,157,96860,2,0,P|107:107|102:90,2,60,10|2|2,0:2|0:2|0:2,0:0:0:0:
169,182,97377,2,0,P|238:197|302:174,1,120,2|2,1:2|0:2,0:0:0:0:
359,90,98066,1,0,1:0:0:0:
314,49,98239,2,0,P|258:22|190:36,1,120,8|0,0:2|0:0,0:0:0:0:
104,98,98929,5,0,1:0:0:0:
173,195,99273,2,0,P|219:207|240:204,1,60,0|0,1:0|0:0,0:0:0:0:
289,219,99618,2,0,P|358:192|423:217,1,120,8|0,0:2|0:0,0:0:0:0:
456,236,100135,1,0,1:0:0:0:
456,236,100308,2,0,L|470:150,2,60,0|0|0,3:0|3:0|3:0,0:0:0:0:
358,306,100998,2,0,L|365:374,2,60,8|0|0,3:2|3:0|3:0,0:0:0:0:
281,213,101687,69,0,1:0:0:0:
177,152,102032,2,0,L|105:162,1,60,0|0,1:0|0:0,0:0:0:0:
58,170,102377,2,0,P|65:253|94:284,1,120,10|0,0:2|0:0,0:0:0:0:
140,305,102894,2,0,L|10:327,2,120,0|2|0,1:0|0:2|1:0,0:0:0:0:
198,292,103756,2,0,P|268:288|318:306,1,120,8|2,0:2|0:2,0:0:0:0:
421,359,104446,5,0,1:0:0:0:
462,246,104791,2,0,P|468:201|465:177,1,60,2|2,1:2|0:2,0:0:0:0:
449,129,105135,2,0,B|390:109|390:109|333:140,1,120,8|0,0:2|0:0,0:0:0:0:
298,181,105653,2,0,L|284:57,2,120,0|0|0,1:0|0:0|1:0,0:0:0:0:
273,236,106515,2,0,L|266:310,2,60,8|2|2,0:2|0:2|0:2,0:0:0:0:
189,149,107204,70,0,P|106:146|67:168,1,120,0|8,1:0|0:1,0:0:0:0:
28,200,107722,1,0,0:0:0:0:
28,200,107894,2,0,L|37:326,1,120,0|8,1:0|0:1,0:0:0:0:
156,333,108584,2,0,B|214:352|214:352|279:312,1,120,0|8,1:0|0:1,0:0:0:0:
298,206,109273,1,0,1:0:0:0:
409,251,109618,1,8,0:1:0:0:
394,131,109963,6,0,P|339:86|280:84,1,120,0|2,1:0|0:2,0:0:0:0:
242,115,110480,2,0,P|167:152|130:140,1,120,2|2,1:2|0:2,0:0:0:0:
96,97,110998,2,0,L|111:220,1,120,2|2,1:2|0:2,0:0:0:0:
120,275,111515,2,0,B|179:255|179:255|235:282,1,120,2|2,1:2|1:2,0:0:0:0:
282,310,112032,5,8,0:2:0:0:
400,290,112377,2,0,L|474:295,2,60,2|2|0,0:2|0:2|1:0,0:0:0:0:
