osu file format v14

[General]
AudioFilename: audio.mp3
AudioLeadIn: 0
PreviewTime: 35395
Countdown: 0
SampleSet: Soft
StackLeniency: 0.3
Mode: 0
LetterboxInBreaks: 0
WidescreenStoryboard: 0

[Editor]
Bookmarks: 2365,13400,24434,35469,46503,57538,68572,79607,90641,101676,112710,123055
DistanceSpacing: 1.9
BeatDivisor: 4
GridSize: 4
TimelineZoom: 2.999999

[Metadata]
Title:Magical
TitleUnicode:Magical
Artist:Snail's House
ArtistUnicode:Snail's House
Creator:VoiceCore
Version:Expert
Source:beatmania IIDX 24 SINOBUZ
Tags:Suiyu karen video game kawaii future bass Ujico* instrumental
BeatmapID:2265852
BeatmapSetID:1083332

[Difficulty]
HPDrainRate:6.2
CircleSize:4.5
OverallDifficulty:8.2
ApproachRate:9.2
SliderMultiplier:1.6
SliderTickRate:1

[Events]
//Background and Video events
0,0,"IMG_20191124_082521.jpg",0,0
//Break Periods
2,68784,78359
//Storyboard Layer 0 (Background)
//Storyboard Layer 1 (Fail)
//Storyboard Layer 2 (Pass)
//Storyboard Layer 3 (Foreground)
//Storyboard Layer 4 (Overlay)
//Storyboard Sound Samples

[TimingPoints]
998,344.827586206897,4,2,1,5,1,0
2032,-100,4,2,1,5,0,0
2377,-200,4,2,1,40,0,0
2549,-200,4,2,1,30,0,0
3239,-133.333333333333,4,2,1,40,0,0
3498,-133.333333333333,4,2,1,5,0,0
3584,-200,4,2,1,30,0,0
4273,-200,4,2,1,40,0,0
4446,-200,4,2,1,30,0,0
5135,-200,4,2,1,40,0,0
5308,-200,4,2,1,30,0,0
5998,-133.333333333333,4,2,1,40,0,0
6256,-133.333333333333,4,2,1,5,0,0
6342,-133.333333333333,4,2,1,40,0,0
6515,-200,4,2,1,30,0,0
7204,-200,4,2,1,40,0,0
7894,-133.333333333333,4,2,2,40,0,0
9015,-133.333333333333,4,2,1,5,0,0
9101,-133.333333333333,4,2,2,40,0,0
9273,-200,4,2,1,30,0,0
9791,-200,4,2,2,40,0,0
10135,-200,4,2,1,30,0,0
10653,-133.333333333333,4,2,2,40,0,0
12722,-133.333333333333,4,2,2,50,0,0
12894,-100,4,2,1,50,0,0
13066,-80,4,2,1,50,0,0
13239,-66.6666666666667,4,2,1,50,0,0
13411,-100,4,2,1,50,0,0
14877,-100,4,2,1,5,0,0
14963,-100,4,2,1,50,0,0
15222,-100,4,2,1,5,0,0
15308,-100,4,2,1,50,0,0
15566,-100,4,2,1,5,0,0
15653,-133.333333333333,4,2,1,50,0,0
16170,-100,4,2,1,50,0,0
18325,-100,4,2,1,5,0,0
18411,-133.333333333333,4,2,1,50,0,0
18929,-100,4,2,1,50,0,0
19704,-100,4,2,1,5,0,0
19791,-100,4,2,1,50,0,0
20049,-100,4,2,1,5,0,0
20135,-100,4,2,1,50,0,0
23929,-80,4,2,1,50,0,0
24101,-66.6666666666667,4,2,1,50,0,0
24273,-57.1428571428571,4,2,1,50,0,0
24446,-80,4,2,1,50,0,0
29963,-100,4,2,2,40,0,0
32248,-100,4,2,2,5,0,0
32377,-100,4,2,2,50,0,0
32420,-100,4,2,2,5,0,0
32549,-100,4,2,2,50,0,0
32592,-100,4,2,2,5,0,0
34101,-133.333333333333,4,2,2,50,0,0
34446,-100,4,2,2,50,0,0
35480,-66.6666666666667,4,2,1,70,0,1
35739,-66.6666666666667,4,2,1,5,0,1
35825,-66.6666666666667,4,2,1,70,0,1
36342,-50,4,2,1,70,0,1
36601,-50,4,2,1,5,0,1
36687,-66.6666666666667,4,2,1,70,0,1
36946,-66.6666666666667,4,2,1,5,0,1
37032,-66.6666666666667,4,2,1,70,0,1
37291,-66.6666666666667,4,2,1,5,0,1
37377,-66.6666666666667,4,2,1,70,0,1
37549,-50,4,2,1,70,0,1
37722,-66.6666666666667,4,2,1,70,0,1
37894,-50,4,2,1,70,0,1
38066,-66.6666666666667,4,2,1,70,0,1
38929,-50,4,2,1,70,0,1
39187,-50,4,2,1,5,0,1
39273,-66.6666666666667,4,2,1,70,0,1
39704,-66.6666666666667,4,2,1,5,0,1
39791,-66.6666666666667,4,2,1,70,0,1
40049,-66.6666666666667,4,2,1,5,0,1
40135,-50,4,2,1,70,0,1
40653,-149.999999999925,4,2,1,70,0,1
40911,-149.999999999925,4,2,1,5,0,1
40998,-200,4,2,1,70,0,1
41256,-200,4,2,1,5,0,1
41342,-100,4,2,1,70,0,1
41860,-50,4,2,1,70,0,1
42118,-50,4,2,1,5,0,1
42204,-66.6666666666667,4,2,1,70,0,1
42463,-66.6666666666667,4,2,1,5,0,1
42549,-66.6666666666667,4,2,1,70,0,1
42808,-66.6666666666667,4,2,1,5,0,1
42894,-66.6666666666667,4,2,1,70,0,1
43066,-50,4,2,1,70,0,1
43239,-66.6666666666667,4,2,1,70,0,1
43411,-50,4,2,1,70,0,1
43584,-66.6666666666667,4,2,1,70,0,1
44791,-111.111111111111,4,2,1,70,0,1
45135,-66.6666666666667,4,2,1,70,0,1
45825,-80,4,2,1,70,0,1
46515,-66.6666666666667,4,2,1,70,0,1
46989,-66.6666666666667,4,2,1,5,0,1
47032,-66.6666666666667,4,2,1,70,0,1
47161,-66.6666666666667,4,2,1,5,0,1
47204,-66.6666666666667,4,2,1,70,0,1
47334,-66.6666666666667,4,2,1,5,0,1
47377,-66.6666666666667,4,2,1,70,0,1
49575,-66.6666666666667,4,2,1,5,0,1
49618,-66.6666666666667,4,2,1,70,0,1
49748,-66.6666666666667,4,2,1,5,0,1
49791,-66.6666666666667,4,2,1,70,0,1
49920,-66.6666666666667,4,2,1,5,0,1
49963,-66.6666666666667,4,2,1,70,0,1
51946,-66.6666666666667,4,2,1,5,0,1
52032,-66.6666666666667,4,2,1,70,0,1
52506,-66.6666666666667,4,2,1,5,0,1
52549,-66.6666666666667,4,2,1,70,0,1
52679,-66.6666666666667,4,2,1,5,0,1
52722,-66.6666666666667,4,2,1,70,0,1
52851,-66.6666666666667,4,2,1,5,0,1
52894,-66.6666666666667,4,2,1,70,0,1
55825,-111.111111111111,4,2,1,70,0,1
56170,-66.6666666666667,4,2,1,70,0,1
57463,-66.6666666666667,4,2,1,5,0,1
57549,-200,4,2,1,60,0,0
57808,-200,4,2,1,5,0,0
57894,-50,4,2,1,60,0,0
57980,-50,4,2,1,5,0,0
58066,-200,4,2,1,60,0,0
58325,-200,4,2,1,5,0,0
58411,-50,4,2,1,60,0,0
58498,-50,4,2,1,5,0,0
58584,-200,4,2,1,60,0,0
58842,-200,4,2,1,5,0,0
58929,-50,4,2,1,60,0,0
59101,-66.6666666666667,4,2,1,60,0,0
59618,-66.6666666666667,4,2,1,50,0,0
60308,-200,4,2,1,60,0,0
60566,-200,4,2,1,5,0,0
60653,-50,4,2,1,60,0,0
60739,-50,4,2,1,5,0,0
60825,-200,4,2,1,60,0,0
61084,-200,4,2,1,5,0,0
61170,-50,4,2,1,60,0,0
61256,-50,4,2,1,5,0,0
61342,-200,4,2,1,60,0,0
61601,-200,4,2,1,5,0,0
61687,-50,4,2,1,60,0,0
61773,-50,4,2,1,5,0,0
61860,-200,4,2,1,60,0,0
62204,-200,4,2,1,5,0,0
62377,-400,4,2,1,50,0,0
63066,-200,4,2,1,60,0,0
63325,-200,4,2,1,5,0,0
63411,-50,4,2,1,60,0,0
63498,-50,4,2,1,5,0,0
63584,-200,4,2,1,60,0,0
63842,-200,4,2,1,5,0,0
63929,-50,4,2,1,60,0,0
64015,-50,4,2,1,5,0,0
64101,-200,4,2,1,60,0,0
64360,-200,4,2,1,5,0,0
64446,-50,4,2,1,60,0,0
64618,-66.6666666666667,4,2,1,60,0,0
65135,-133.333333333333,4,2,1,40,0,0
65825,-66.6666666666667,4,2,1,60,0,0
66170,-50,4,2,1,60,0,0
66342,-66.6666666666667,4,2,1,60,0,0
66687,-50,4,2,1,60,0,0
66860,-66.6666666666667,4,2,1,60,0,0
67204,-50,4,2,1,60,0,0
67377,-66.6666666666667,4,2,1,60,0,0
67894,-80,4,2,1,60,0,0
78929,-80,4,2,1,40,0,0
79618,-100,4,2,2,50,0,0
85135,-80,4,2,1,50,0,0
89273,-133.333333333333,4,2,2,50,0,0
89618,-100,4,2,2,50,0,0
90653,-66.6666666666667,4,2,1,70,0,1
90911,-66.6666666666667,4,2,1,5,0,1
90998,-66.6666666666667,4,2,1,70,0,1
91515,-50,4,2,1,70,0,1
91773,-50,4,2,1,5,0,1
91860,-66.6666666666667,4,2,1,70,0,1
92118,-66.6666666666667,4,2,1,5,0,1
92204,-66.6666666666667,4,2,1,70,0,1
93368,-66.6666666666667,4,2,1,5,0,1
93411,-66.6666666666667,4,2,1,70,0,1
93670,-66.6666666666667,4,2,1,5,0,1
93756,-66.6666666666667,4,2,1,70,0,1
94015,-66.6666666666667,4,2,1,5,0,1
94101,-66.6666666666667,4,2,1,70,0,1
96860,-50,4,2,1,70,0,1
96946,-50,4,2,1,5,0,1
97032,-50,4,2,1,70,0,1
97118,-50,4,2,1,5,0,1
97204,-50,4,2,1,70,0,1
97291,-50,4,2,1,5,0,1
97377,-50,4,2,1,70,0,1
97463,-50,4,2,1,5,0,1
97549,-50,4,2,1,70,0,1
97635,-50,4,2,1,5,0,1
97722,-50,4,2,1,70,0,1
97808,-50,4,2,1,5,0,1
97894,-50,4,2,1,70,0,1
97980,-50,4,2,1,5,0,1
98066,-50,4,2,1,70,0,1
98411,-66.6666666666667,4,2,1,70,0,1
99618,-50,4,2,1,70,0,1
100308,-66.6666666666667,4,2,1,70,0,1
101946,-66.6666666666667,4,2,1,5,0,1
102032,-66.6666666666667,4,2,1,70,0,1
102549,-50,4,2,1,70,0,1
102808,-50,4,2,1,5,0,1
102894,-66.6666666666667,4,2,1,70,0,1
103153,-66.6666666666667,4,2,1,5,0,1
103239,-66.6666666666667,4,2,1,70,0,1
103498,-66.6666666666667,4,2,1,5,0,1
103584,-66.6666666666667,4,2,1,70,0,1
103756,-50,4,2,1,70,0,1
103929,-66.6666666666667,4,2,1,70,0,1
104101,-50,4,2,1,70,0,1
104273,-66.6666666666667,4,2,1,70,0,1
105135,-50,4,2,1,70,0,1
105394,-50,4,2,1,5,0,1
105480,-50,4,2,1,70,0,1
105653,-66.6666666666667,4,2,1,70,0,1
105911,-66.6666666666667,4,2,1,5,0,1
105998,-66.6666666666667,4,2,1,70,0,1
106256,-66.6666666666667,4,2,1,5,0,1
106342,-66.6666666666667,4,2,1,70,0,1
106860,-200,4,2,1,70,0,1
107118,-200,4,2,1,5,0,1
107204,-66.6666666666667,4,2,1,70,0,1
107679,-66.6666666666667,4,2,1,5,0,1
107722,-66.6666666666667,4,2,1,70,0,1
107851,-66.6666666666667,4,2,1,5,0,1
107894,-66.6666666666667,4,2,1,70,0,1
108023,-66.6666666666667,4,2,1,5,0,1
108066,-66.6666666666667,4,2,1,70,0,1
110480,-57.1428571428571,4,2,1,70,0,1
110998,-50,4,2,1,70,0,1
111515,-44.4444444444445,4,2,1,70,0,1
111687,-40,4,2,1,70,0,1
112032,-125,4,2,1,70,0,1
112291,-125,4,2,1,5,0,1
112377,-100,4,2,1,60,0,1
112722,-166.666666666667,4,2,2,40,0,0
118239,-200,4,2,2,40,0,0
123066,-200,4,2,1,40,0,0

[Colours]
Combo1 : 255,226,26
Combo2 : 255,128,255
Combo3 : 255,0,0
Combo4 : 49,152,255
Combo5 : 174,215,255
Combo6 : 255,128,192
Combo7 : 255,21,138
Combo8 : 255,135,15

[HitObjects]
256,192,998,12,0,2032,0:0:0:0:
375,60,2377,21,2,1:2:0:0:
298,22,2549,2,0,L|244:35,3,40,0|0|0|0,0:0|0:0|0:0|0:0,0:0:0:0:
304,111,3239,102,0,P|301:147|345:205,1,90.0000034332277,2|0,0:2|0:0,0:0:0:0:
345,205,3584,5,2,0:2:0:0:
427,128,3756,2,0,L|382:133,2,40,0|0|0,0:0|0:0|0:0,0:0:0:0:
327,193,4273,101,2,0:2:0:0:
396,289,4446,2,0,L|405:242,1,40,0|0,0:0|0:0,0:0:0:0:
293,287,4791,1,0,0:0:0:0:
300,301,4963,1,0,0:0:0:0:
361,375,5135,5,2,0:2:0:0:
234,362,5308,2,0,L|189:368,3,40,0|0|0|0,0:0|0:0|0:0|0:0,0:0:0:0:
80,300,5998,102,0,B|106:316|106:316|141:311|166:297,1,90.0000034332277,2|0,0:2|0:0,0:0:0:0:
186,285,6342,5,2,0:2:0:0:
131,189,6515,2,0,L|120:233,3,40,0|0|0|0,0:0|0:0|0:0|0:0,0:0:0:0:
30,150,7204,102,0,L|35:194,3,40,2|0|0|0,0:2|0:0|0:0|0:0,0:0:0:0:
103,87,7894,22,0,L|185:93,1,60.0000022888184,2|0,1:2|0:0,0:0:0:0:
238,49,8239,2,0,L|320:55,1,60.0000022888184,0|0,1:0|0:0,0:0:0:0:
395,148,8584,1,8,0:2:0:0:
425,70,8756,6,0,P|396:105|397:156,1,90.0000034332277,2|0,0:2|0:0,0:0:0:0:
407,172,9101,101,2,1:2:0:0:
315,223,9273,2,0,L|306:272,2,40,0|0|0,0:0|0:0|0:0,0:0:0:0:
246,127,9791,5,2,1:2:0:0:
254,100,9877,1,0,1:0:0:0:
273,121,9963,1,8,0:2:0:0:
148,95,10135,102,0,L|109:88,2,40,0|0|0,0:0|0:0|0:0,0:0:0:0:
113,251,10653,6,0,P|102:217|107:192,1,60.0000022888184,2|0,1:2|0:0,0:0:0:0:
215,182,10998,2,0,P|225:215|220:240,1,60.0000022888184,0|0,1:0|0:0,0:0:0:0:
4,302,11342,101,10,0:2:0:0:
131,346,11515,1,0,0:0:0:0:
164,218,11687,1,2,0:2:0:0:
255,308,11860,6,0,P|292:322|320:317,1,60.0000022888184,2|0,1:2|0:0,0:0:0:0:
338,200,12204,2,0,P|307:225|297:251,1,60.0000022888184,0|0,0:0|0:0,0:0:0:0:
390,325,12549,1,0,1:0:0:0:
387,295,12635,1,0,1:0:0:0:
371,270,12722,102,0,P|417:273|422:270,1,30.0000011444092,10|2,0:2|0:0,0:0:0:0:
474,210,12894,2,2,P|444:205|411:211,1,40,2|2,0:0|0:0,0:0:0:0:
357,118,13066,2,2,P|397:128|411:125,1,50,2|2,0:0|0:0,0:0:0:0:
486,36,13239,2,2,P|440:40|416:58,1,60.0000022888184,2|2,0:0|0:0,0:0:0:0:
281,25,13411,5,2,1:2:0:0:
197,90,13584,2,0,L|113:78,1,80,2|2,0:0|0:0,0:0:0:0:
23,135,13929,1,2,0:0:0:0:
23,28,14101,1,2,0:0:0:0:
117,78,14273,2,0,P|137:126|127:175,1,80,2|0,0:0|0:0,0:0:0:0:
27,243,14618,102,0,B|66:251|66:251|105:229|105:229|160:238,1,120,2|0,0:0|0:0,0:0:0:0:
145,245,14963,6,0,B|106:237|106:237|67:259|67:259|12:250,1,120,2|0,0:0|0:0,0:0:0:0:
70,348,15308,102,0,P|138:370|161:336,1,120,2|0,0:2|0:0,0:0:0:0:
229,308,15653,2,0,L|296:314,2,60.0000022888184,2|2|2,0:0|0:0|0:0,0:0:0:0:
181,165,16170,5,2,0:2:0:0:
170,245,16342,2,0,L|182:161,1,80,2|0,0:0|0:0,0:0:0:0:
197,69,16687,2,0,P|230:95|273:98,1,80,2|0,0:0|0:0,0:0:0:0:
363,75,17032,1,2,0:0:0:0:
421,144,17204,1,2,0:0:0:0:
482,71,17377,102,0,B|510:52|510:52|494:147,1,120,2|0,0:2|0:0,0:0:0:0:
469,211,17722,2,0,L|495:250,2,40,2|2|2,0:0|0:0|0:0,0:0:0:0:
361,242,18066,6,0,P|312:282|254:270,1,120,2|0,0:0|0:0,0:0:0:0:
195,209,18411,2,0,L|185:282,2,60.0000022888184,2|2|2,0:0|0:0|0:0,0:0:0:0:
209,107,18929,101,2,0:2:0:0:
289,96,19101,2,0,L|209:108,1,80,2|0,0:0|0:0,0:0:0:0:
49,149,19446,6,0,B|41:111|41:111|60:71|60:71|50:26,1,120,2|0,0:0|0:0,0:0:0:0:
36,31,19791,102,0,B|44:69|44:69|25:109|25:109|35:154,1,120,2|0,0:0|0:0,0:0:0:0:
30,235,20135,6,0,P|84:229|106:239,1,80,2|0,0:0|0:0,0:0:0:0:
208,286,20480,2,0,P|164:318|140:320,1,80,2|0,0:0|0:0,0:0:0:0:
119,160,20825,102,0,L|106:238,1,80,2|0,0:0|0:0,0:0:0:0:
278,361,21170,2,0,L|291:283,1,80,2|0,0:0|0:0,0:0:0:0:
313,155,21515,6,0,B|385:142|385:142|392:144|392:144|481:126,2,160,0|0|0,0:0|0:0|0:0,0:0:0:0:
245,225,22377,1,2,0:0:0:0:
291,310,22549,1,2,0:0:0:0:
386,292,22722,1,2,0:0:0:0:
403,190,22894,102,0,B|399:212|399:212|448:223|485:178,1,120,2|0,0:2|0:0,0:0:0:0:
506,97,23239,6,0,P|466:96|430:123,1,80,2|0,0:2|0:0,0:0:0:0:
336,52,23584,2,0,L|311:115,1,60,2|0,0:0|0:0,0:0:0:0:
268,167,23756,102,2,L|254:204,1,40,2|2,0:0|0:0,0:0:0:0:
211,309,23929,2,2,L|201:252,1,50,2|2,0:0|0:0,0:0:0:0:
197,131,24101,2,2,L|169:206,1,60.0000022888184,2|2,0:0|0:0,0:0:0:0:
134,313,24273,2,2,L|120:234,1,70.000000667572,2|2,0:0|0:0,0:0:0:0:
101,124,24446,22,0,P|47:115|12:151,1,100,0|0,1:0|0:0,0:0:0:0:
36,225,24704,1,0,0:0:0:0:
36,225,24791,2,0,P|90:234|125:198,1,100,12|0,0:1|0:0,0:0:0:0:
183,142,25049,1,0,0:0:0:0:
183,142,25135,6,0,P|183:170|200:194,1,50,0|0,1:0|0:0,0:0:0:0:
268,167,25308,2,0,P|267:138|250:114,1,50,0|0,0:0|0:0,0:0:0:0:
251,243,25480,1,12,0:1:0:0:
416,309,25653,1,0,0:0:0:0:
391,315,25739,1,0,0:0:0:0:
367,321,25825,102,0,L|384:209,1,100,0|0,1:0|0:0,0:0:0:0:
471,249,26084,1,0,0:0:0:0:
471,249,26170,2,0,L|454:137,1,100,12|0,0:1|0:0,0:0:0:0:
439,46,26429,1,0,0:0:0:0:
439,46,26515,6,0,L|381:49,1,50,0|0,1:0|0:0,0:0:0:0:
298,121,26687,2,0,L|357:114,1,50,0|0,0:0|0:0,0:0:0:0:
245,69,26860,2,0,P|226:98|240:169,1,100,12|0,0:1|0:0,0:0:0:0:
162,270,27204,102,0,B|140:253|140:253|57:272,1,100,0|0,1:0|0:0,0:0:0:0:
23,340,27463,1,0,0:0:0:0:
23,340,27549,2,0,B|45:357|45:357|128:338,1,100,12|0,0:1|0:0,0:0:0:0:
153,221,27808,1,0,0:0:0:0:
153,221,27894,6,0,B|152:231|152:231|163:276,1,50,0|0,1:0|0:0,0:0:0:0:
246,312,28066,2,0,B|246:301|246:301|236:257,1,50,0|0,0:0|0:0,0:0:0:0:
226,164,28239,1,12,0:1:0:0:
85,88,28411,1,0,0:0:0:0:
74,110,28498,1,0,0:0:0:0:
63,133,28584,102,0,P|112:140|160:127,1,100,0|0,1:0|0:0,0:0:0:0:
290,73,28842,1,0,0:0:0:0:
290,73,28929,2,0,P|245:53|195:54,1,100,12|0,0:1|0:0,0:0:0:0:
241,209,29187,1,0,0:0:0:0:
241,209,29273,6,0,P|248:179|238:152,1,50,0|0,1:0|0:0,0:0:0:0:
176,262,29446,2,0,P|168:291|179:318,1,50,0|0,0:0|0:0,0:0:0:0:
266,354,29618,2,0,L|376:342,1,100,12|0,0:1|0:0,0:0:0:0:
491,251,29963,70,0,P|497:292|497:348,1,80,0|0,1:0|0:0,0:0:0:0:
390,239,30308,1,0,1:0:0:0:
453,152,30480,2,0,P|450:182|445:195,1,40,0|0,0:0|0:0,0:0:0:0:
390,239,30653,6,0,B|365:254|365:254|302:246,1,80,0|0,1:0|0:0,0:0:0:0:
185,231,30998,1,0,1:0:0:0:
276,164,31170,102,0,P|282:127|260:85,1,80,2|0,0:2|1:0,0:0:0:0:
107,150,31515,2,0,L|188:142,1,80,0|0,0:0|1:0,0:0:0:0:
111,66,31860,2,0,L|27:59,1,80,0|0,0:0|1:0,0:0:0:0:
230,37,32204,6,0,L|208:62,1,20,0|0,0:0|0:0,0:0:0:0:
311,63,32377,102,0,L|304:95,1,20,0|0,1:0|0:0,0:0:0:0:
394,45,32549,6,0,L|404:76,1,20,0|0,0:0|0:0,0:0:0:0:
256,192,32722,12,0,33929,0:0:0:0:
146,331,34101,6,0,L|147:349,1,15.0000005722046,0|0,1:0|0:0,0:0:0:0:
127,317,34187,1,0,0:0:0:0:
115,299,34273,1,0,1:0:0:0:
110,277,34360,1,0,0:0:0:0:
114,254,34446,6,0,L|146:246,2,20,0|0|0,1:0|0:0|0:0,0:0:0:0:
245,193,34618,2,0,L|236:241,1,40,0|0,0:0|0:0,0:0:0:0:
128,115,34791,38,0,L|121:81,2,20,0|0|0,3:0|0:0|3:0,0:0:0:0:
258,58,34963,2,0,L|316:66,1,40,0|0,3:0|3:0,0:0:0:0:
449,154,35135,5,0,3:0:0:0:
425,172,35222,1,0,3:0:0:0:
397,182,35308,1,0,3:0:0:0:
367,182,35394,1,0,3:0:0:0:
339,171,35480,70,0,B|343:51|343:51|383:105,1,180.000006866455,0|0,1:0|0:0,0:0:0:0:
441,276,35825,6,0,B|412:304|358:289,1,60.0000022888184,0|0,1:0|0:0,0:0:0:0:
230,226,35998,2,0,B|269:216|308:256,1,60.0000022888184,0|0,0:0|0:0,0:0:0:0:
269,361,36170,101,10,0:2:0:0:
75,233,36342,2,0,B|65:204|115:172|115:172|172:210|152:275|123:298|97:309,1,240,2|0,0:2|0:0,0:0:0:0:
16,335,36687,6,0,B|70:323|70:323|126:353|126:353|194:337,1,180.000006866455,0|0,1:0|0:0,0:0:0:0:
70,183,37032,2,0,B|90:243|90:243|140:270|140:270|216:249,1,180.000006866455,0|0,2:0|0:0,0:0:0:0:
340,106,37377,101,0,1:0:0:0:
311,96,37463,1,0,1:0:0:0:
282,87,37549,6,0,P|271:140|292:188,1,80,8|0,0:2|0:0,0:0:0:0:
332,320,37722,2,0,P|345:284|343:254,1,60.0000022888184,2|0,0:2|0:0,0:0:0:0:
192,152,37894,102,0,P|208:203|250:233,1,80,2|0,0:2|0:0,0:0:0:0:
422,208,38066,2,0,P|414:169|397:145,1,60.0000022888184,2|0,0:2|0:0,0:0:0:0:
282,87,38239,5,0,1:0:0:0:
227,221,38411,102,0,L|197:152,1,60.0000022888184,2|0,0:2|0:0,0:0:0:0:
152,47,38584,2,0,L|137:120,1,60.0000022888184,2|0,1:2|0:0,0:0:0:0:
88,249,38756,2,0,L|85:173,1,60.0000022888184,2|0,0:2|0:0,0:0:0:0:
79,18,38929,6,0,B|35:11|23:72|23:72|89:118|138:79|155:39,1,240,8|0,0:2|0:0,0:0:0:0:
278,46,39273,1,0,0:0:0:0:
426,122,39446,102,0,B|385:90|340:103|340:103|302:140|253:123,1,180.000006866455,0|0,1:0|0:0,0:0:0:0:
85,80,39791,2,0,P|124:56|111:139,1,180.000006866455,0|0,0:0|0:0,0:0:0:0:
58,270,40135,5,0,1:0:0:0:
41,244,40222,1,0,1:0:0:0:
26,218,40308,102,0,P|67:200|116:215,1,80,8|0,0:2|0:0,0:0:0:0:
210,321,40480,6,0,P|173:294|162:244,1,80,2|0,0:2|0:0,0:0:0:0:
208,110,40653,102,0,P|203:154|165:189,1,80,2|0,0:2|0:0,0:0:0:0:
244,249,40998,6,0,L|307:248,1,60,0|0,0:0|0:0,0:0:0:0:
338,269,41342,102,0,P|364:268|381:261,1,40,0|0,0:0|0:0,0:0:0:0:
417,203,41515,2,0,P|411:177|400:162,1,40,0|0,0:0|0:0,0:0:0:0:
332,143,41687,5,10,0:2:0:0:
478,356,41860,2,0,B|495:210|495:210|489:262|437:282,1,240,2|0,0:2|0:0,0:0:0:0:
405,107,42204,102,0,P|331:58|257:100,1,180.000006866455,2|0,1:2|0:0,0:0:0:0:
161,255,42549,2,0,B|184:268|212:288|212:288|192:165,1,180.000006866455,0|0,0:0|0:0,0:0:0:0:
81,36,42894,5,0,1:0:0:0:
76,65,42980,1,0,1:0:0:0:
86,94,43066,102,0,L|166:87,1,80,8|0,0:2|0:0,0:0:0:0:
282,220,43239,2,0,L|215:207,1,60.0000022888184,2|0,0:2|0:0,0:0:0:0:
270,42,43411,6,0,P|267:93|254:120,1,80,2|0,0:2|0:0,0:0:0:0:
119,245,43584,2,0,P|116:202|120:176,1,60.0000022888184,2|0,0:2|0:0,0:0:0:0:
276,291,43756,101,0,1:0:0:0:
110,351,43929,1,2,0:2:0:0:
81,341,44015,1,2,0:2:0:0:
64,295,44101,6,0,L|45:357,1,60.0000022888184,2|0,1:2|0:0,0:0:0:0:
122,227,44273,2,0,L|140:292,1,60.0000022888184,2|0,0:2|0:0,0:0:0:0:
37,212,44446,101,10,0:2:0:0:
5,196,44532,1,2,0:2:0:0:
1,142,44618,5,2,0:2:0:0:
30,122,44704,1,2,0:2:0:0:
79,145,44791,102,0,L|85:186,1,35.9999989013672,2|0,0:2|0:0,0:0:0:0:
17,305,44963,5,0,1:0:0:0:
192,314,45135,102,0,L|201:350,1,30.0000011444092,0|0,3:3|3:3,0:0:0:0:
220,322,45222,1,0,3:3:0:0:
250,321,45308,1,0,3:3:0:0:
278,312,45394,1,0,3:3:0:0:
302,294,45480,6,0,L|309:251,2,30.0000011444092,0|0|0,3:3|3:3|3:3,0:0:0:0:
235,158,45653,101,0,1:3:0:0:
231,188,45739,1,0,1:3:0:0:
228,218,45825,6,0,L|235:257,2,25,8|0|0,3:2|3:3|3:3,0:0:0:0:
337,163,45998,2,0,L|388:176,1,50,0|0,3:3|3:3,0:0:0:0:
473,101,46170,101,0,3:3:0:0:
459,79,46256,1,0,3:3:0:0:
439,65,46342,1,0,3:3:0:0:
415,59,46429,1,0,3:3:0:0:
390,63,46515,6,0,L|410:186,1,120.000004577637,0|0,1:0|0:0,0:0:0:0:
359,344,46860,102,0,P|355:303|385:267,1,90.0000034332277,8|0,0:1|0:0,0:0:0:0:
464,252,47032,2,0,P|430:275|384:267,1,90.0000034332277,0|0,0:0|0:0,0:0:0:0:
331,206,47204,2,0,P|368:223|384:267,1,90.0000034332277,0|0,1:2|0:0,0:0:0:0:
310,301,47377,6,0,L|246:289,1,60.0000022888184,2|0,0:0|0:0,0:0:0:0:
147,201,47549,1,8,0:1:0:0:
40,322,47722,102,2,L|30:352,2,30.0000011444092,2|2|2,0:2|0:2|0:2,0:0:0:0:
45,308,47894,6,0,P|93:337|155:325,1,120.000004577637,0|0,1:0|0:0,0:0:0:0:
245,273,48153,1,0,0:0:0:0:
251,289,48239,2,0,L|263:368,1,60.0000022888184,8|0,0:1|0:0,0:0:0:0:
112,258,48411,2,0,L|121:194,1,60.0000022888184,0|0,0:0|0:0,0:0:0:0:
179,93,48584,102,0,L|259:84,1,60.0000022888184,2|0,1:2|0:0,0:0:0:0:
343,203,48756,2,0,L|283:203,1,60.0000022888184,2|0,0:2|0:0,0:0:0:0:
285,20,48929,2,0,P|324:76|314:123,1,120.000004577637,8|0,0:1|0:0,0:0:0:0:
162,193,49273,5,0,1:0:0:0:
45,39,49446,102,0,P|82:56|98:100,1,90.0000034332277,0|0,0:0|0:0,0:0:0:0:
71,177,49618,2,0,P|68:136|98:100,1,90.0000034332277,8|0,0:1|0:0,0:0:0:0:
178,85,49791,2,0,P|144:108|98:100,1,90.0000034332277,0|0,0:0|0:0,0:0:0:0:
247,124,49963,6,0,L|308:116,1,60.0000022888184,0|0,1:0|0:0,0:0:0:0:
444,97,50135,1,0,0:0:0:0:
318,229,50308,1,8,0:1:0:0:
338,114,50480,1,2,0:2:0:0:
359,300,50653,101,0,1:0:0:0:
471,372,50825,1,0,0:0:0:0:
488,331,50911,1,0,0:0:0:0:
479,287,50998,6,0,L|358:301,1,120.000004577637,8|0,0:1|0:0,0:0:0:0:
227,342,51256,1,0,0:0:0:0:
237,357,51342,102,0,P|269:365|304:360,1,60.0000022888184,0|0,1:0|0:0,0:0:0:0:
203,245,51515,2,0,L|131:254,1,60.0000022888184,0|0,0:0|0:0,0:0:0:0:
277,278,51687,2,0,P|283:224|184:161,1,180.000006866455,8|0,0:1|0:0,0:0:0:0:
54,195,52032,6,0,B|73:137|73:137|57:76,1,120.000004577637,0|0,1:0|0:0,0:0:0:0:
340,55,52377,102,0,P|305:73|289:119,1,90.0000034332277,8|0,0:1|0:0,0:0:0:0:
318,195,52549,2,0,P|319:155|288:118,1,90.0000034332277,0|0,0:0|0:0,0:0:0:0:
207,106,52722,2,0,P|240:127|287:118,1,90.0000034332277,0|0,1:0|0:0,0:0:0:0:
184,34,52894,6,0,L|121:26,1,60.0000022888184,0|0,0:0|0:0,0:0:0:0:
14,95,53066,1,8,0:1:0:0:
163,208,53239,102,2,L|203:205,2,30.0000011444092,2|2|2,0:2|0:2|0:2,0:0:0:0:
133,210,53411,6,0,L|147:334,1,120.000004577637,0|0,1:0|0:0,0:0:0:0:
43,376,53670,1,0,0:0:0:0:
37,364,53756,2,0,L|42:300,1,60.0000022888184,8|0,0:1|0:0,0:0:0:0:
163,231,53929,2,0,L|168:293,1,60.0000022888184,0|0,0:0|0:0,0:0:0:0:
67,170,54101,102,0,P|95:149|125:149,1,60.0000022888184,0|0,1:0|0:0,0:0:0:0:
291,220,54273,2,0,P|256:224|230:209,1,60.0000022888184,0|0,0:0|0:0,0:0:0:0:
207,79,54446,2,0,B|191:55|191:55|284:61,1,120.000004577637,8|0,0:1|0:0,0:0:0:0:
442,113,54791,5,0,1:0:0:0:
403,267,54963,1,2,0:2:0:0:
379,249,55049,1,2,0:2:0:0:
370,220,55135,102,0,L|430:207,1,60.0000022888184,8|0,0:1|0:0,0:0:0:0:
295,137,55308,2,0,L|383:149,1,60.0000022888184,0|0,0:0|0:0,0:0:0:0:
258,243,55480,5,2,1:2:0:0:
224,254,55566,1,2,0:2:0:0:
180,221,55653,101,2,0:2:0:0:
187,186,55739,1,2,0:2:0:0:
238,165,55825,6,0,L|269:193,1,35.9999989013672,8|0,0:1|0:0,0:0:0:0:
306,306,55998,101,0,0:0:0:0:
475,355,56170,6,0,L|463:224,1,120.000004577637,0|0,1:0|0:0,0:0:0:0:
368,80,56515,1,8,0:1:0:0:
323,236,56687,102,0,P|352:235|382:223,2,40.000001525879,0|0|0,0:0|0:0|0:0,0:0:0:0:
264,122,56860,5,0,1:0:0:0:
309,148,56975,1,0,0:0:0:0:
357,129,57089,1,0,0:0:0:0:
368,80,57204,2,0,P|431:60|396:133,1,180.000006866455,8|0,0:1|0:0,0:0:0:0:
285,85,57549,37,0,1:0:0:0:
278,73,57635,2,0,L|238:67,1,40,0|0,0:0|0:0,0:0:0:0:
162,52,57894,2,0,P|139:97|148:144,1,80,8|0,2:0|0:0,0:0:0:0:
103,271,58066,5,0,1:0:0:0:
116,270,58153,2,0,L|141:238,1,40,0|0,0:0|0:0,0:0:0:0:
193,180,58411,2,0,P|165:137|120:121,1,80,8|0,2:0|0:0,0:0:0:0:
34,20,58584,101,0,1:0:0:0:
27,32,58670,2,0,L|41:69,1,40,0|0,0:0|0:0,0:0:0:0:
66,143,58929,2,0,P|116:140|152:109,1,80,8|0,2:0|0:0,0:0:0:0:
234,47,59101,1,0,1:0:0:0:
220,71,59187,1,0,0:0:0:0:
220,106,59273,6,0,L|223:138,2,30.0000011444092,0|0|0,0:0|0:0|0:0,0:0:0:0:
363,145,59446,2,0,P|335:128|302:129,1,60.0000022888184,0|0,1:0|0:0,0:0:0:0:
309,235,59618,102,0,L|312:198,2,30.0000011444092,8|0|0,3:2|0:0|3:0,0:0:0:0:
255,307,59791,2,0,B|258:341|258:341|273:373,1,60.0000022888184,0|0,3:0|3:0,0:0:0:0:
346,313,59963,5,0,3:0:0:0:
360,311,60049,1,0,3:0:0:0:
375,309,60135,1,0,3:0:0:0:
390,307,60222,1,0,3:0:0:0:
457,344,60308,101,0,1:0:0:0:
468,332,60394,2,0,L|465:291,1,40,0|0,0:0|0:0,0:0:0:0:
443,228,60653,2,0,P|398:215|348:223,1,80,8|0,2:0|0:0,0:0:0:0:
210,234,60825,5,0,1:0:0:0:
214,249,60911,2,0,L|251:266,1,40,0|0,0:0|0:0,0:0:0:0:
317,279,61170,2,0,P|350:246|368:199,1,80,8|0,2:0|0:0,0:0:0:0:
429,74,61342,101,0,1:0:0:0:
413,70,61429,2,0,L|378:93,1,40,0|0,0:0|0:0,0:0:0:0:
335,144,61687,2,0,P|346:189|378:228,1,80,8|0,2:0|0:0,0:0:0:0:
450,334,61860,5,0,1:0:0:0:
457,344,61946,2,0,L|397:351,1,60,0|0,0:0|0:0,0:0:0:0:
284,349,62377,101,2,0:2:0:0:
264,347,62463,1,2,0:2:0:0:
229,325,62549,5,2,0:2:0:0:
209,324,62635,1,2,0:2:0:0:
169,336,62722,101,2,0:2:0:0:
149,335,62808,1,2,0:2:0:0:
115,313,62894,5,2,0:2:0:0:
94,312,62980,1,2,0:2:0:0:
31,368,63066,101,0,1:0:0:0:
21,374,63153,2,0,L|14:331,1,40,0|0,0:0|0:0,0:0:0:0:
30,258,63411,2,0,P|67:234|117:237,1,80,8|0,2:0|0:0,0:0:0:0:
254,227,63584,5,0,1:0:0:0:
264,232,63670,2,0,L|230:259,1,40,0|0,0:0|0:0,0:0:0:0:
159,282,63929,2,0,P|119:261|97:217,1,80,8|0,2:0|0:0,0:0:0:0:
19,103,64101,101,0,1:0:0:0:
18,91,64187,2,0,L|58:106,1,40,0|0,0:0|0:0,0:0:0:0:
114,157,64446,2,0,P|116:201|88:242,1,80,8|0,2:0|0:0,0:0:0:0:
110,334,64618,1,0,1:0:0:0:
149,324,64704,1,0,0:0:0:0:
183,342,64791,6,0,L|175:375,2,30.0000011444092,0|0|0,0:0|0:0|0:0,0:0:0:0:
247,238,64963,2,0,L|239:171,1,60.0000022888184,0|0,1:0|0:0,0:0:0:0:
161,146,65135,102,0,L|169:96,3,30.0000011444092,0|0|0|0,0:0|0:0|0:0|0:0,0:0:0:0:
125,47,65480,6,0,L|97:36,2,20.0000007629395,0|0|0,0:0|0:0|0:0,0:0:0:0:
199,14,65653,1,0,0:0:0:0:
200,27,65739,1,0,0:0:0:0:
200,38,65825,102,0,P|232:48|261:48,3,60.0000022888184,0|0|0|0,1:0|0:0|0:0|0:0,0:0:0:0:
372,101,66170,2,0,P|332:96|291:119,1,80,8|0,2:0|0:0,0:0:0:0:
304,187,66342,6,0,L|312:265,3,60.0000022888184,0|0|0|0,1:0|0:0|0:0|0:0,0:0:0:0:
221,348,66687,2,0,L|230:263,1,80,8|0,2:0|0:0,0:0:0:0:
188,197,66860,102,0,P|146:216|118:210,3,60.0000022888184,0|0|0|0,1:0|0:0|0:0|0:0,0:0:0:0:
23,138,67204,2,0,P|88:137|128:160,1,80,8|0,2:0|0:0,0:0:0:0:
227,62,67377,5,0,3:0:0:0:
201,77,67463,1,0,3:0:0:0:
172,79,67549,102,0,L|167:39,2,30.0000011444092,0|0|0,3:0|0:0|3:0,0:0:0:0:
97,176,67722,2,0,L|86:240,1,60.0000022888184,0|0,3:0|3:0,0:0:0:0:
61,353,67894,6,0,L|21:345,2,25,0|0|0,3:0|0:0|3:0,0:0:0:0:
172,323,68066,2,0,L|235:326,1,50,0|0,3:0|3:0,0:0:0:0:
323,362,68239,101,0,3:0:0:0:
330,352,68325,1,0,3:0:0:0:
340,345,68411,1,0,3:0:0:0:
352,341,68498,1,0,3:0:0:0:
365,340,68584,1,0,1:0:0:0:
302,109,78929,5,2,0:2:0:0:
284,102,79015,1,2,0:2:0:0:
265,100,79101,1,2,0:2:0:0:
247,104,79187,1,2,0:2:0:0:
231,114,79273,102,2,L|237:154,2,25,2|0|2,0:2|0:2|0:2,0:0:0:0:
162,63,79446,2,0,L|157:123,1,50,2|2,0:2|0:2,0:0:0:0:
151,237,79618,6,0,B|151:276|151:276|122:317,1,80,0|0,1:0|0:0,0:0:0:0:
8,268,79877,1,0,0:0:0:0:
8,268,79963,2,0,B|8:229|8:229|38:188,1,80,2|2,1:2|0:2,0:0:0:0:
80,252,80308,101,2,1:2:0:0:
144,157,80480,2,0,L|151:237,1,80,2|0,0:2|1:0,0:0:0:0:
161,351,80825,6,0,P|199:364|240:355,1,80,2|0,0:2|1:0,0:0:0:0:
301,299,81170,2,0,L|298:273,2,20,2|0|0,0:2|0:2|0:2,0:0:0:0:
367,355,81342,2,0,L|383:261,1,80,0|2,1:0|0:2,0:0:0:0:
398,162,81687,102,0,B|383:184|383:184|448:177,1,80,0|2,1:0|0:2,0:0:0:0:
489,79,82032,2,0,B|466:64|466:64|407:70,1,80,2|2,1:2|0:2,0:0:0:0:
290,137,82377,6,0,L|194:125,1,80,0|2,1:0|0:2,0:0:0:0:
339,66,82635,1,0,0:0:0:0:
339,66,82722,2,0,L|243:54,1,80,2|2,1:2|0:2,0:0:0:0:
346,206,83066,102,0,P|366:182|374:130,1,80,2|0,1:2|0:0,0:0:0:0:
259,56,83411,1,2,1:2:0:0:
154,121,83584,6,0,L|163:201,1,80,2|0,0:2|1:0,0:0:0:0:
9,190,83929,1,2,0:2:0:0:
9,190,84015,1,0,0:0:0:0:
9,190,84101,1,0,1:0:0:0:
45,72,84273,1,2,0:2:0:0:
83,188,84446,102,0,P|75:230|43:256,1,80,0|2,1:0|0:2,0:0:0:0:
43,361,84704,1,0,0:0:0:0:
43,361,84791,2,0,P|83:346|121:361,1,80,2|2,1:2|0:2,0:0:0:0:
263,351,85135,6,0,P|314:352|368:339,1,100,0|0,1:0|0:0,0:0:0:0:
213,242,85480,2,0,P|262:256|317:257,1,100,0|0,1:0|0:0,0:0:0:0:
440,103,85825,102,0,P|389:102|335:115,1,100,0|0,1:0|0:0,0:0:0:0:
490,212,86170,2,0,P|440:197|385:196,1,100,0|0,1:0|0:0,0:0:0:0:
206,314,86515,6,0,P|154:291|137:238,1,100,0|0,1:0|0:0,0:0:0:0:
79,89,86860,2,0,P|131:112|148:165,1,100,0|0,1:0|0:0,0:0:0:0:
41,278,87204,102,0,P|34:221|72:180,1,100,0|0,1:0|0:0,0:0:0:0:
244,125,87549,2,0,P|250:181|212:222,1,100,0|0,1:0|0:0,0:0:0:0:
160,314,87894,5,0,1:0:0:0:
347,315,88066,1,0,1:0:0:0:
225,214,88239,101,0,1:0:0:0:
357,249,88411,1,0,1:0:0:0:
282,153,88584,5,0,1:0:0:0:
381,195,88756,1,0,1:0:0:0:
340,116,88929,101,0,1:0:0:0:
392,169,89101,1,0,1:0:0:0:
376,107,89273,22,0,L|367:86,1,15.0000005722046,0|0,1:0|0:0,0:0:0:0:
358,121,89360,1,0,0:0:0:0:
338,129,89446,1,0,1:0:0:0:
315,129,89532,1,0,0:0:0:0:
294,122,89618,6,0,L|278:90,2,20,0|0|0,1:0|0:0|0:0,0:0:0:0:
290,239,89791,2,0,L|282:286,1,40,0|0,0:0|0:0,0:0:0:0:
396,221,89963,38,0,L|424:215,2,20,0|0|0,3:0|0:0|3:0,0:0:0:0:
264,237,90135,2,0,L|220:233,1,40,0|0,3:0|3:0,0:0:0:0:
48,187,90308,5,0,3:0:0:0:
75,174,90394,1,0,3:0:0:0:
104,172,90480,1,0,3:0:0:0:
133,181,90566,1,0,3:0:0:0:
156,199,90653,70,0,B|126:308|126:308|99:247,1,180.000006866455,0|0,1:0|0:0,0:0:0:0:
34,105,90998,6,0,L|96:109,1,60.0000022888184,0|0,1:0|0:0,0:0:0:0:
255,94,91170,2,0,L|317:98,1,60.0000022888184,0|0,0:0|0:0,0:0:0:0:
167,44,91342,101,10,0:2:0:0:
385,138,91515,2,0,B|393:55|393:55|323:20|323:20|314:100,1,240,2|0,0:2|0:0,0:0:0:0:
302,244,91860,6,0,P|364:245|307:309,1,180.000006866455,0|0,1:0|0:0,0:0:0:0:
124,279,92204,1,0,0:0:0:0:
265,367,92377,1,0,0:0:0:0:
220,168,92549,1,0,1:0:0:0:
215,197,92635,1,0,1:0:0:0:
211,227,92722,102,0,P|250:231|285:214,1,60.0000022888184,10|0,0:2|0:0,0:0:0:0:
265,41,92894,1,2,0:2:0:0:
120,148,93066,1,0,0:0:0:0:
332,148,93239,2,0,B|337:116|352:84|352:84|328:102,1,90.0000034332277,0|0,0:0|0:0,0:0:0:0:
332,148,93411,6,0,B|323:226|339:274|339:274|338:243|359:218,1,180.000006866455,0|0,1:0|0:0,0:0:0:0:
460,244,93756,2,0,P|464:314|416:263,1,180.000006866455,0|0,1:0|0:0,0:0:0:0:
371,95,94101,101,10,0:2:0:0:
374,79,94187,1,2,0:2:0:0:
430,38,94273,5,2,0:2:0:0:
446,41,94360,1,2,0:2:0:0:
487,97,94446,101,2,0:2:0:0:
484,113,94532,1,2,0:2:0:0:
428,154,94618,6,2,L|396:148,4,30.0000011444092,2|2|2|2|2,1:2|0:2|0:2|0:2|0:2,0:0:0:0:
484,319,94963,2,0,L|357:307,1,120.000004577637,0|0,0:0|0:0,0:0:0:0:
192,349,95308,1,0,1:0:0:0:
197,319,95394,1,0,1:0:0:0:
191,290,95480,102,0,L|126:308,1,60.0000022888184,8|0,0:2|0:0,0:0:0:0:
28,204,95653,2,0,B|11:236|29:262|29:262|93:244,1,120.000004577637,0|0,0:0|0:0,0:0:0:0:
251,125,95998,1,0,0:0:0:0:
227,108,96084,1,2,0:2:0:0:
202,92,96170,6,0,L|180:226,1,120.000004577637,0|0,1:0|0:0,0:0:0:0:
96,365,96515,2,0,L|84:235,1,120.000004577637,0|0,1:0|0:0,0:0:0:0:
185,127,96860,102,0,B|211:128|221:142|221:142|205:162|186:158,1,80,10|0,0:2|0:0,0:0:0:0:
109,63,97032,2,0,B|118:38|135:33|135:33|149:54|139:70,1,80,2|0,0:2|0:0,0:0:0:0:
24,115,97204,2,0,B|3:97|4:80|4:80|28:73|41:88,1,80,2|0,0:2|0:0,0:0:0:0:
47,211,97377,2,0,B|24:224|8:219|8:219|9:194|26:186,1,80,2|0,1:2|0:0,0:0:0:0:
146,218,97549,2,0,B|152:243|142:257|142:257|118:248|116:229,1,80,2|0,0:2|0:0,0:0:0:0:
137,104,97722,6,0,B|156:85|172:87|172:87|177:112|161:123,1,80,2|0,0:2|0:0,0:0:0:0:
43,169,97894,2,0,B|18:161|11:145|11:145|30:129|47:137,1,80,2|0,0:2|0:0,0:0:0:0:
264,71,98066,1,0,1:0:0:0:
264,71,98153,1,0,1:0:0:0:
264,71,98239,102,0,P|272:120|254:151,1,80,8|0,0:2|0:0,0:0:0:0:
187,328,98411,2,0,P|255:313|317:329,1,120.000004577637,0|0,0:0|0:0,0:0:0:0:
417,365,98756,1,0,0:2:0:0:
495,218,98929,5,0,1:0:0:0:
302,171,99101,1,0,0:0:0:0:
414,54,99273,2,0,L|401:182,1,120.000004577637,0|0,1:0|0:0,0:0:0:0:
291,308,99618,102,0,P|223:294|265:244,1,160,8|0,0:2|0:0,0:0:0:0:
469,209,99963,1,0,0:0:0:0:
356,364,100135,1,0,1:0:0:0:
312,187,100308,6,0,L|317:222,1,30.0000011444092,0|0,3:0|0:0,0:0:0:0:
316,167,100394,1,0,3:0:0:0:
321,148,100480,1,0,3:0:0:0:
325,128,100566,1,0,3:0:0:0:
330,109,100653,102,0,L|334:150,2,30.0000011444092,0|0|0,3:0|0:0|3:0,0:0:0:0:
183,67,100825,1,0,1:0:0:0:
153,73,100911,1,0,1:0:0:0:
128,89,100998,6,0,L|132:118,2,30.0000011444092,8|0|0,3:2|0:0|3:0,0:0:0:0:
192,219,101170,2,0,P|208:168|202:141,1,60.0000022888184,0|0,3:0|3:0,0:0:0:0:
101,290,101342,101,0,3:0:0:0:
121,299,101429,1,0,3:0:0:0:
143,304,101515,1,0,3:0:0:0:
165,304,101601,1,0,3:0:0:0:
187,300,101687,6,0,B|305:285|305:285|256:343,1,180.000006866455,0|0,1:0|0:0,0:0:0:0:
154,211,102032,102,0,P|152:171|163:150,1,60.0000022888184,0|0,1:0|0:0,0:0:0:0:
66,31,102204,2,0,P|51:60|17:76,1,60.0000022888184,0|0,0:0|0:0,0:0:0:0:
222,57,102377,5,10,0:2:0:0:
92,191,102549,2,0,B|43:192|28:141|28:141|85:92|139:116|166:146|170:187,1,240,2|0,0:2|0:0,0:0:0:0:
227,319,102894,102,0,B|247:358|247:358|261:216,1,180.000006866455,0|0,1:0|0:0,0:0:0:0:
392,60,103239,2,0,B|371:20|371:20|358:162,1,180.000006866455,2|0,0:2|0:0,0:0:0:0:
345,311,103584,1,0,1:0:0:0:
373,318,103670,1,0,1:0:0:0:
403,314,103756,6,0,P|416:269|403:217,1,80,8|0,0:2|0:0,0:0:0:0:
256,139,103929,2,0,P|274:192|296:205,1,60.0000022888184,2|0,0:2|0:0,0:0:0:0:
474,184,104101,102,0,P|433:160|379:159,1,80,2|0,0:2|0:0,0:0:0:0:
266,281,104273,2,0,P|321:277|340:259,1,60.0000022888184,2|0,0:2|0:0,0:0:0:0:
333,133,104446,5,0,1:0:0:0:
157,89,104618,102,0,L|161:155,1,60.0000022888184,2|0,0:2|0:0,0:0:0:0:
216,296,104791,2,0,P|229:255|228:229,1,60.0000022888184,2|0,1:2|0:0,0:0:0:0:
68,148,104963,2,0,L|78:214,1,60.0000022888184,2|0,0:2|0:0,0:0:0:0:
101,357,105135,6,0,B|24:349|24:349|59:279|59:279|145:287,1,240,8|0,0:2|0:0,0:0:0:0:
319,300,105480,1,0,0:0:0:0:
382,140,105653,102,0,B|361:186|375:232|375:232|416:268|400:329,1,180.000006866455,0|0,1:0|0:0,0:0:0:0:
354,374,105998,2,0,P|270:369|237:286,1,180.000006866455,0|0,0:0|0:0,0:0:0:0:
169,153,106342,1,0,1:0:0:0:
198,157,106429,1,0,1:0:0:0:
225,159,106515,6,0,L|287:147,1,60.0000022888184,8|0,0:2|0:0,0:0:0:0:
282,17,106687,102,0,L|261:76,1,60.0000022888184,2|0,0:2|0:0,0:0:0:0:
376,137,106860,6,0,L|334:89,1,60.0000022888184,2|0,0:2|0:0,0:0:0:0:
294,278,107204,102,0,L|424:262,1,120.000004577637,0|0,1:0|0:0,0:0:0:0:
194,379,107549,6,0,P|187:340|214:299,1,90.0000034332277,8|0,0:1|0:0,0:0:0:0:
294,278,107722,2,0,P|262:302|214:300,1,90.0000034332277,0|0,0:0|0:0,0:0:0:0:
156,242,107894,2,0,P|192:255|213:298,1,90.0000034332277,0|0,1:0|0:0,0:0:0:0:
67,280,108066,102,0,L|79:201,1,60.0000022888184,0|0,0:0|0:0,0:0:0:0:
99,52,108239,1,8,0:1:0:0:
202,117,108411,6,2,L|235:112,2,30.0000011444092,2|2|2,0:0|0:0|0:0,0:0:0:0:
170,122,108584,102,0,L|155:243,1,120.000004577637,0|0,1:0|0:0,0:0:0:0:
25,32,108929,2,0,L|40:157,1,120.000004577637,8|0,0:1|0:0,0:0:0:0:
119,335,109273,5,0,1:0:0:0:
224,159,109446,102,0,P|197:169|170:200,1,60.0000022888184,0|0,0:0|0:0,0:0:0:0:
304,253,109618,2,0,P|308:225|295:186,1,60.0000022888184,8|0,0:1|0:0,0:0:0:0:
181,275,109791,2,0,P|203:292|243:300,1,60.0000022888184,0|0,0:0|0:0,0:0:0:0:
390,299,109963,6,0,L|381:236,1,60.0000022888184,0|0,1:0|0:0,0:0:0:0:
391,87,110135,101,2,0:2:0:0:
376,82,110222,1,2,0:2:0:0:
376,67,110308,1,2,0:2:0:0:
391,62,110394,1,2,0:2:0:0:
399,74,110480,2,0,L|325:83,1,70.000000667572,2|2,1:2|0:2,0:0:0:0:
108,153,110653,5,2,0:2:0:0:
129,144,110739,1,2,0:2:0:0:
129,120,110825,1,2,0:2:0:0:
107,114,110911,1,2,0:2:0:0:
92,133,110998,2,0,L|185:142,1,80,2|2,1:2|0:2,0:0:0:0:
401,239,111170,101,2,0:2:0:0:
372,229,111256,1,2,0:2:0:0:
372,199,111342,1,2,0:2:0:0:
401,190,111429,1,2,0:2:0:0:
418,214,111515,2,0,L|310:228,1,90.0000034332277,2|2,1:2|0:2,0:0:0:0:
123,347,111687,5,2,0:2:0:0:
194,323,111773,5,2,0:2:0:0:
194,248,111860,5,2,1:2:0:0:
122,225,111946,5,2,0:2:0:0:
78,286,112032,6,0,L|174:313,1,96,8|0,0:2|0:0,0:0:0:0:
318,265,112377,101,2,0:2:0:0:
296,189,112549,1,2,0:2:0:0:
241,247,112722,6,0,P|241:275|249:304,3,47.9999985351563,0|0|0|0,1:0|0:0|0:0|0:0,0:0:0:0:
335,308,113411,2,0,P|327:335|312:360,2,47.9999985351563,8|0|0,0:2|0:0|0:0,0:0:0:0:
399,215,113929,102,0,L|412:265,3,47.9999985351563,0|0|0|0,0:0|1:0|0:0|0:0,0:0:0:0:
475,361,114618,2,0,L|484:312,4,47.9999985351563,0|8|0|0|0,0:0|0:2|0:0|0:0|0:0,0:0:0:0:
340,322,115480,6,0,P|302:330|284:336,3,47.9999985351563,0|0|0|0,1:0|0:0|0:0|0:0,0:0:0:0:
191,263,116170,2,0,L|243:267,2,47.9999985351563,8|0|0,0:2|0:0|0:0,0:0:0:0:
89,305,116687,102,0,P|80:330|77:351,4,47.9999985351563,0|0|0|0|0,0:0|1:0|0:0|0:0|0:0,0:0:0:0:
46,207,117549,2,0,P|34:231|21:248,3,47.9999985351563,8|0|0|0,0:2|0:0|0:0|0:0,0:0:0:0:
140,160,118239,6,0,L|131:113,1,40,0|0,1:0|0:0,0:0:0:0:
60,57,118584,2,0,L|54:103,1,40,0|0,0:0|0:0,0:0:0:0:
150,168,118929,102,0,L|141:121,1,40,8|0,0:2|0:0,0:0:0:0:
48,44,119273,1,0,0:0:0:0:
151,50,119446,6,0,L|198:42,1,40,0|0,0:0|1:0,0:0:0:0:
286,111,119791,2,0,L|243:106,1,40,0|0,0:0|0:0,0:0:0:0:
366,26,120135,2,0,L|359:71,1,40,0|8,0:0|0:2,0:0:0:0:
338,199,120480,101,0,0:0:0:0:
394,255,120653,1,0,0:0:0:0:
464,219,120825,1,0,0:0:0:0:
451,140,120998,1,0,0:0:0:0:
256,192,121084,12,0,122205,0:0:0:0:
242,86,122377,22,0,L|234:97,1,10,0|0,0:0|0:0,0:0:0:0:
232,103,122463,1,0,0:0:0:0:
229,123,122549,1,0,0:0:0:0:
233,142,122635,1,0,0:0:0:0:
267,162,122722,6,0,L|274:177,1,10,0|0,0:0|0:0,0:0:0:0:
270,178,122808,1,0,0:0:0:0:
268,194,122894,1,0,0:0:0:0:
259,208,122980,1,0,0:0:0:0:
222,228,123066,101,0,1:0:0:0:
