osu file format v14

[General]
AudioFilename: audio.ogg
AudioLeadIn: 0
PreviewTime: 127877
Countdown: 0
SampleSet: Normal
StackLeniency: 0.7
Mode: 1
LetterboxInBreaks: 0
WidescreenStoryboard: 1

[Editor]
Bookmarks: 128326
DistanceSpacing: 1.3
BeatDivisor: 16
GridSize: 32
TimelineZoom: 2.4

[Metadata]
Title:Imaginary Express
TitleUnicode:Imaginary Express
Artist:Snail's House
ArtistUnicode:Snail's House
Creator:Finana Ryugu
Version:Futsuu
Source:
Tags:[Zeth] imaginarium ujico* electronic instrumental future bass chill
BeatmapID:3317320
BeatmapSetID:1399572

[Difficulty]
HPDrainRate:7
CircleSize:2
OverallDifficulty:4
ApproachRate:10
SliderMultiplier:1.4
SliderTickRate:1

[Events]
//Background and Video events
0,0,"88049338_p0.jpg",0,-60
Video,-520,"output.mp4"
//Break Periods
2,93745,101469
2,214104,219134
//Storyboard Layer 0 (Background)
//Storyboard Layer 1 (Fail)
//Storyboard Layer 2 (Pass)
//Storyboard Layer 3 (Foreground)
//Storyboard Layer 4 (Overlay)
//Storyboard Sound Samples

[TimingPoints]
1410,359.281437125748,4,1,0,65,1,0
1589,-111.111111111111,4,1,0,65,0,0
11828,-108.108108108108,4,1,0,65,0,0
12007,-106.678045658204,4,1,0,65,0,0
12187,-105.263157894737,4,1,0,65,0,0
12546,-102.564102564103,4,1,0,65,0,0
12726,-101.26582278481,4,1,0,65,0,0
12906,-100,4,1,0,65,0,0
24403,-100,4,1,0,65,0,0
24942,-101.027625784065,4,1,0,65,0,0
25480,-102.07462485312,4,1,0,65,0,0
25840,-102.787422652416,4,1,0,65,0,0
26019,-103.1455600109,4,1,0,65,0,0
26558,-104.239205271958,4,1,0,65,0,0
27097,-105.356290758708,4,1,0,65,0,0
27277,-105.734695506425,4,1,0,65,0,0
27636,-106.497578230199,4,1,0,65,0,0
28175,-107.663862814417,4,1,0,65,0,0
28714,-108.855974855687,4,1,0,65,0,0
29253,-110.074781886165,4,1,0,65,0,0
29792,-111.321190731287,4,1,0,65,0,0
29971,-111.741385854667,4,1,0,65,0,0
30151,-112.167139409847,4,1,0,65,0,0
30690,-113.461661991735,4,1,0,65,0,0
31229,-114.786413655662,4,1,0,65,0,0
31588,-115.686060473747,4,1,0,65,0,0
31768,-116.142465753425,4,1,0,65,0,0
32307,-117.530940868562,4,1,0,65,0,0
32846,-118.953015915774,4,1,0,65,0,0
33025,-119.432924630364,4,1,0,65,0,0
33385,-120.409925468097,4,1,0,65,0,0
33924,-121.902965331616,4,1,0,65,0,0
34463,-123.433496389471,4,1,0,65,0,0
35001,-125,4,1,0,65,0,0
35536,-116.279069767442,4,1,0,65,0,0
35716,-113.636363636364,4,1,0,65,0,0
35897,-111.111111111111,4,1,0,65,0,0
47037,-100,4,1,0,65,0,0
70392,-100,4,1,0,65,0,0
70661,-101.008586104758,4,1,0,65,0,0
70930,-102.037724414817,4,1,0,65,0,0
71200,-103.091994489515,4,1,0,65,0,0
71469,-104.164250086997,4,1,0,65,0,0
71649,-104.894288050461,4,1,0,65,0,0
71829,-105.634631219856,4,1,0,65,0,0
72008,-106.381298373085,4,1,0,65,0,0
72188,-107.142857142857,4,1,0,65,0,0
72547,-108.694775065564,4,1,0,65,0,0
73086,-111.111111111111,4,1,0,65,0,0
93025,-108.108108108108,4,1,0,65,0,0
93205,-106.666666666667,4,1,0,65,0,0
93385,-105.263157894737,4,1,0,65,0,0
94800,-108.108108108108,4,1,0,65,0,0
96237,-111.111111111111,4,1,0,65,0,0
97674,-114.285714285714,4,1,0,65,0,0
99111,-117.647058823529,4,1,0,65,0,0
100548,-121.212121212121,4,1,0,65,0,0
104883,-105.263157894737,4,1,0,65,0,0
105242,-106.019227114032,4,1,0,65,0,0
105781,-107.175001264095,4,1,0,65,0,0
106320,-108.356252619956,4,1,0,65,0,0
106859,-109.563832976667,4,1,0,65,0,0
107218,-110.383185260022,4,1,0,65,0,0
107577,-111.214884619017,4,1,0,65,0,0
107757,-111.636627937598,4,1,0,65,0,0
108116,-112.487395849918,4,1,0,65,0,0
108655,-113.789364055102,4,1,0,65,0,0
109194,-115.121824047622,4,1,0,65,0,0
109733,-116.485859684989,4,1,0,65,0,0
110272,-117.882606809561,4,1,0,65,0,0
110451,-118.353900273605,4,1,0,65,0,0
110631,-118.83164209228,4,1,0,65,0,0
111170,-120.285561873631,4,1,0,65,0,0
111709,-121.775500120649,4,1,0,65,0,0
112068,-122.788520582545,4,1,0,65,0,0
112248,-123.302812067341,4,1,0,65,0,0
112787,-124.868921800808,4,1,0,65,0,0
113326,-126.475326690137,4,1,0,65,0,0
113505,-127.017989620912,4,1,0,65,0,0
113865,-128.123602161587,4,1,0,65,0,0
114404,-129.815406852117,4,1,0,65,0,0
114942,-131.549222347728,4,1,0,65,0,0
115481,-133.333333333333,4,1,0,65,0,0
116019,-129.032258064516,4,1,0,65,0,0
116199,-126.582278481013,4,1,0,65,0,0
116379,-125,4,1,0,65,0,0
116558,-133.333333333333,4,1,0,65,0,0
124823,-114.285714285714,4,1,0,65,0,0
125002,-113.047688211087,4,1,0,65,0,0
125362,-110.637289741767,4,1,0,65,0,0
125541,-109.476645373029,4,1,0,65,0,0
125721,-108.333816621238,4,1,0,65,0,0
125901,-107.214601388969,4,1,0,65,0,0
126080,-106.124304056357,4,1,0,65,0,0
126439,-104.003117866489,4,1,0,65,0,0
126619,-102.971170277272,4,1,0,65,0,0
126799,-101.959500027291,4,1,0,65,0,0
126978,-100.972972972973,4,1,0,65,0,0
127158,-100,4,1,0,65,0,0
127871,-81.3008130081301,4,1,0,65,0,0
128235,-83.3333333333333,4,1,0,65,0,0
128415,-83.5578253574604,4,1,0,65,0,0
128594,-83.7834599720331,4,1,0,65,0,0
128774,-84.0103870442542,4,1,0,65,0,0
128954,-84.238546716592,4,1,0,65,0,0
129133,-84.4678777107854,4,1,0,65,0,0
129313,-84.6985325132257,4,1,0,65,0,0
129492,-84.9303783223702,4,1,0,65,0,0
129672,-85.1635694095865,4,1,0,65,0,0
129852,-85.3980445555758,4,1,0,65,0,0
130031,-85.6337410641191,4,1,0,65,0,0
130211,-85.8708159444931,4,1,0,65,0,0
130391,-86.1092071408643,4,1,0,65,0,0
130570,-86.3488510853619,4,1,0,65,0,0
130750,-86.5899075999096,4,1,0,65,0,0
130930,-86.8323137772491,4,1,0,65,0,0
131109,-87.0760051618656,4,1,0,65,0,0
131289,-87.3211444658478,4,1,0,65,0,0
131469,-87.5676679153816,4,1,0,65,0,0
131648,-87.8155101510339,4,1,0,65,0,0
131828,-88.0648368554865,4,1,0,65,0,0
132007,-88.315505376648,4,1,0,65,0,0
132187,-88.5676834236724,4,1,0,65,0,0
132367,-88.8213057442515,4,1,0,65,0,0
132546,-89.0763054355252,4,1,0,65,0,0
132726,-89.3328533181348,4,1,0,65,0,0
132906,-89.5908832317223,4,1,0,65,0,0
133085,-89.8503273247424,4,1,0,65,0,0
133265,-90.1113596182162,4,1,0,65,0,0
133445,-90.3739130277611,4,1,0,65,0,0
133624,-90.6379187358548,4,1,0,65,0,0
133804,-90.9035540562529,4,1,0,65,0,0
133983,-91.1706678433761,4,1,0,65,0,0
134163,-91.4394396591138,4,1,0,65,0,0
134343,-91.7098008429965,4,1,0,65,0,0
134522,-91.9816809284263,4,1,0,65,0,0
134702,-92.2552629321121,4,1,0,65,0,0
134882,-92.5304772259363,4,1,0,65,0,0
135061,-92.8072523299261,4,1,0,65,0,0
135241,-93.0857748180639,4,1,0,65,0,0
135421,-93.365974077871,4,1,0,65,0,0
135600,-93.6477775977659,4,1,0,65,0,0
135780,-93.9313756156027,4,1,0,65,0,0
135960,-94.2166965176567,4,1,0,65,0,0
136139,-94.5036667422696,4,1,0,65,0,0
136319,-94.7924803021226,4,1,0,65,0,0
136498,-95.0829741573985,4,1,0,65,0,0
136678,-95.375344901091,4,1,0,65,0,0
136858,-95.6695192128312,4,1,0,65,0,0
137037,-95.9654217392389,4,1,0,65,0,0
137217,-96.2632530433627,4,1,0,65,0,0
137397,-96.562938757853,4,1,0,65,0,0
137576,-96.8644024289718,4,1,0,65,0,0
137756,-97.1678487135463,4,1,0,65,0,0
137936,-97.4732021798907,4,1,0,65,0,0
138115,-97.7803852547179,4,1,0,65,0,0
138295,-98.08960681762,4,1,0,65,0,0
138474,-98.400693528088,4,1,0,65,0,0
138654,-98.7138571551259,4,1,0,65,0,0
138834,-99.0290204544442,4,1,0,65,0,0
139013,-99.3461039438416,4,1,0,65,0,0
139193,-99.6653238425368,4,1,0,65,0,0
139373,-99.9866017953594,4,1,0,65,0,0
144919,-100,4,1,0,65,0,0
145099,-99.209154369533,4,1,0,65,0,0
145278,-98.426404839134,4,1,0,65,0,0
145368,-98.039643730353,4,1,0,65,0,0
145458,-97.660157439221,4,1,0,65,0,0
145638,-96.901566478229,4,1,0,65,0,0
145817,-96.154669635593,4,1,0,65,0,0
145907,-95.78552233076,4,1,0,65,0,0
145997,-95.423253442121,4,1,0,65,0,0
146177,-94.698886639676,4,1,0,65,0,0
146356,-93.985434455048,4,1,0,65,0,0
146446,-93.632724543408,4,1,0,65,0,0
146536,-93.28652735657,4,1,0,65,0,0
146716,-92.59411983011,4,1,0,65,0,0
146895,-91.911915189718,4,1,0,65,0,0
146985,-91.578303425775,4,1,0,65,0,0
147075,-91.243396993092,4,1,0,65,0,0
147254,-90.58087938685,4,1,0,65,0,0
147434,-89.931515078698,4,1,0,65,0,0
147524,-89.608523883635,4,1,0,65,0,0
147614,-89.287844447095,4,1,0,65,0,0
147793,-88.653322278811,4,1,0,65,0,0
147973,-88.031205896189,4,1,0,65,0,0
148063,-87.721697007579,4,1,0,65,0,0
148153,-87.414356898163,4,1,0,65,0,0
148242,-87.109162852044,4,1,0,65,0,0
148332,-86.80609246946,4,1,0,65,0,0
148512,-86.20954428533,4,1,0,65,0,0
148602,-85.912690821441,4,1,0,65,0,0
148692,-85.617874709269,4,1,0,65,0,0
148781,-85.325075046548,4,1,0,65,0,0
148871,-85.034271215965,4,1,0,65,0,0
148961,-84.748641304348,4,1,0,65,0,0
149051,-84.461746784022,4,1,0,65,0,0
149230,-83.893745796907,4,1,0,65,0,0
149320,-83.612600536193,4,1,0,65,0,0
149410,-83.333333333333,4,1,0,65,0,0
149590,-85.403326526971,4,1,0,65,0,0
149769,-87.591240875912,4,1,0,65,0,0
149859,-88.72778201141,4,1,0,65,0,0
149949,-89.881076569998,4,1,0,65,0,0
150039,-91.07822410148,4,1,0,65,0,0
150129,-92.307692307692,4,1,0,65,0,0
150308,-94.86897159216,4,1,0,65,0,0
150398,-96.203662349263,4,1,0,65,0,0
150488,-97.560975609756,4,1,0,65,0,0
150781,-97.560975609756,4,1,0,75,0,0
150871,-90.9090909090909,4,1,0,75,0,1
196859,-90.9090909090909,4,1,0,75,0,0
197216,-91.393393100553,4,1,0,65,0,0
197755,-92.130288537566,4,1,0,65,0,0
198294,-92.879163587714,4,1,0,65,0,0
198833,-93.640312771503,4,1,0,65,0,0
199372,-94.41404034365,4,1,0,65,0,0
199731,-94.936513738841,4,1,0,65,0,0
199910,-95.199189155171,4,1,0,65,0,0
200449,-95.999002422688,4,1,0,65,0,0
200988,-96.812368772667,4,1,0,65,0,0
201168,-97.08707254732,4,1,0,65,0,0
201348,-97.363339694441,4,1,0,65,0,0
201887,-98.200090200491,4,1,0,65,0,0
202425,-99.049754627162,4,1,0,65,0,0
202605,-99.3373210813,4,1,0,65,0,0
202964,-99.91587154071,4,1,0,65,0,0
203503,-100.797269177714,4,1,0,65,0,0
204042,-101.694355529241,4,1,0,65,0,0
204581,-102.607553241115,4,1,0,65,0,0
205120,-103.537300277864,4,1,0,65,0,0
205479,-104.16596195014,4,1,0,65,0,0
205659,-104.484050623094,4,1,0,65,0,0
206198,-105.44827501865,4,1,0,65,0,0
206737,-106.430461745072,4,1,0,65,0,0
206916,-106.760702195786,4,1,0,65,0,0
207276,-107.431117446094,4,1,0,65,0,0
207994,-108.793685161492,4,1,0,65,0,0
208174,-109.140711824674,4,1,0,65,0,0
208354,-109.489959441579,4,1,0,65,0,0
208713,-110.193231775892,4,1,0,65,0,0
209072,-110.905596987089,4,1,0,65,0,0
209431,-111.627232570544,4,1,0,65,0,0
209791,-112.360370503578,4,1,0,65,0,0
210509,-113.851711789747,4,1,0,65,0,0
210869,-114.61446026564,4,1,0,65,0,0
211228,-115.385335956214,4,1,0,65,0,0
211946,-116.958620109655,4,1,0,65,0,0
212306,-117.763713195425,4,1,0,65,0,0
212665,-118.577683895527,4,1,0,65,0,0
213384,-120.242202469439,4,1,0,65,0,0
213743,-121.090919304553,4,1,0,65,0,0
214102,-121.951702464096,4,1,0,65,0,0
215539,-125.523353656051,4,1,0,65,0,0
216976,-129.310525826412,4,1,0,65,0,0
218413,-133.333333333333,4,1,0,65,0,0
219852,-100,4,1,0,65,0,0

[HitObjects]
256,192,1410,5,4,0:0:0:0:
256,192,2128,1,2,0:0:0:0:
256,192,2487,1,2,0:0:0:0:
256,192,2667,1,0,0:0:0:0:
256,192,3206,1,0,0:0:0:0:
256,192,3565,1,2,0:0:0:0:
256,192,4104,1,0,0:0:0:0:
256,192,4463,1,2,0:0:0:0:
256,192,4643,1,0,0:0:0:0:
256,192,5002,1,2,0:0:0:0:
256,192,5541,1,0,0:0:0:0:
256,192,6080,1,0,0:0:0:0:
256,192,6439,1,2,0:0:0:0:
256,192,6799,1,2,0:0:0:0:
256,192,7158,1,0,0:0:0:0:
256,192,7877,1,2,0:0:0:0:
256,192,8236,1,2,0:0:0:0:
256,192,8415,1,0,0:0:0:0:
256,192,8954,1,0,0:0:0:0:
256,192,9314,1,2,0:0:0:0:
256,192,9853,1,0,0:0:0:0:
256,192,10212,1,2,0:0:0:0:
256,192,10392,1,0,0:0:0:0:
256,192,10751,1,2,0:0:0:0:
256,192,11290,1,0,0:0:0:0:
256,192,11829,1,0,0:0:0:0:
256,192,12188,1,2,0:0:0:0:
256,192,12547,1,0,0:0:0:0:
256,192,12907,1,6,0:0:0:0:
256,192,13625,1,2,0:0:0:0:
256,192,13984,1,2,0:0:0:0:
256,192,14164,1,0,0:0:0:0:
256,192,14703,1,0,0:0:0:0:
256,192,15062,1,2,0:0:0:0:
256,192,15601,1,0,0:0:0:0:
256,192,15960,1,2,0:0:0:0:
256,192,16140,1,0,0:0:0:0:
256,192,16499,1,2,0:0:0:0:
256,192,17038,1,0,0:0:0:0:
256,192,17577,1,0,0:0:0:0:
256,192,17936,1,2,0:0:0:0:
256,192,18296,1,2,0:0:0:0:
256,192,18655,1,0,0:0:0:0:
256,192,19374,1,2,0:0:0:0:
256,192,19733,1,2,0:0:0:0:
256,192,19912,1,0,0:0:0:0:
256,192,20451,1,0,0:0:0:0:
256,192,20811,1,2,0:0:0:0:
256,192,21350,1,0,0:0:0:0:
256,192,21709,1,2,0:0:0:0:
256,192,21889,1,0,0:0:0:0:
256,192,22248,1,2,0:0:0:0:
256,192,22787,5,0,0:0:0:0:
256,192,22966,5,2,0:0:0:0:
256,192,23326,1,0,0:0:0:0:
256,192,23505,1,0,0:0:0:0:
256,192,23685,1,2,0:0:0:0:
256,192,24044,1,2,0:0:0:0:
256,192,24224,1,2,0:0:0:0:
256,192,24404,1,0,0:0:0:0:
256,192,24942,1,0,0:0:0:0:
256,192,25481,1,0,0:0:0:0:
256,192,26020,1,0,0:0:0:0:
256,192,26559,1,0,0:0:0:0:
256,192,27098,1,2,0:0:0:0:
256,192,27637,1,2,0:0:0:0:
256,192,28176,1,2,0:0:0:0:
256,192,28715,1,2,0:0:0:0:
256,192,29254,1,2,0:0:0:0:
256,192,29793,1,0,0:0:0:0:
256,192,29972,1,0,0:0:0:0:
256,192,30152,1,2,0:0:0:0:
256,192,30691,1,2,0:0:0:0:
256,192,31230,1,2,0:0:0:0:
256,192,31769,1,2,0:0:0:0:
256,192,32308,1,2,0:0:0:0:
256,192,32847,1,0,0:0:0:0:
256,192,33386,1,0,0:0:0:0:
256,192,33924,1,0,0:0:0:0:
256,192,34463,1,2,0:0:0:0:
256,192,35002,1,2,0:0:0:0:
256,192,35541,1,0,0:0:0:0:
256,192,35721,1,2,0:0:0:0:
256,192,35901,5,4,0:0:0:0:
256,192,36619,1,2,0:0:0:0:
256,192,36889,1,2,0:0:0:0:
256,192,37158,1,2,0:0:0:0:
256,192,37517,1,2,0:0:0:0:
256,192,37697,1,0,0:0:0:0:
256,192,38056,1,2,0:0:0:0:
256,192,38595,1,0,0:0:0:0:
256,192,38954,1,2,0:0:0:0:
256,192,39134,1,0,0:0:0:0:
256,192,39493,1,2,0:0:0:0:
256,192,40032,1,0,0:0:0:0:
256,192,40392,1,0,0:0:0:0:
256,192,40571,1,2,0:0:0:0:
256,192,40930,1,2,0:0:0:0:
256,192,41290,1,2,0:0:0:0:
256,192,41469,1,0,0:0:0:0:
256,192,41649,1,0,0:0:0:0:
256,192,42368,1,2,0:0:0:0:
256,192,42637,1,2,0:0:0:0:
256,192,42907,1,2,0:0:0:0:
256,192,43266,1,2,0:0:0:0:
256,192,43445,1,0,0:0:0:0:
256,192,43805,1,2,0:0:0:0:
256,192,44523,1,2,0:0:0:0:
256,192,44703,1,2,0:0:0:0:
256,192,44883,1,0,0:0:0:0:
256,192,45242,1,2,0:0:0:0:
256,192,45421,1,2,0:0:0:0:
256,192,45601,1,2,0:0:0:0:
256,192,45960,1,0,0:0:0:0:
256,192,46140,1,0,0:0:0:0:
256,192,46320,1,0,0:0:0:0:
256,192,46499,1,0,0:0:0:0:
256,192,46679,1,2,0:0:0:0:
256,192,47038,1,2,0:0:0:0:
256,192,47398,1,4,0:0:0:0:
256,192,48116,1,2,0:0:0:0:
256,192,48386,1,2,0:0:0:0:
256,192,48655,1,2,0:0:0:0:
256,192,49014,1,0,0:0:0:0:
256,192,49194,1,2,0:0:0:0:
256,192,49374,1,2,0:0:0:0:
256,192,49553,1,0,0:0:0:0:
256,192,50092,1,0,0:0:0:0:
256,192,50451,1,2,0:0:0:0:
256,192,50631,1,0,0:0:0:0:
256,192,50990,1,2,0:0:0:0:
256,192,51170,1,2,0:0:0:0:
256,192,51529,1,0,0:0:0:0:
256,192,51889,1,0,0:0:0:0:
256,192,52068,1,2,0:0:0:0:
256,192,52427,1,2,0:0:0:0:
256,192,52787,1,2,0:0:0:0:
256,192,52966,1,0,0:0:0:0:
256,192,53146,1,0,0:0:0:0:
256,192,53865,1,2,0:0:0:0:
256,192,54134,1,2,0:0:0:0:
256,192,54404,1,2,0:0:0:0:
256,192,54763,1,0,0:0:0:0:
256,192,54942,1,0,0:0:0:0:
256,192,55122,1,0,0:0:0:0:
256,192,55302,1,2,0:0:0:0:
256,192,55841,1,0,0:0:0:0:
256,192,56200,1,2,0:0:0:0:
256,192,56380,1,0,0:0:0:0:
256,192,56739,1,2,0:0:0:0:
256,192,56918,1,2,0:0:0:0:
256,192,57278,1,0,0:0:0:0:
256,192,57637,1,0,0:0:0:0:
256,192,57817,1,2,0:0:0:0:
256,192,58176,1,2,0:0:0:0:
256,192,58535,1,0,0:0:0:0:
256,192,58715,1,2,0:0:0:0:
256,192,58895,1,0,0:0:0:0:
256,192,59613,1,2,0:0:0:0:
256,192,59883,1,2,0:0:0:0:
256,192,60152,1,2,0:0:0:0:
256,192,60511,1,0,0:0:0:0:
256,192,60691,1,2,0:0:0:0:
256,192,60871,1,2,0:0:0:0:
256,192,61050,1,0,0:0:0:0:
256,192,61589,1,0,0:0:0:0:
256,192,61948,1,2,0:0:0:0:
256,192,62128,1,0,0:0:0:0:
256,192,62487,1,2,0:0:0:0:
256,192,62667,1,2,0:0:0:0:
256,192,63026,1,0,0:0:0:0:
256,192,63386,1,0,0:0:0:0:
256,192,63565,1,2,0:0:0:0:
256,192,63924,1,2,0:0:0:0:
256,192,64284,1,2,0:0:0:0:
256,192,64463,1,0,0:0:0:0:
256,192,64643,1,0,0:0:0:0:
256,192,65362,1,2,0:0:0:0:
256,192,65631,1,2,0:0:0:0:
256,192,65901,1,2,0:0:0:0:
256,192,66260,1,0,0:0:0:0:
256,192,66439,1,0,0:0:0:0:
256,192,66619,1,0,0:0:0:0:
256,192,66799,5,2,0:0:0:0:
256,192,67158,1,2,0:0:0:0:
256,192,67517,1,2,0:0:0:0:
256,192,67697,1,2,0:0:0:0:
256,192,67877,1,0,0:0:0:0:
256,192,68236,1,2,0:0:0:0:
256,192,68415,1,2,0:0:0:0:
256,192,68595,1,2,0:0:0:0:
256,192,68954,1,0,0:0:0:0:
256,192,69134,1,0,0:0:0:0:
256,192,69314,1,0,0:0:0:0:
256,192,69493,1,0,0:0:0:0:
256,192,69673,1,2,0:0:0:0:
256,192,70032,1,2,0:0:0:0:
256,192,70392,5,0,0:0:0:0:
256,192,70661,1,2,0:0:0:0:
256,192,70930,1,0,0:0:0:0:
256,192,71200,1,2,0:0:0:0:
256,192,71469,1,0,0:0:0:0:
256,192,71649,1,2,0:0:0:0:
256,192,72008,1,2,0:0:0:0:
256,192,72188,1,0,0:0:0:0:
256,192,72547,1,2,0:0:0:0:
256,192,73086,1,2,0:0:0:0:
256,192,73445,1,2,0:0:0:0:
256,192,73625,1,0,0:0:0:0:
256,192,73984,1,2,0:0:0:0:
256,192,74164,1,2,0:0:0:0:
256,192,74523,1,0,0:0:0:0:
256,192,74883,1,0,0:0:0:0:
256,192,75062,1,2,0:0:0:0:
256,192,75421,1,2,0:0:0:0:
256,192,75781,1,0,0:0:0:0:
256,192,75960,1,2,0:0:0:0:
256,192,76140,1,0,0:0:0:0:
256,192,76859,1,2,0:0:0:0:
256,192,77128,1,2,0:0:0:0:
256,192,77398,1,2,0:0:0:0:
256,192,77757,1,0,0:0:0:0:
256,192,77936,1,0,0:0:0:0:
256,192,78116,1,0,0:0:0:0:
256,192,78296,1,2,0:0:0:0:
256,192,78835,1,0,0:0:0:0:
256,192,79194,1,2,0:0:0:0:
256,192,79374,1,0,0:0:0:0:
256,192,79733,1,2,0:0:0:0:
256,192,79912,1,2,0:0:0:0:
256,192,80272,1,0,0:0:0:0:
256,192,80631,1,0,0:0:0:0:
256,192,80811,1,2,0:0:0:0:
256,192,81170,1,2,0:0:0:0:
256,192,81529,1,0,0:0:0:0:
256,192,81709,1,2,0:0:0:0:
256,192,81889,1,0,0:0:0:0:
256,192,82607,1,2,0:0:0:0:
256,192,82877,1,2,0:0:0:0:
256,192,83146,1,2,0:0:0:0:
256,192,83505,1,0,0:0:0:0:
256,192,83685,1,2,0:0:0:0:
256,192,83865,1,2,0:0:0:0:
256,192,84044,1,0,0:0:0:0:
256,192,84583,1,0,0:0:0:0:
256,192,84942,1,2,0:0:0:0:
256,192,85122,1,0,0:0:0:0:
256,192,85481,1,2,0:0:0:0:
256,192,85661,1,2,0:0:0:0:
256,192,86020,1,0,0:0:0:0:
256,192,86380,1,0,0:0:0:0:
256,192,86559,1,2,0:0:0:0:
256,192,86918,1,2,0:0:0:0:
256,192,87278,1,0,0:0:0:0:
256,192,87457,1,2,0:0:0:0:
256,192,87637,1,0,0:0:0:0:
256,192,88356,1,2,0:0:0:0:
256,192,88625,1,2,0:0:0:0:
256,192,88895,1,2,0:0:0:0:
256,192,89254,1,0,0:0:0:0:
256,192,89433,1,0,0:0:0:0:
256,192,89613,1,0,0:0:0:0:
256,192,89793,1,2,0:0:0:0:
256,192,90152,1,2,0:0:0:0:
256,192,90511,1,2,0:0:0:0:
256,192,90691,1,2,0:0:0:0:
256,192,90871,1,0,0:0:0:0:
256,192,91230,1,2,0:0:0:0:
256,192,91409,1,2,0:0:0:0:
256,192,91589,1,2,0:0:0:0:
256,192,91948,1,0,0:0:0:0:
256,192,92128,1,0,0:0:0:0:
256,192,92308,1,0,0:0:0:0:
256,192,92487,1,0,0:0:0:0:
256,192,92667,1,2,0:0:0:0:
256,192,93026,1,2,0:0:0:0:
256,192,93386,1,0,0:0:0:0:
256,192,102008,5,2,0:0:0:0:
256,192,102368,1,0,0:0:0:0:
256,192,102547,1,0,0:0:0:0:
256,192,102727,1,2,0:0:0:0:
256,192,102907,1,2,0:0:0:0:
256,192,103086,1,2,0:0:0:0:
256,192,103445,1,0,0:0:0:0:
256,192,103625,1,0,0:0:0:0:
256,192,103805,1,0,0:0:0:0:
256,192,103984,1,0,0:0:0:0:
256,192,104164,1,2,0:0:0:0:
256,192,104883,5,0,0:0:0:0:
256,192,105242,1,0,0:0:0:0:
256,192,105781,1,0,0:0:0:0:
256,192,106320,1,0,0:0:0:0:
256,192,106859,1,0,0:0:0:0:
256,192,107218,1,0,0:0:0:0:
256,192,107577,1,2,0:0:0:0:
256,192,108116,1,2,0:0:0:0:
256,192,108655,1,2,0:0:0:0:
256,192,109194,1,2,0:0:0:0:
256,192,109733,1,2,0:0:0:0:
256,192,110272,1,0,0:0:0:0:
256,192,110451,1,0,0:0:0:0:
256,192,110631,1,2,0:0:0:0:
256,192,111170,1,2,0:0:0:0:
256,192,111709,1,2,0:0:0:0:
256,192,112248,1,2,0:0:0:0:
256,192,112787,1,2,0:0:0:0:
256,192,113326,1,0,0:0:0:0:
256,192,113865,1,0,0:0:0:0:
256,192,114404,1,0,0:0:0:0:
256,192,114942,1,2,0:0:0:0:
256,192,115481,1,2,0:0:0:0:
256,192,116020,1,2,0:0:0:0:
256,192,116200,1,2,0:0:0:0:
256,192,116380,5,0,0:0:0:0:
256,192,116918,1,0,0:0:0:0:
256,192,117457,1,0,0:0:0:0:
256,192,117996,1,0,0:0:0:0:
256,192,118535,1,0,0:0:0:0:
256,192,119074,1,2,0:0:0:0:
256,192,119613,1,2,0:0:0:0:
256,192,120152,1,2,0:0:0:0:
256,192,120691,1,2,0:0:0:0:
256,192,121230,1,2,0:0:0:0:
256,192,121769,1,0,0:0:0:0:
256,192,121948,1,0,0:0:0:0:
256,192,122128,1,2,0:0:0:0:
256,192,122667,1,2,0:0:0:0:
256,192,123206,1,2,0:0:0:0:
256,192,123745,1,2,0:0:0:0:
256,192,124284,1,2,0:0:0:0:
256,192,124823,1,0,0:0:0:0:
256,192,125002,5,2,0:0:0:0:
256,192,125362,1,0,0:0:0:0:
256,192,125541,1,0,0:0:0:0:
256,192,125721,1,2,0:0:0:0:
256,192,125901,1,2,0:0:0:0:
256,192,126080,1,2,0:0:0:0:
256,192,126439,1,0,0:0:0:0:
256,192,126619,1,0,0:0:0:0:
256,192,126799,1,0,0:0:0:0:
256,192,126978,1,0,0:0:0:0:
256,192,127158,1,2,0:0:0:0:
256,192,127877,1,4,0:0:0:0:
256,192,128415,1,0,0:0:0:0:
256,192,128954,1,0,0:0:0:0:
256,192,129493,1,0,0:0:0:0:
256,192,130032,1,0,0:0:0:0:
256,192,130571,1,2,0:0:0:0:
256,192,131110,1,2,0:0:0:0:
256,192,131649,1,2,0:0:0:0:
256,192,132188,1,2,0:0:0:0:
256,192,132727,1,2,0:0:0:0:
256,192,133266,1,0,0:0:0:0:
256,192,133445,1,0,0:0:0:0:
256,192,133625,1,2,0:0:0:0:
256,192,134164,1,2,0:0:0:0:
256,192,134703,1,2,0:0:0:0:
256,192,135242,1,2,0:0:0:0:
256,192,135781,1,2,0:0:0:0:
256,192,136140,1,2,0:0:0:0:
256,192,136320,1,0,0:0:0:0:
256,192,136859,1,0,0:0:0:0:
256,192,137398,1,0,0:0:0:0:
256,192,137936,1,2,0:0:0:0:
256,192,138296,1,0,0:0:0:0:
256,192,138475,1,2,0:0:0:0:
256,192,138655,1,0,0:0:0:0:
256,192,139014,1,2,0:0:0:0:
256,192,139194,1,2,0:0:0:0:
256,192,139374,1,4,0:0:0:0:
256,192,140092,1,2,0:0:0:0:
256,192,140362,1,2,0:0:0:0:
256,192,140631,1,2,0:0:0:0:
256,192,140990,1,0,0:0:0:0:
256,192,141170,1,2,0:0:0:0:
256,192,141350,1,2,0:0:0:0:
256,192,141529,1,0,0:0:0:0:
256,192,142068,1,0,0:0:0:0:
256,192,142427,1,2,0:0:0:0:
256,192,142607,1,0,0:0:0:0:
256,192,142966,1,2,0:0:0:0:
256,192,143146,1,2,0:0:0:0:
256,192,143505,1,0,0:0:0:0:
256,192,143865,1,0,0:0:0:0:
256,192,144044,1,0,0:0:0:0:
256,192,144224,1,0,0:0:0:0:
256,192,144404,1,2,0:0:0:0:
256,192,145122,1,0,0:0:0:0:
256,192,145481,1,0,0:0:0:0:
256,192,145661,1,2,0:0:0:0:
256,192,145841,1,0,0:0:0:0:
256,192,146020,1,0,0:0:0:0:
256,192,146200,1,2,0:0:0:0:
256,192,146559,1,0,0:0:0:0:
256,192,146739,1,2,0:0:0:0:
256,192,146918,1,0,0:0:0:0:
256,192,147098,1,0,0:0:0:0:
256,192,147278,1,2,0:0:0:0:
256,192,147637,1,0,0:0:0:0:
256,192,147817,1,2,0:0:0:0:
256,192,147996,1,2,0:0:0:0:
288,192,148176,1,0,0:0:0:0:
256,192,148356,1,2,0:0:0:0:
256,192,148715,1,0,0:0:0:0:
256,192,149074,1,2,0:0:0:0:
256,192,149254,1,2,0:0:0:0:
256,192,149433,5,0,0:0:0:0:
256,192,149793,1,0,0:0:0:0:
256,192,149972,1,0,0:0:0:0:
256,192,150152,1,2,0:0:0:0:
256,192,150511,1,2,0:0:0:0:
256,192,150871,1,4,0:0:0:0:
256,192,151589,1,2,0:0:0:0:
256,192,151769,1,0,0:0:0:0:
256,192,151948,1,2,0:0:0:0:
256,192,152128,1,2,0:0:0:0:
256,192,152487,1,0,0:0:0:0:
256,192,152667,1,2,0:0:0:0:
256,192,152847,1,2,0:0:0:0:
256,192,153026,1,0,0:0:0:0:
256,192,153565,1,0,0:0:0:0:
256,192,153924,1,2,0:0:0:0:
256,192,154104,1,0,0:0:0:0:
256,192,154284,1,0,0:0:0:0:
256,192,154463,1,2,0:0:0:0:
256,192,154823,1,0,0:0:0:0:
256,192,155002,1,0,0:0:0:0:
256,192,155362,1,0,0:0:0:0:
256,192,155541,1,2,0:0:0:0:
256,192,155901,1,2,0:0:0:0:
256,192,156260,1,0,0:0:0:0:
256,192,156439,1,2,0:0:0:0:
256,192,156619,1,0,0:0:0:0:
256,192,157338,1,2,0:0:0:0:
256,192,157517,1,2,0:0:0:0:
256,192,157697,1,0,0:0:0:0:
256,192,157877,1,0,0:0:0:0:
256,192,158236,1,0,0:0:0:0:
256,192,158415,1,0,0:0:0:0:
256,192,158595,1,0,0:0:0:0:
256,192,158775,1,2,0:0:0:0:
256,192,159314,1,0,0:0:0:0:
256,192,159673,1,2,0:0:0:0:
256,192,159853,1,0,0:0:0:0:
256,192,160032,1,0,0:0:0:0:
256,192,160212,1,2,0:0:0:0:
256,192,160571,1,2,0:0:0:0:
256,192,160751,1,0,0:0:0:0:
256,192,161110,1,0,0:0:0:0:
256,192,161290,1,2,0:0:0:0:
256,192,161649,1,2,0:0:0:0:
256,192,162008,1,2,0:0:0:0:
256,192,162188,1,2,0:0:0:0:
256,192,162368,1,4,0:0:0:0:
256,192,163086,1,2,0:0:0:0:
256,192,163266,1,0,0:0:0:0:
256,192,163445,1,2,0:0:0:0:
256,192,163625,1,2,0:0:0:0:
256,192,163984,1,0,0:0:0:0:
256,192,164164,1,2,0:0:0:0:
256,192,164344,1,2,0:0:0:0:
256,192,164523,1,0,0:0:0:0:
256,192,165062,1,0,0:0:0:0:
256,192,165421,1,2,0:0:0:0:
256,192,165601,1,0,0:0:0:0:
256,192,165781,1,0,0:0:0:0:
256,192,165960,1,2,0:0:0:0:
256,192,166320,1,0,0:0:0:0:
256,192,166499,1,0,0:0:0:0:
256,192,166859,1,0,0:0:0:0:
256,192,167038,1,2,0:0:0:0:
256,192,167398,1,2,0:0:0:0:
256,192,167757,1,0,0:0:0:0:
256,192,167936,1,2,0:0:0:0:
256,192,168116,1,0,0:0:0:0:
256,192,168835,1,2,0:0:0:0:
256,192,169014,1,2,0:0:0:0:
256,192,169194,1,0,0:0:0:0:
256,192,169374,1,0,0:0:0:0:
256,192,169733,1,0,0:0:0:0:
256,192,169912,1,0,0:0:0:0:
256,192,170092,1,0,0:0:0:0:
256,192,170272,1,2,0:0:0:0:
256,192,170631,1,2,0:0:0:0:
256,192,170811,5,0,0:0:0:0:
256,192,170990,5,2,0:0:0:0:
256,192,171170,1,2,0:0:0:0:
256,192,171350,1,0,0:0:0:0:
256,192,171709,1,2,0:0:0:0:
256,192,171889,1,2,0:0:0:0:
256,192,172068,1,2,0:0:0:0:
256,192,172427,1,0,0:0:0:0:
256,192,172607,1,0,0:0:0:0:
256,192,172787,1,0,0:0:0:0:
256,192,172966,1,0,0:0:0:0:
256,192,173146,1,2,0:0:0:0:
256,192,173505,1,2,0:0:0:0:
256,192,173685,1,0,0:0:0:0:
256,192,173865,1,4,0:0:0:0:
256,192,174583,1,2,0:0:0:0:
256,192,174763,1,0,0:0:0:0:
256,192,174942,1,2,0:0:0:0:
256,192,175122,1,2,0:0:0:0:
256,192,175481,1,0,0:0:0:0:
256,192,175661,1,2,0:0:0:0:
256,192,175841,1,2,0:0:0:0:
256,192,176020,1,0,0:0:0:0:
256,192,176380,1,2,0:0:0:0:
256,192,176559,1,0,0:0:0:0:
256,192,176918,1,2,0:0:0:0:
256,192,177098,1,0,0:0:0:0:
256,192,177457,1,2,0:0:0:0:
256,192,177637,1,2,0:0:0:0:
256,192,177817,1,0,0:0:0:0:
256,192,177996,1,0,0:0:0:0:
256,192,178356,1,0,0:0:0:0:
256,192,178535,1,2,0:0:0:0:
256,192,178895,1,2,0:0:0:0:
256,192,179254,1,0,0:0:0:0:
256,192,179433,1,2,0:0:0:0:
256,192,179613,1,0,0:0:0:0:
256,192,180332,1,2,0:0:0:0:
256,192,180511,1,2,0:0:0:0:
256,192,180691,1,0,0:0:0:0:
256,192,180871,1,0,0:0:0:0:
256,192,181230,1,0,0:0:0:0:
256,192,181409,1,0,0:0:0:0:
256,192,181589,1,0,0:0:0:0:
256,192,181769,1,2,0:0:0:0:
256,192,182128,1,2,0:0:0:0:
256,192,182308,1,0,0:0:0:0:
256,192,182667,1,2,0:0:0:0:
256,192,182847,1,0,0:0:0:0:
256,192,183026,1,0,0:0:0:0:
256,192,183206,1,2,0:0:0:0:
256,192,183565,1,0,0:0:0:0:
256,192,183745,1,0,0:0:0:0:
256,192,184104,1,0,0:0:0:0:
256,192,184284,1,2,0:0:0:0:
256,192,184643,1,2,0:0:0:0:
256,192,185002,1,2,0:0:0:0:
256,192,185182,1,2,0:0:0:0:
256,192,185362,1,4,0:0:0:0:
256,192,186080,1,2,0:0:0:0:
256,192,186260,1,0,0:0:0:0:
256,192,186439,1,2,0:0:0:0:
256,192,186619,1,2,0:0:0:0:
256,192,186978,1,0,0:0:0:0:
256,192,187158,1,2,0:0:0:0:
256,192,187338,1,2,0:0:0:0:
256,192,187517,1,0,0:0:0:0:
256,192,187877,1,2,0:0:0:0:
256,192,188056,1,0,0:0:0:0:
256,192,188415,1,2,0:0:0:0:
256,192,188595,1,0,0:0:0:0:
256,192,188775,1,0,0:0:0:0:
256,192,188954,1,2,0:0:0:0:
256,192,189314,1,0,0:0:0:0:
256,192,189493,1,0,0:0:0:0:
256,192,189853,1,0,0:0:0:0:
256,192,190032,1,2,0:0:0:0:
256,192,190392,1,2,0:0:0:0:
256,192,190751,1,0,0:0:0:0:
256,192,190930,1,2,0:0:0:0:
256,192,191110,1,0,0:0:0:0:
256,192,191829,1,2,0:0:0:0:
256,192,192008,1,2,0:0:0:0:
256,192,192188,1,0,0:0:0:0:
256,192,192368,1,0,0:0:0:0:
256,192,192727,1,0,0:0:0:0:
256,192,192907,1,0,0:0:0:0:
256,192,193086,1,0,0:0:0:0:
256,192,193266,1,2,0:0:0:0:
256,192,193625,5,2,0:0:0:0:
256,192,193805,5,0,0:0:0:0:
256,192,193984,5,2,0:0:0:0:
256,192,194164,1,2,0:0:0:0:
256,192,194344,1,0,0:0:0:0:
256,192,194703,1,2,0:0:0:0:
256,192,194883,1,2,0:0:0:0:
256,192,195062,1,2,0:0:0:0:
256,192,195421,1,0,0:0:0:0:
256,192,195601,1,0,0:0:0:0:
256,192,195781,1,0,0:0:0:0:
256,192,195960,1,0,0:0:0:0:
256,192,196140,1,2,0:0:0:0:
256,192,196499,1,2,0:0:0:0:
256,192,196859,1,4,0:0:0:0:
256,192,197218,1,2,0:0:0:0:
256,192,197757,1,2,0:0:0:0:
256,192,198296,1,0,0:0:0:0:
256,192,198835,1,0,0:0:0:0:
256,192,199374,1,2,0:0:0:0:
256,192,199912,1,2,0:0:0:0:
256,192,200451,1,2,0:0:0:0:
256,192,200990,1,2,0:0:0:0:
256,192,201350,1,0,0:0:0:0:
256,192,201889,1,0,0:0:0:0:
256,192,202427,1,2,0:0:0:0:
256,192,202966,1,2,0:0:0:0:
256,192,203505,1,2,0:0:0:0:
256,192,204044,1,0,0:0:0:0:
256,192,204583,1,0,0:0:0:0:
256,192,205122,1,0,0:0:0:0:
256,192,205661,1,0,0:0:0:0:
256,192,206200,1,0,0:0:0:0:
256,192,206739,1,2,0:0:0:0:
256,192,207278,1,0,0:0:0:0:
256,192,207996,5,2,0:0:0:0:
256,192,208176,1,0,0:0:0:0:
256,192,208715,1,0,0:0:0:0:
256,192,209074,1,2,0:0:0:0:
256,192,209433,1,0,0:0:0:0:
256,192,210511,1,2,0:0:0:0:
256,192,210871,1,2,0:0:0:0:
256,192,211948,1,0,0:0:0:0:
256,192,212308,1,0,0:0:0:0:
256,192,213386,1,2,0:0:0:0:
256,192,213745,1,0,0:0:0:0:
256,192,219853,5,4,0:0:0:0:
