osu file format v14

[General]
AudioFilename: audio.mp3
AudioLeadIn: 0
PreviewTime: 71435
Countdown: 0
SampleSet: Soft
StackLeniency: 0.7
Mode: 0
LetterboxInBreaks: 0
WidescreenStoryboard: 1

[Editor]
Bookmarks: 2162,10889,19617,37071,54526,63253,71980,80708,89435,106889,124344,141799,150526,159253,167980,176708,178889,185435,194162,211617,220344,229071,237799
DistanceSpacing: 1
BeatDivisor: 4
GridSize: 4
TimelineZoom: 1

[Metadata]
Title:Biscuit Funk
TitleUnicode:Biscuit Funk
Artist:Snail's House
ArtistUnicode:Snail's House
Creator:VoiceCore
Version:Normal
Source:
Tags:-Nanako- Calvaria Ujico* snails Funk future bass electronic instrumental
BeatmapID:3592095
BeatmapSetID:1751172

[Difficulty]
HPDrainRate:3
CircleSize:3
OverallDifficulty:4
ApproachRate:5
SliderMultiplier:1.2
SliderTickRate:1

[Events]
//Background and Video events
0,0,"bg.jpg",0,0
//Break Periods
2,141999,158054
//Storyboard Layer 0 (Background)
//Storyboard Layer 1 (Fail)
//Storyboard Layer 2 (Pass)
//Storyboard Layer 3 (Foreground)
//Storyboard Layer 4 (Overlay)
//Storyboard Sound Samples

[TimingPoints]
-17,545.454545454546,4,2,2,50,1,0
2164,545.454545454546,4,2,2,60,1,0
2504,-100,4,2,2,5,0,0
2573,-100,4,2,2,60,0,0
4686,-100,4,2,2,5,0,0
4754,-100,4,2,2,60,0,0
6868,-100,4,2,2,5,0,0
6936,-100,4,2,2,60,0,0
9050,-100,4,2,2,5,0,0
9118,-100,4,2,2,60,0,0
10004,-100,4,2,2,5,0,0
10073,-100,4,2,2,60,0,0
11095,-100,4,2,2,5,0,0
11164,-100,4,2,2,60,0,0
11641,-100,4,2,2,5,0,0
11709,-100,4,2,2,60,0,0
12186,-100,4,2,2,5,0,0
12254,-100,4,2,2,60,0,0
13277,-100,4,2,2,5,0,0
13345,-100,4,2,2,60,0,0
15459,-100,4,2,2,5,0,0
15527,-100,4,2,2,60,0,0
16004,-100,4,2,2,5,0,0
16073,-100,4,2,2,60,0,0
16550,-100,4,2,2,5,0,0
16618,-100,4,2,2,60,0,0
17641,-100,4,2,2,5,0,0
17709,-100,4,2,2,60,0,0
19209,-100,4,2,2,50,0,0
19618,-100,4,2,2,60,0,0
19959,-100,4,2,2,5,0,0
20027,-100,4,2,2,60,0,0
20777,-100,4,2,2,5,0,0
20845,-100,4,2,2,60,0,0
22141,-100,4,2,2,5,0,0
22209,-100,4,2,2,60,0,0
22959,-100,4,2,2,5,0,0
23027,-100,4,2,2,60,0,0
24323,-100,4,2,2,5,0,0
24391,-100,4,2,2,60,0,0
25141,-100,4,2,2,5,0,0
25209,-100,4,2,2,60,0,0
26504,-100,4,2,2,5,0,0
26573,-100,4,2,2,60,0,0
28686,-100,4,2,2,5,0,0
28754,-100,4,2,2,60,0,0
29504,-100,4,2,2,5,0,0
29573,-100,4,2,2,60,0,0
29982,-100,4,2,2,50,0,0
30527,-100,4,2,2,60,0,0
30868,-100,4,2,2,5,0,0
30936,-100,4,2,2,60,0,0
31686,-100,4,2,2,5,0,0
31754,-100,4,2,2,60,0,0
32436,-100,4,2,2,50,0,0
32709,-100,4,2,2,60,0,0
33050,-100,4,2,2,5,0,0
33118,-100,4,2,2,60,0,0
33868,-100,4,2,2,5,0,0
33936,-100,4,2,2,60,0,0
35232,-100,4,2,2,5,0,0
35300,-100,4,2,2,60,0,0
36459,-100,4,2,2,5,0,0
36527,-100,4,2,2,60,0,0
37073,-111.111111111111,4,2,2,50,0,0
54527,-100,4,2,2,60,0,0
71982,-90.9090909090909,4,2,2,70,0,1
73550,-90.9090909090909,4,2,2,5,0,1
73618,-90.9090909090909,4,2,2,70,0,1
79823,-90.9090909090909,4,2,2,5,0,1
79891,-90.9090909090909,4,2,2,70,0,1
81459,-90.9090909090909,4,2,2,5,0,1
81527,-90.9090909090909,4,2,2,70,0,1
82550,-90.9090909090909,4,2,2,5,0,1
82618,-90.9090909090909,4,2,2,70,0,1
84732,-90.9090909090909,4,2,2,5,0,1
84800,-90.9090909090909,4,2,2,70,0,1
85823,-90.9090909090909,4,2,2,5,0,1
85891,-90.9090909090909,4,2,2,70,0,1
86914,-90.9090909090909,4,2,2,5,0,1
86982,-90.9090909090909,4,2,2,70,0,1
90186,-90.9090909090909,4,2,2,5,0,1
90254,-90.9090909090909,4,2,2,70,0,1
92095,-90.9090909090909,4,2,2,5,0,1
92164,-90.9090909090909,4,2,2,70,0,1
92777,-90.9090909090909,4,2,2,5,0,1
92845,-90.9090909090909,4,2,2,70,0,1
93459,-90.9090909090909,4,2,2,5,0,1
93527,-90.9090909090909,4,2,2,70,0,1
96459,-90.9090909090909,4,2,2,5,0,1
96527,-90.9090909090909,4,2,2,70,0,1
99732,-90.9090909090909,4,2,2,5,0,1
99800,-90.9090909090909,4,2,2,70,0,1
101095,-90.9090909090909,4,2,2,5,0,1
101164,-90.9090909090909,4,2,2,70,0,1
104095,-90.9090909090909,4,2,2,5,0,1
104164,-90.9090909090909,4,2,2,70,0,1
105664,-100,4,2,2,60,0,0
107232,-100,4,2,2,5,0,0
107300,-100,4,2,2,60,0,0
108050,-100,4,2,2,5,0,0
108118,-100,4,2,2,60,0,0
109414,-100,4,2,2,5,0,0
109482,-100,4,2,2,60,0,0
110232,-100,4,2,2,5,0,0
110300,-100,4,2,2,60,0,0
111595,-100,4,2,2,5,0,0
111664,-100,4,2,2,60,0,0
112414,-100,4,2,2,5,0,0
112482,-100,4,2,2,60,0,0
113777,-100,4,2,2,5,0,0
113845,-100,4,2,2,60,0,0
115959,-100,4,2,2,5,0,0
116027,-100,4,2,2,60,0,0
116777,-100,4,2,2,5,0,0
116845,-100,4,2,2,60,0,0
118141,-100,4,2,2,5,0,0
118209,-100,4,2,2,60,0,0
118959,-100,4,2,2,5,0,0
119027,-100,4,2,2,60,0,0
120323,-100,4,2,2,5,0,0
120391,-100,4,2,2,60,0,0
121141,-100,4,2,2,5,0,0
121209,-100,4,2,2,60,0,0
122504,-100,4,2,2,5,0,0
122573,-100,4,2,2,60,0,0
123732,-100,4,2,2,5,0,0
123800,-100,4,2,2,60,0,0
124345,-111.111111111111,4,2,2,50,0,0
167982,-100,4,2,2,60,0,0
176709,-90.9090909090909,4,2,2,60,0,0
177868,-90.9090909090909,4,2,2,60,0,0
177902,-90.9090909090909,4,2,2,60,0,0
177970,-90.9090909090909,4,2,2,60,0,0
178004,-90.9090909090909,4,2,2,60,0,0
178891,-90.9090909090909,4,2,2,70,0,1
184550,-90.9090909090909,4,2,2,5,0,1
184618,-90.9090909090909,4,2,2,70,0,1
186186,-90.9090909090909,4,2,2,5,0,1
186254,-90.9090909090909,4,2,2,70,0,1
187277,-90.9090909090909,4,2,2,5,0,1
187345,-90.9090909090909,4,2,2,70,0,1
189459,-90.9090909090909,4,2,2,5,0,1
189527,-90.9090909090909,4,2,2,70,0,1
190550,-90.9090909090909,4,2,2,5,0,1
190618,-90.9090909090909,4,2,2,70,0,1
191641,-90.9090909090909,4,2,2,5,0,1
191709,-90.9090909090909,4,2,2,70,0,1
194914,-90.9090909090909,4,2,2,5,0,1
194982,-90.9090909090909,4,2,2,70,0,1
196823,-90.9090909090909,4,2,2,5,0,1
196891,-90.9090909090909,4,2,2,70,0,1
197504,-90.9090909090909,4,2,2,5,0,1
197573,-90.9090909090909,4,2,2,70,0,1
198186,-90.9090909090909,4,2,2,5,0,1
198254,-90.9090909090909,4,2,2,70,0,1
201186,-90.9090909090909,4,2,2,5,0,1
201254,-90.9090909090909,4,2,2,70,0,1
204459,-90.9090909090909,4,2,2,5,0,1
204527,-90.9090909090909,4,2,2,70,0,1
205823,-90.9090909090909,4,2,2,5,0,1
205891,-90.9090909090909,4,2,2,70,0,1
208823,-90.9090909090909,4,2,2,5,0,1
208891,-90.9090909090909,4,2,2,70,0,1
210391,-100,4,2,2,70,0,0
211618,-100,4,2,2,60,0,0
211959,-100,4,2,2,5,0,0
212027,-100,4,2,2,60,0,0
214141,-100,4,2,2,5,0,0
214209,-100,4,2,2,60,0,0
216323,-100,4,2,2,5,0,0
216391,-100,4,2,2,60,0,0
218504,-100,4,2,2,5,0,0
218573,-100,4,2,2,60,0,0
219459,-100,4,2,2,5,0,0
219527,-100,4,2,2,60,0,0
220550,-100,4,2,2,5,0,0
220618,-100,4,2,2,60,0,0
221095,-100,4,2,2,5,0,0
221164,-100,4,2,2,60,0,0
221641,-100,4,2,2,5,0,0
221709,-100,4,2,2,60,0,0
222732,-100,4,2,2,5,0,0
222800,-100,4,2,2,60,0,0
224914,-100,4,2,2,5,0,0
224982,-100,4,2,2,60,0,0
225459,-100,4,2,2,5,0,0
225527,-100,4,2,2,60,0,0
226004,-100,4,2,2,5,0,0
226073,-100,4,2,2,60,0,0
227095,-100,4,2,2,5,0,0
227164,-100,4,2,2,60,0,0

[Colours]
Combo1 : 128,255,128
Combo2 : 128,255,255
Combo3 : 255,166,210
Combo4 : 252,245,171

[HitObjects]
172,185,2164,6,0,L|166:112,1,60,4|0,1:0|0:0,0:0:0:0:
111,101,2709,2,0,P|100:64|127:17,2,90,8|0|0,0:1|1:0|1:0,0:0:0:0:
61,134,3800,1,8,0:1:0:0:
24,248,4345,2,0,L|17:312,1,60,0|0,1:0|0:0,0:0:0:0:
64,345,4891,2,0,P|100:373|161:364,2,90,8|0|2,0:1|1:0|1:2,0:0:0:0:
46,287,5982,1,8,0:1:0:0:
87,243,6254,1,0,0:0:0:0:
87,243,6527,6,0,L|154:251,1,60,0|0,1:0|0:0,0:0:0:0:
196,215,7073,2,0,P|241:210|310:188,2,90,8|0|0,0:1|1:0|1:0,0:0:0:0:
194,275,8164,1,8,0:1:0:0:
304,321,8709,2,0,L|367:312,1,60,0|0,1:0|0:0,0:0:0:0:
413,279,9254,2,0,P|425:315|438:369,2,90,8|0|0,0:1|1:0|1:0,0:0:0:0:
429,221,10345,1,8,0:1:0:0:
472,180,10618,1,0,3:0:0:0:
472,180,10891,6,0,P|449:143|437:113,1,60,4|0,1:0|0:0,0:0:0:0:
483,84,11436,2,0,P|497:43|464:7,2,90,8|0|0,0:1|1:0|1:0,0:0:0:0:
429,111,12527,1,8,0:1:0:0:
337,32,13073,1,0,1:0:0:0:
281,54,13345,1,0,0:0:0:0:
275,113,13618,2,0,P|288:152|298:208,2,90,8|0|0,0:1|1:0|1:0,0:0:0:0:
215,117,14709,1,8,0:1:0:0:
99,86,15254,6,0,P|61:104|27:100,1,60,0|0,1:0|0:0,0:0:0:0:
2,60,15800,2,0,P|20:23|79:13,2,90,8|0|0,0:1|1:0|1:0,0:0:0:0:
20,117,16891,1,8,0:1:0:0:
82,219,17436,1,0,1:0:0:0:
129,182,17709,1,0,0:0:0:0:
187,194,17982,2,0,P|200:259|202:288,2,90,8|0|0,0:1|1:0|1:0,0:0:0:0:
226,148,19073,1,8,3:1:0:0:
311,63,19618,6,0,P|321:98|326:130,1,60,4|0,1:0|0:0,0:0:0:0:
365,165,20164,2,0,P|340:189|316:260,2,90,8|0|0,0:1|1:0|1:0,0:0:0:0:
423,176,21254,1,8,0:1:0:0:
495,271,21800,2,0,L|424:269,1,60,0|0,1:0|0:0,0:0:0:0:
410,323,22345,2,0,P|444:360|493:359,2,90,8|0|0,0:1|1:0|1:0,0:0:0:0:
356,296,23436,1,8,0:1:0:0:
299,315,23709,1,0,0:0:0:0:
299,315,23982,6,0,P|266:344|245:346,1,60,0|0,1:0|0:0,0:0:0:0:
194,328,24527,2,0,P|199:281|205:235,2,90,8|0|0,0:1|1:0|1:0,0:0:0:0:
144,361,25618,1,8,0:1:0:0:
43,294,26164,2,0,P|37:252|37:225,1,60,0|0,1:0|0:0,0:0:0:0:
83,196,26709,2,0,P|93:135|101:98,2,90,8|0|0,0:1|1:0|1:0,0:0:0:0:
136,224,27800,2,0,P|192:240|251:195,1,120,8|4,0:1|1:0,0:0:0:0:
252,90,28891,6,0,L|368:97,2,90,8|0|0,0:1|1:0|1:0,0:0:0:0:
209,48,29982,2,0,L|160:53,2,30,8|2|0,0:1|0:1|0:0,0:0:0:0:
253,7,30527,1,0,1:0:0:0:
361,57,31073,2,0,L|354:154,2,90,8|0|0,0:1|1:0|1:0,0:0:0:0:
414,29,32164,2,0,B|436:8|436:8|468:15,1,60,8|2,0:1|0:0,0:0:0:0:
502,60,32709,5,0,1:0:0:0:
453,169,33254,2,0,L|508:253,2,90,8|0|0,0:1|1:0|1:0,0:0:0:0:
397,191,34345,2,0,L|338:212,1,60,8|0,0:1|0:0,0:0:0:0:
335,271,34891,1,0,1:0:0:0:
236,202,35436,2,0,L|245:104,2,90,8|0|0,0:1|1:0|1:0,0:0:0:0:
185,234,36527,1,8,0:1:0:0:
130,209,36800,1,0,3:0:0:0:
130,209,37073,6,0,P|60:196|22:192,1,107.999996704102,4|10,1:0|0:0,0:0:0:0:
0,114,38027,2,0,P|80:74|81:74,1,80.9999975280763,2|2,0:0|0:0,0:0:0:0:
120,89,38709,1,8,0:0:0:0:
175,147,39118,2,0,P|233:124|247:93,1,80.9999975280763
218,62,39800,2,0,P|253:29|284:24,1,80.9999975280763,10|2,0:0|0:0,0:0:0:0:
335,94,40618,1,10,0:0:0:0:
335,94,40891,2,0,L|343:162,1,53.9999983520508,8|0,0:0|0:0,0:0:0:0:
380,218,41573,6,0,P|383:256|350:301,1,80.9999975280763,2|10,0:0|0:0,0:0:0:0:
285,263,42391,2,0,P|246:271|195:251,1,80.9999975280763,2|2,0:0|0:0,0:0:0:0:
180,212,43073,2,0,L|186:149,2,53.9999983520508,8|2|0,0:0|0:0|0:0,0:0:0:0:
76,243,44164,2,0,L|98:326,1,80.9999975280763,10|0,0:0|0:0,0:0:0:0:
26,361,44982,1,8,0:0:0:0:
26,361,45254,2,0,L|8:296,1,53.9999983520508,8|0,0:0|0:0,0:0:0:0:
56,241,45936,6,0,P|89:244|138:210,1,80.9999975280763,2|10,0:0|0:0,0:0:0:0:
149,171,46618,2,0,L|158:113,2,53.9999983520508,0|0|2,0:0|0:0|0:0,0:0:0:0:
98,152,47436,1,8,0:0:0:0:
53,24,48118,2,0,P|88:30|147:40,1,80.9999975280763,2|10,0:0|0:0,0:0:0:0:
176,69,48800,2,0,P|217:81|245:78,1,53.9999983520508,2|0,0:0|0:0,0:0:0:0:
270,47,49345,1,8,0:0:0:0:
270,47,49618,2,0,L|286:166,1,107.999996704102,8|2,0:0|0:0,0:0:0:0:
355,235,50709,6,0,P|393:202|442:200,2,80.9999975280763,10|2|2,0:0|0:0|0:0,0:0:0:0:
339,286,51800,1,8,0:0:0:0:
367,332,52073,1,0,0:0:0:0:
367,332,52345,2,0,P|424:338|480:349,1,107.999996704102,2|10,0:0|0:0,0:0:0:0:
483,294,53164,2,0,L|516:284,2,26.9999991760254,0|2|0,0:0|0:0|0:0,0:0:0:0:
444,255,53709,1,8,0:0:0:0:
444,255,53982,1,8,0:0:0:0:
497,147,54527,6,0,P|445:147|383:108,1,120,0|8,3:0|3:2,0:0:0:0:
332,41,55482,2,0,P|290:75|254:76,1,90,0|0,3:0|3:0,0:0:0:0:
209,38,56164,1,8,3:2:0:0:
111,107,56709,2,0,P|96:141|87:172,1,60,0|0,3:0|0:0,0:0:0:0:
135,201,57254,2,0,L|232:188,2,90,8|0|8,3:2|3:0|3:2,0:0:0:0:
111,256,58345,1,8,3:2:0:0:
138,309,58618,1,2,0:0:0:0:
138,309,58891,6,0,P|168:353|240:346,1,120,0|8,3:0|3:2,0:0:0:0:
295,291,59845,2,0,P|313:338|334:377,1,90,0|0,3:0|3:0,0:0:0:0:
390,382,60527,1,8,3:2:0:0:
429,268,61073,2,0,P|436:222|437:199,1,60,0|0,3:0|0:0,0:0:0:0:
391,168,61618,2,0,P|347:166|316:205,2,90,8|0|8,3:2|3:0|3:2,0:0:0:0:
442,136,62709,1,8,3:2:0:0:
427,77,62982,1,0,0:0:0:0:
427,77,63254,6,0,P|439:35|449:14,2,60,0|0|8,1:0|0:0|3:2,0:0:0:0:
336,71,64209,2,0,P|296:40|244:26,1,90,0|0,1:0|1:0,0:0:0:0:
211,63,64891,2,0,P|191:95|155:106,1,60,8|0,3:2|0:0,0:0:0:0:
118,75,65436,2,0,P|90:57|45:49,2,60,0|0|8,1:0|0:0|3:2,0:0:0:0:
56,141,66391,2,0,P|63:189|74:242,1,90,0|0,1:0|1:0,0:0:0:0:
30,273,67073,2,0,P|16:308|1:330,1,60,8|0,3:2|0:0,0:0:0:0:
56,355,67618,5,0,1:0:0:0:
140,270,68164,1,8,1:2:0:0:
256,239,68709,1,0,1:0:0:0:
371,270,69254,1,8,1:2:0:0:
455,355,69800,1,0,1:0:0:0:
500,315,70073,1,0,1:0:0:0:
486,256,70345,2,0,P|492:209|506:123,1,120,0|0,1:0|1:0,0:0:0:0:
429,42,71436,1,8,3:1:0:0:
299,65,71982,6,0,P|270:99|265:144,1,66.0000020141602,4|0,1:0|0:0,0:0:0:0:
331,172,72527,2,0,P|269:205|227:193,2,99.0000030212403,8|2|0,0:1|1:0|1:0,0:0:0:0:
396,116,73618,1,8,0:1:0:0:
383,31,73891,2,0,L|377:-8,2,33.0000010070801,0|0|0,0:0|0:0|1:0,0:0:0:0:
267,156,74709,2,0,P|203:122|162:118,2,99.0000030212403,10|2|0,0:1|1:0|1:0,0:0:0:0:
348,183,75800,1,8,0:1:0:0:
335,267,76073,2,0,L|328:308,2,33.0000010070801,2|2|0,0:0|0:0|1:0,0:0:0:0:
202,157,76891,6,0,P|180:215|126:223,1,99.0000030212403,8|2,0:1|1:0,0:0:0:0:
35,166,77709,1,2,1:0:0:0:
0,88,77982,1,8,0:1:0:0:
48,18,78254,1,2,0:0:0:0:
133,26,78527,2,0,L|179:9,2,33.0000010070801,0|0|2,1:0|0:1|0:1,0:0:0:0:
162,106,79073,2,0,P|224:160|261:157,1,99.0000030212403,10|2,0:1|1:0,0:0:0:0:
315,59,79891,1,0,1:0:0:0:
347,138,80164,1,8,0:1:0:0:
427,107,80436,1,0,3:0:0:0:
472,179,80709,6,0,P|456:236|436:252,1,66.0000020141602,6|0,1:0|0:0,0:0:0:0:
386,294,81254,2,0,P|426:313|483:357,2,99.0000030212403,8|2|0,0:1|1:0|1:0,0:0:0:0:
303,318,82345,2,0,B|233:310|267:376|172:365,1,132.00000402832,8|0,0:1|1:0,0:0:0:0:
141,293,83164,1,0,0:0:0:0:
141,293,83436,2,0,L|152:185,1,99.0000030212403,10|2,0:1|1:0,0:0:0:0:
51,113,84254,2,0,P|45:85|45:37,2,66.0000020141602,0|8|0,1:0|0:1|0:0,0:0:0:0:
29,196,85073,6,0,P|4:230|-2:258,1,66.0000020141602,2|0,1:0|0:0,0:0:0:0:
70,299,85618,2,0,P|153:265|189:259,2,99.0000030212403,8|2|0,0:1|1:0|1:0,0:0:0:0:
108,375,86709,2,0,B|192:396|165:341|262:375,1,132.00000402832,8|0,0:1|1:0,0:0:0:0:
294,303,87527,1,0,0:0:0:0:
356,361,87800,1,10,0:1:0:0:
406,291,88073,2,0,L|402:245,2,33.0000010070801,0|2|0,0:0|1:0|1:0,0:0:0:0:
472,345,88618,2,0,L|465:392,2,33.0000010070801,0|0|8,1:0|3:0|3:1,0:0:0:0:
430,178,89436,6,0,P|375:169|356:163,1,66.0000020141602,4|0,1:0|0:0,0:0:0:0:
303,225,89982,2,0,P|276:244|208:242,2,99.0000030212403,10|2|0,0:1|1:0|1:0,0:0:0:0:
243,162,91073,2,0,L|205:150,2,33.0000010070801,8|2|0,0:1|0:1|0:0,0:0:0:0:
291,91,91618,1,0,1:0:0:0:
443,11,92164,2,0,P|479:48|506:98,2,99.0000030212403,10|2|0,0:1|1:0|1:0,0:0:0:0:
380,69,93254,1,8,0:1:0:0:
297,43,93527,2,0,L|259:31,2,33.0000010070801,2|0|0,0:1|0:0|1:0,0:0:0:0:
225,199,94345,6,0,P|171:233|116:214,1,99.0000030212403,10|2,0:1|1:0,0:0:0:0:
132,99,95164,1,0,1:0:0:0:
58,55,95436,2,0,L|48:15,2,33.0000010070801,8|2|2,0:1|0:1|0:0,0:0:0:0:
10,126,95982,2,0,B|0:161|0:161|25:211,1,66.0000020141602,0|0,1:0|0:0,0:0:0:0:
69,252,96527,2,0,P|30:275|3:339,1,99.0000030212403,8|0,0:1|1:0,0:0:0:0:
124,367,97345,1,0,1:0:0:0:
167,292,97618,2,0,P|198:295|233:301,1,66.0000020141602,8|0,0:1|0:0,0:0:0:0:
314,326,98164,6,0,P|356:321|380:296,1,66.0000020141602,4|0,1:0|0:0,0:0:0:0:
321,237,98709,2,0,L|336:139,2,99.0000030212403,8|2|2,0:1|1:0|1:0,0:0:0:0:
237,217,99800,2,0,B|223:149|173:193|159:96,1,132.00000402832,8|0,0:1|1:0,0:0:0:0:
322,50,100891,2,0,P|361:11|414:17,1,99.0000030212403,10|2,0:1|1:0,0:0:0:0:
481,112,101709,1,0,1:0:0:0:
410,160,101982,1,8,0:1:0:0:
457,231,102254,2,0,P|452:256|446:281,2,33.0000010070801,0|2|0,0:0|0:1|1:0,0:0:0:0:
318,332,103073,6,0,P|250:367|232:399,2,99.0000030212403,10|2|0,0:1|1:0|1:0,0:0:0:0:
319,246,104164,2,0,P|356:260|395:262,1,66.0000020141602,10|0,0:1|0:0,0:0:0:0:
407,180,104709,2,0,P|395:133|383:102,1,66.0000020141602,0|0,1:0|0:0,0:0:0:0:
305,108,105254,2,0,P|272:114|305:106,1,99.0000030212403,8|0,0:1|1:0,0:0:0:0:
305,108,106891,6,0,P|281:107|234:92,1,60,4|0,1:0|0:0,0:0:0:0:
208,50,107437,2,0,P|164:51|110:66,2,90,8|0|0,0:1|1:0|1:0,0:0:0:0:
244,2,108527,1,8,0:1:0:0:
354,50,109073,2,0,L|343:118,1,60,0|0,1:0|0:0,0:0:0:0:
318,163,109618,2,0,P|352:200|346:239,2,90,8|0|2,0:1|1:0|1:2,0:0:0:0:
264,189,110709,1,8,0:1:0:0:
205,175,110982,1,0,0:0:0:0:
205,175,111255,6,0,P|160:168|132:166,1,60,0|0,1:0|0:0,0:0:0:0:
100,206,111800,2,0,P|76:247|103:294,2,90,8|0|0,0:1|1:0|1:0,0:0:0:0:
106,146,112891,1,8,0:1:0:0:
7,76,113437,2,0,P|1:34|1:7,1,60,0|0,1:0|0:0,0:0:0:0:
53,45,113982,2,0,P|91:46|145:0,2,90,8|0|0,0:1|1:0|1:0,0:0:0:0:
7,76,115073,2,0,P|29:122|42:192,1,120,8|4,0:1|1:0,0:0:0:0:
94,297,116164,6,0,L|-20:316,2,90,8|0|0,0:1|1:0|1:0,0:0:0:0:
132,250,117255,2,0,L|140:214,2,30,8|2|0,0:1|3:1|3:0,0:0:0:0:
180,285,117800,1,0,1:0:0:0:
298,263,118346,2,0,L|291:360,2,90,8|0|0,0:1|1:0|1:0,0:0:0:0:
257,219,119437,2,0,B|236:197|236:197|243:165,1,60,8|2,0:1|0:0,0:0:0:0:
285,125,119982,5,0,1:0:0:0:
373,205,120527,2,0,L|464:185,2,90,8|0|0,0:1|1:0|1:0,0:0:0:0:
384,146,121618,2,0,L|394:70,1,60,8|0,0:1|0:0,0:0:0:0:
401,27,122164,1,0,1:0:0:0:
298,89,122709,2,0,L|307:-9,2,90,8|0|0,0:1|1:0|1:0,0:0:0:0:
262,137,123800,1,8,0:1:0:0:
275,195,124073,1,0,1:0:0:0:
275,195,124345,6,0,P|225:248|231:300,1,107.999996704102,4|10,1:0|0:0,0:0:0:0:
280,337,125299,2,0,P|326:337|361:297,1,80.9999975280763,2|2,0:0|0:0,0:0:0:0:
362,262,125982,1,8,0:0:0:0:
437,291,126391,2,0,P|481:247|498:229,1,80.9999975280763
459,193,127072,2,0,P|462:165|477:105,1,80.9999975280763,10|0,0:0|0:0,0:0:0:0:
499,36,127890,1,10,0:0:0:0:
499,36,128163,2,0,L|439:29,1,53.9999983520508,8|0,0:0|0:0,0:0:0:0:
366,48,128845,6,0,P|339:49|296:83,1,80.9999975280763,2|10,0:0|0:0,0:0:0:0:
365,128,129663,2,0,P|378:168|352:217,1,80.9999975280763,2|2,0:0|0:0,0:0:0:0:
316,227,130345,2,0,L|256:216,2,53.9999983520508,8|2|0,0:0|0:0|0:0,0:0:0:0:
396,299,131436,2,0,L|313:321,1,80.9999975280763,10|0,0:0|0:0,0:0:0:0:
245,283,132254,1,8,0:0:0:0:
245,283,132527,2,0,L|180:301,1,53.9999983520508,8|2,0:0|0:0,0:0:0:0:
114,277,133209,6,0,P|60:260|19:260,1,80.9999975280763,2|10,0:0|0:0,0:0:0:0:
7,304,133891,2,0,B|16:359|16:359|82:373,1,107.999996704102,0|2,0:0|0:0,0:0:0:0:
120,381,134708,1,8,0:0:0:0:
180,326,135118,2,0,P|178:282|131:197,1,134.999995880127,0|10,0:0|0:0,0:0:0:0:
55,205,136209,2,0,L|41:120,1,80.9999975280763,0|8,0:0|0:0,0:0:0:0:
92,106,136891,2,0,L|107:-9,1,107.999996704102,8|2,0:0|0:0,0:0:0:0:
196,57,137981,6,0,P|234:24|283:22,2,80.9999975280763,10|2|0,0:0|0:0|0:0,0:0:0:0:
180,108,139072,1,8,0:0:0:0:
208,154,139345,1,0,0:0:0:0:
208,154,139617,2,0,P|265:160|321:171,1,107.999996704102,2|10,0:0|0:0,0:0:0:0:
340,217,140436,2,0,L|373:207,2,26.9999991760254,0|2|0,0:0|0:0|0:0,0:0:0:0:
317,268,140981,1,8,0:0:0:0:
330,320,141254,2,0,L|350:375,2,53.9999983520508,8|0|4,0:0|3:0|1:0,0:0:0:0:
52,205,159254,5,2,0:1:0:0:
143,147,159800,1,10,0:0:0:0:
247,172,160345,2,0,L|229:270,2,80.9999975280763,2|2|0,0:0|0:0|0:0,0:0:0:0:
287,136,161436,1,2,0:0:0:0:
314,31,161982,1,8,0:0:0:0:
211,63,162527,1,2,0:0:0:0:
211,63,162800,2,0,L|142:77,1,53.9999983520508,8|8,0:0|0:0,0:0:0:0:
50,60,163618,5,2,0:1:0:0:
6,158,164164,1,8,0:0:0:0:
88,227,164709,2,0,P|78:264|52:303,2,80.9999975280763,2|2|0,0:0|0:0|0:0,0:0:0:0:
137,204,165800,1,2,0:0:0:0:
239,170,166345,1,8,0:0:0:0:
304,256,166891,1,2,0:0:0:0:
304,256,167164,2,0,L|366:268,1,53.9999983520508,8|8,0:0|0:0,0:0:0:0:
468,221,167982,6,0,P|480:179|490:158,2,60,0|0|8,1:0|0:0|3:2,0:0:0:0:
474,310,168937,2,0,P|431:320|388:349,1,90,0|0,1:0|1:0,0:0:0:0:
343,378,169618,2,0,P|339:325|331:308,1,60,8|0,3:2|0:0,0:0:0:0:
287,284,170164,2,0,P|254:301|226:312,2,60,0|0|8,1:0|0:0|3:2,0:0:0:0:
301,195,171119,2,0,P|298:144|333:112,1,90,0|8,1:0|1:2,0:0:0:0:
371,82,171801,2,0,P|395:95|437:96,1,60,8|0,3:2|0:0,0:0:0:0:
484,80,172346,5,0,1:0:0:0:
453,195,172891,1,8,1:2:0:0:
350,254,173436,1,0,1:0:0:0:
235,223,173982,1,8,1:2:0:0:
175,119,174527,1,0,1:0:0:0:
190,60,174800,1,0,1:0:0:0:
148,16,175073,2,0,L|18:43,1,120,0|0,1:0|1:0,0:0:0:0:
35,160,176164,1,8,3:1:0:0:
98,276,176709,6,0,P|65:281|30:295,1,66.0000020141602,0|0,1:0|0:0,0:0:0:0:
8,354,177254,1,0,3:0:0:0:
139,364,177800,1,0,3:0:0:0:
270,374,178345,1,8,3:1:0:0:
315,326,178618,2,0,L|311:290,2,33.0000010070801,0|8|0,0:1|3:1|1:0,0:0:0:0:
475,265,179436,2,0,P|411:231|370:227,2,99.0000030212403,10|2|0,0:1|1:0|1:0,0:0:0:0:
433,339,180527,1,8,0:1:0:0:
352,308,180800,2,0,L|320:317,2,33.0000010070801,2|2|0,0:0|0:0|1:0,0:0:0:0:
254,169,181618,6,0,P|290:90|315:63,1,99.0000030212403,8|2,0:1|1:0,0:0:0:0:
404,9,182436,1,2,1:0:0:0:
483,39,182709,1,8,0:1:0:0:
499,122,182981,1,2,0:0:0:0:
433,177,183254,2,0,L|453:226,2,33.0000010070801,0|0|2,1:0|0:1|0:1,0:0:0:0:
356,141,183800,2,0,P|308:183|249:174,1,99.0000030212403,10|2,0:1|1:0,0:0:0:0:
148,161,184618,1,0,1:0:0:0:
86,221,184891,1,8,0:1:0:0:
3,196,185163,1,0,1:0:0:0:
64,135,185436,6,0,P|75:112|101:77,1,66.0000020141602,6|0,1:0|0:0,0:0:0:0:
132,0,185982,2,0,P|84:22|21:14,2,99.0000030212403,8|2|0,0:1|1:0|1:0,0:0:0:0:
193,59,187072,2,0,B|263:51|229:117|324:106,1,132.00000402832,8|0,0:1|1:0,0:0:0:0:
363,173,187891,1,0,0:0:0:0:
363,173,188164,2,0,L|476:184,1,99.0000030212403,10|2,0:1|1:0,0:0:0:0:
508,63,188981,2,0,P|502:35|473:-5,2,66.0000020141602,0|8|0,1:0|0:1|0:0,0:0:0:0:
421,66,189800,6,0,P|396:100|390:128,1,66.0000020141602,2|0,1:0|0:0,0:0:0:0:
416,204,190345,2,0,P|499:170|535:164,2,99.0000030212403,8|2|0,0:1|1:0|1:0,0:0:0:0:
332,184,191436,2,0,B|310:265|378:242|346:334,1,132.00000402832,8|0,0:1|1:0,0:0:0:0:
267,300,192254,1,0,0:0:0:0:
210,364,192527,1,10,0:1:0:0:
133,324,192800,2,0,L|84:321,2,33.0000010070801,0|2|0,0:0|1:0|1:0,0:0:0:0:
149,239,193345,2,0,L|192:227,2,33.0000010070801,0|0|8,1:0|3:0|3:1,0:0:0:0:
28,116,194163,6,0,P|41:74|54:54,1,66.0000020141602,4|0,1:0|0:0,0:0:0:0:
131,89,194709,2,0,P|165:147|160:180,2,99.0000030212403,10|2|0,0:1|1:0|1:0,0:0:0:0:
79,157,195800,2,0,L|70:216,2,33.0000010070801,8|2|0,0:1|0:1|0:0,0:0:0:0:
161,175,196345,1,0,1:0:0:0:
184,345,196891,2,0,P|146:353|74:385,2,99.0000030212403,10|2|0,0:1|1:0|1:0,0:0:0:0:
258,302,197981,1,8,0:1:0:0:
339,329,198254,2,0,L|347:376,2,33.0000010070801,2|0|0,0:1|0:0|1:0,0:0:0:0:
367,159,199072,6,0,P|366:200|426:247,1,99.0000030212403,10|2,0:1|1:0,0:0:0:0:
458,125,199891,1,0,1:0:0:0:
407,56,200163,2,0,L|397:16,2,33.0000010070801,8|2|0,0:1|0:1|0:0,0:0:0:0:
321,62,200709,2,0,B|291:83|291:83|246:76,1,66.0000020141602,0|0,1:0|0:0,0:0:0:0:
179,103,201254,2,0,P|160:135|144:202,1,99.0000030212403,8|0,0:1|1:0,0:0:0:0:
129,322,202072,1,0,1:0:0:0:
200,274,202345,2,0,P|233:273|285:302,1,66.0000020141602,8|0,0:1|0:0,0:0:0:0:
314,353,202891,6,0,P|356:348|380:323,1,66.0000020141602,4|0,1:0|0:0,0:0:0:0:
444,285,203436,2,0,L|459:392,2,99.0000030212403,8|2|2,0:1|1:0|1:0,0:0:0:0:
372,237,204527,2,0,B|304:223|348:173|251:159,1,132.00000402832,8|0,0:1|1:0,0:0:0:0:
283,333,205618,2,0,P|244:372|191:366,1,99.0000030212403,10|2,0:1|1:0,0:0:0:0:
91,307,206436,1,0,1:0:0:0:
37,239,206709,1,8,0:1:0:0:
107,190,206981,2,0,P|125:198|144:201,2,33.0000010070801,0|2|0,0:0|0:1|1:0,0:0:0:0:
216,57,207800,6,0,P|249:20|324:21,2,99.0000030212403,10|2|0,0:1|1:0|1:0,0:0:0:0:
244,138,208891,2,0,P|195:142|159:126,1,66.0000020141602,10|0,0:1|0:0,0:0:0:0:
139,213,209436,2,0,P|92:225|61:237,1,66.0000020141602,0|0,1:0|0:0,0:0:0:0:
54,314,209981,2,0,P|60:347|52:314,1,99.0000030212403,8|0,0:1|1:0,0:0:0:0:
386,230,211618,1,4,1:0:0:0:
