osu file format v14

[General]
AudioFilename: audio.mp3
AudioLeadIn: 0
PreviewTime: 71435
Countdown: 0
SampleSet: Soft
StackLeniency: 0.2
Mode: 0
LetterboxInBreaks: 0
WidescreenStoryboard: 1

[Editor]
Bookmarks: 2162,10889,19617,37071,54526,63253,71980,80708,89435,106889,124344,141799,150526,159253,167980,176708,178889,185435,194162,211617,220344,229071,237799
DistanceSpacing: 1.4
BeatDivisor: 8
GridSize: 4
TimelineZoom: 0.9999998

[Metadata]
Title:Biscuit Funk
TitleUnicode:Biscuit Funk
Artist:Snail's House
ArtistUnicode:Snail's House
Creator:VoiceCore
Version:Insane
Source:
Tags:-Nanako- Calvaria Ujico* snails Funk future bass electronic instrumental
BeatmapID:4050756
BeatmapSetID:1751172

[Difficulty]
HPDrainRate:5
CircleSize:4.5
OverallDifficulty:7.5
ApproachRate:8.5
SliderMultiplier:1.8
SliderTickRate:1

[Events]
//Background and Video events
0,0,"bg.jpg",0,0
//Break Periods
2,142000,158579
//Storyboard Layer 0 (Background)
//Storyboard Layer 1 (Fail)
//Storyboard Layer 2 (Pass)
//Storyboard Layer 3 (Foreground)
//Storyboard Layer 4 (Overlay)
//Storyboard Sound Samples

[TimingPoints]
-17,545.454545454546,4,2,2,50,1,0
1619,-166.666666666667,4,2,2,50,0,0
2164,545.454545454546,4,2,2,60,1,0
2504,-100,4,2,2,5,0,0
2573,-100,4,2,2,60,0,0
4686,-100,4,2,2,5,0,0
4754,-100,4,2,2,60,0,0
6868,-100,4,2,2,5,0,0
6936,-100,4,2,2,60,0,0
9050,-100,4,2,2,5,0,0
9118,-100,4,2,2,60,0,0
10004,-100,4,2,2,5,0,0
10073,-100,4,2,2,60,0,0
11095,-100,4,2,2,5,0,0
11164,-100,4,2,2,60,0,0
11641,-100,4,2,2,5,0,0
11709,-100,4,2,2,60,0,0
12186,-100,4,2,2,5,0,0
12254,-100,4,2,2,60,0,0
13277,-100,4,2,2,5,0,0
13345,-100,4,2,2,60,0,0
15459,-100,4,2,2,5,0,0
15527,-100,4,2,2,60,0,0
16004,-100,4,2,2,5,0,0
16073,-100,4,2,2,60,0,0
16550,-100,4,2,2,5,0,0
16618,-100,4,2,2,60,0,0
17641,-100,4,2,2,5,0,0
17709,-100,4,2,2,60,0,0
19073,-166.666666666667,4,2,2,60,0,0
19209,-166.666666666667,4,2,2,50,0,0
19618,-100,4,2,2,60,0,0
19959,-100,4,2,2,5,0,0
20027,-100,4,2,2,60,0,0
20777,-100,4,2,2,5,0,0
20845,-100,4,2,2,60,0,0
22141,-100,4,2,2,5,0,0
22209,-100,4,2,2,60,0,0
22959,-100,4,2,2,5,0,0
23027,-100,4,2,2,60,0,0
24323,-100,4,2,2,5,0,0
24391,-100,4,2,2,60,0,0
25141,-100,4,2,2,5,0,0
25209,-100,4,2,2,60,0,0
26504,-100,4,2,2,5,0,0
26573,-100,4,2,2,60,0,0
28686,-100,4,2,2,5,0,0
28754,-100,4,2,2,60,0,0
29504,-100,4,2,2,5,0,0
29573,-100,4,2,2,60,0,0
29982,-100,4,2,2,50,0,0
30527,-100,4,2,2,60,0,0
30868,-100,4,2,2,5,0,0
30936,-100,4,2,2,60,0,0
31686,-100,4,2,2,5,0,0
31754,-100,4,2,2,60,0,0
32436,-100,4,2,2,50,0,0
32709,-100,4,2,2,60,0,0
33050,-100,4,2,2,5,0,0
33118,-100,4,2,2,60,0,0
33868,-100,4,2,2,5,0,0
33936,-100,4,2,2,60,0,0
35232,-100,4,2,2,5,0,0
35300,-100,4,2,2,60,0,0
36459,-100,4,2,2,5,0,0
36527,-100,4,2,2,60,0,0
37073,-125,4,2,2,50,0,0
54527,-100,4,2,2,60,0,0
67618,-125,4,2,2,60,0,0
71982,-71.4285714285714,4,2,2,70,0,1
73550,-71.4285714285714,4,2,2,5,0,1
73618,-71.4285714285714,4,2,2,70,0,1
79823,-71.4285714285714,4,2,2,5,0,1
79891,-71.4285714285714,4,2,2,70,0,1
81459,-71.4285714285714,4,2,2,5,0,1
81527,-71.4285714285714,4,2,2,70,0,1
82550,-71.4285714285714,4,2,2,5,0,1
82618,-71.4285714285714,4,2,2,70,0,1
84732,-71.4285714285714,4,2,2,5,0,1
84800,-71.4285714285714,4,2,2,70,0,1
85823,-71.4285714285714,4,2,2,5,0,1
85891,-71.4285714285714,4,2,2,70,0,1
86914,-71.4285714285714,4,2,2,5,0,1
86982,-71.4285714285714,4,2,2,70,0,1
88891,-125,4,2,2,70,0,0
89436,-71.4285714285714,4,2,2,70,0,1
90186,-71.4285714285714,4,2,2,5,0,1
90254,-71.4285714285714,4,2,2,70,0,1
92095,-71.4285714285714,4,2,2,5,0,1
92164,-71.4285714285714,4,2,2,70,0,1
92777,-71.4285714285714,4,2,2,5,0,1
92845,-71.4285714285714,4,2,2,70,0,1
93459,-71.4285714285714,4,2,2,5,0,1
93527,-71.4285714285714,4,2,2,70,0,1
96459,-71.4285714285714,4,2,2,5,0,1
96527,-71.4285714285714,4,2,2,70,0,1
99732,-71.4285714285714,4,2,2,5,0,1
99800,-71.4285714285714,4,2,2,70,0,1
101095,-71.4285714285714,4,2,2,5,0,1
101164,-71.4285714285714,4,2,2,70,0,1
104095,-71.4285714285714,4,2,2,5,0,1
104164,-71.4285714285714,4,2,2,70,0,1
105664,-125,4,2,2,60,0,0
106891,-100,4,2,2,60,0,0
107232,-100,4,2,2,5,0,0
107300,-100,4,2,2,60,0,0
108050,-100,4,2,2,5,0,0
108118,-100,4,2,2,60,0,0
109414,-100,4,2,2,5,0,0
109482,-100,4,2,2,60,0,0
110232,-100,4,2,2,5,0,0
110300,-100,4,2,2,60,0,0
111595,-100,4,2,2,5,0,0
111664,-100,4,2,2,60,0,0
112414,-100,4,2,2,5,0,0
112482,-100,4,2,2,60,0,0
113777,-100,4,2,2,5,0,0
113845,-100,4,2,2,60,0,0
115959,-100,4,2,2,5,0,0
116027,-100,4,2,2,60,0,0
116777,-100,4,2,2,5,0,0
116845,-100,4,2,2,60,0,0
118141,-100,4,2,2,5,0,0
118209,-100,4,2,2,60,0,0
118959,-100,4,2,2,5,0,0
119027,-100,4,2,2,60,0,0
120323,-100,4,2,2,5,0,0
120391,-100,4,2,2,60,0,0
121141,-100,4,2,2,5,0,0
121209,-100,4,2,2,60,0,0
122504,-100,4,2,2,5,0,0
122573,-100,4,2,2,60,0,0
123732,-100,4,2,2,5,0,0
123800,-100,4,2,2,60,0,0
124345,-125,4,2,2,50,0,0
167982,-100,4,2,2,60,0,0
172345,-125,4,2,2,60,0,0
178891,-71.4285714285714,4,2,2,70,0,1
184550,-71.4285714285714,4,2,2,5,0,1
184618,-71.4285714285714,4,2,2,70,0,1
186186,-71.4285714285714,4,2,2,5,0,1
186254,-71.4285714285714,4,2,2,70,0,1
187277,-71.4285714285714,4,2,2,5,0,1
187345,-71.4285714285714,4,2,2,70,0,1
189459,-71.4285714285714,4,2,2,5,0,1
189527,-71.4285714285714,4,2,2,70,0,1
190550,-71.4285714285714,4,2,2,5,0,1
190618,-71.4285714285714,4,2,2,70,0,1
191641,-71.4285714285714,4,2,2,5,0,1
191709,-71.4285714285714,4,2,2,70,0,1
193618,-125,4,2,2,70,0,0
194164,-71.4285714285714,4,2,2,70,0,1
194914,-71.4285714285714,4,2,2,5,0,1
194982,-71.4285714285714,4,2,2,70,0,1
196823,-71.4285714285714,4,2,2,5,0,1
196891,-71.4285714285714,4,2,2,70,0,1
197504,-71.4285714285714,4,2,2,5,0,1
197573,-71.4285714285714,4,2,2,70,0,1
198186,-71.4285714285714,4,2,2,5,0,1
198254,-71.4285714285714,4,2,2,70,0,1
201186,-71.4285714285714,4,2,2,5,0,1
201254,-71.4285714285714,4,2,2,70,0,1
204459,-71.4285714285714,4,2,2,5,0,1
204527,-71.4285714285714,4,2,2,70,0,1
205823,-71.4285714285714,4,2,2,5,0,1
205891,-71.4285714285714,4,2,2,70,0,1
208823,-71.4285714285714,4,2,2,5,0,1
208891,-71.4285714285714,4,2,2,70,0,1
210391,-125,4,2,2,70,0,0
211618,-100,4,2,2,60,0,0
211959,-100,4,2,2,5,0,0
212027,-100,4,2,2,60,0,0
214141,-100,4,2,2,5,0,0
214209,-100,4,2,2,60,0,0
216323,-100,4,2,2,5,0,0
216391,-100,4,2,2,60,0,0
218504,-100,4,2,2,5,0,0
218573,-100,4,2,2,60,0,0
219459,-100,4,2,2,5,0,0
219527,-100,4,2,2,60,0,0
220550,-100,4,2,2,5,0,0
220618,-100,4,2,2,60,0,0
221095,-100,4,2,2,5,0,0
221164,-100,4,2,2,60,0,0
221641,-100,4,2,2,5,0,0
221709,-100,4,2,2,60,0,0
222732,-100,4,2,2,5,0,0
222800,-100,4,2,2,60,0,0
224914,-100,4,2,2,5,0,0
224982,-100,4,2,2,60,0,0
225459,-100,4,2,2,5,0,0
225527,-100,4,2,2,60,0,0
226004,-100,4,2,2,5,0,0
226073,-100,4,2,2,60,0,0
227095,-100,4,2,2,5,0,0
227164,-100,4,2,2,60,0,0
228527,-166.666666666667,4,2,2,60,0,0

[Colours]
Combo1 : 128,255,128
Combo2 : 128,255,255
Combo3 : 255,166,210
Combo4 : 252,245,171

[HitObjects]
309,93,1483,5,0,3:0:0:0:
309,93,1551,1,0,3:0:0:0:
309,93,1619,2,0,L|297:177,1,80.9999975280763,8|0,3:2|1:0,0:0:0:0:
307,187,2164,1,4,1:0:0:0:
367,263,2300,6,0,P|426:244|437:217,1,90,0|0,0:0|0:0,0:0:0:0:
491,171,2709,2,0,B|475:146|475:146|410:153,1,90,8|0,0:1|0:0,0:0:0:0:
415,152,3118,2,0,P|411:108|415:99,2,45,0|0|0,1:0|0:0|0:0,0:0:0:0:
467,60,3527,1,0,1:0:0:0:
333,139,3800,1,8,0:1:0:0:
265,120,3936,2,0,P|244:96|240:67,1,45,0|2,0:0|0:0,0:0:0:0:
269,18,4209,2,0,L|298:6,2,22.5,2|2|0,0:0|0:0|1:0,0:0:0:0:
163,73,4482,6,0,P|128:50|75:55,1,90,0|0,0:0|0:0,0:0:0:0:
107,120,4891,2,0,L|1:135,1,90,8|0,0:1|0:0,0:0:0:0:
17,132,5300,2,0,B|69:157|69:157|56:198,1,90,0|0,1:0|0:0,0:0:0:0:
164,237,5709,5,2,1:2:0:0:
95,255,5845,1,2,0:0:0:0:
26,273,5982,1,8,0:1:0:0:
200,304,6254,2,0,P|214:339|213:359,2,45,0|0|0,0:0|0:0|1:0,0:0:0:0:
140,346,6664,6,0,B|114:307|114:307|144:256,1,90,0|0,0:0|0:0,0:0:0:0:
198,231,7073,2,0,B|242:238|242:238|248:243|248:243|302:253,1,90,8|0,0:1|0:0,0:0:0:0:
285,249,7482,2,0,P|309:217|292:167,1,90,0|0,1:0|0:0,0:0:0:0:
234,137,7891,1,0,1:0:0:0:
277,261,8164,2,0,P|314:254|338:250,1,45,8|0,0:1|0:0,0:0:0:0:
275,336,8436,2,0,P|312:329|336:325,1,45,2|2,0:0|0:0,0:0:0:0:
382,367,8709,1,0,1:0:0:0:
483,371,8845,6,0,P|434:363|380:354,1,90,0|0,0:0|0:0,0:0:0:0:
467,351,9254,2,0,P|491:299|473:264,1,90,8|0,0:1|0:0,0:0:0:0:
410,249,9664,1,0,1:0:0:0:
410,249,9800,6,0,B|417:202|384:214|396:151,2,90,0|0|8,0:0|1:0|0:1,0:0:0:0:
334,242,10482,1,0,3:0:0:0:
334,242,10550,1,0,3:0:0:0:
334,242,10618,2,0,P|315:263|306:299,1,45,0|0,3:0|1:0,0:0:0:0:
331,347,10891,6,0,P|257:317|240:316,1,90,4|0,1:0|0:0,0:0:0:0:
127,366,11436,2,0,P|78:373|39:383,1,90,8|0,0:1|0:0,0:0:0:0:
0,322,11845,1,0,1:0:0:0:
0,322,11982,6,0,P|8:290|22:273,1,45,0|0,0:0|0:0,0:0:0:0:
77,243,12254,2,0,P|107:248|134:254,1,45,0|0,1:0|0:0,0:0:0:0:
34,183,12527,1,8,0:1:0:0:
77,243,12664,2,0,B|114:229|143:224|143:224|154:228|154:228|166:229|174:220,1,90,0|2,0:0|0:0,0:0:0:0:
225,266,13073,6,0,P|235:237|202:169,1,90,0|0,1:0|0:0,0:0:0:0:
99,69,13618,1,8,0:1:0:0:
48,121,13754,1,0,0:0:0:0:
84,184,13891,2,0,P|110:190|139:195,1,45,0|0,0:0|1:0,0:0:0:0:
165,130,14164,6,0,P|174:59|179:22,1,90,0|0,0:0|1:0,0:0:0:0:
37,8,14709,1,8,0:1:0:0:
101,46,14845,2,0,P|47:60|41:63,2,45,2|2|0,0:1|0:0|0:0,0:0:0:0:
176,40,15254,6,0,B|200:87|200:87|237:98,1,90,0|0,1:0|0:0,0:0:0:0:
408,136,15800,2,0,B|425:113|425:113|350:130,1,90,8|0,0:1|0:0,0:0:0:0:
294,143,16209,1,0,1:0:0:0:
294,143,16345,6,0,P|297:187|306:197,1,45,0|0,0:0|0:0,0:0:0:0:
359,223,16618,2,0,L|349:268,1,45,0|0,1:0|0:0,0:0:0:0:
431,203,16891,1,8,0:1:0:0:
373,151,17027,2,0,P|327:157|290:197,1,90,0|2,0:0|0:0,0:0:0:0:
247,128,17436,6,0,B|256:59|256:59|280:39,1,90,0|0,1:0|0:0,0:0:0:0:
373,151,17982,1,8,0:1:0:0:
443,168,18118,1,0,0:0:0:0:
482,107,18254,2,0,P|484:78|471:52,1,45,0|0,0:0|1:0,0:0:0:0:
413,32,18527,6,0,B|356:51|393:67|329:89,1,90,0|0,0:0|1:0,0:0:0:0:
315,16,18936,1,2,0:0:0:0:
315,16,19004,1,0,0:0:0:0:
315,16,19073,2,0,L|226:31,1,80.9999975280763,8|8,3:1|0:1,0:0:0:0:
222,33,19618,1,4,1:0:0:0:
273,101,19754,6,0,P|280:136|245:183,1,90,0|0,0:0|0:0,0:0:0:0:
183,203,20164,2,0,L|278:219,1,90,8|0,0:1|0:0,0:0:0:0:
271,217,20573,2,0,P|281:250|303:262,2,45,0|0|0,1:0|0:0|1:0,0:0:0:0:
316,159,20982,1,0,1:0:0:0:
406,288,21254,1,8,0:1:0:0:
362,347,21391,2,0,P|331:341|311:341,1,45,0|2,0:0|0:0,0:0:0:0:
256,381,21664,2,0,P|232:386|227:390,2,22.5,2|0|0,0:0|0:0|1:0,0:0:0:0:
317,340,21936,6,0,B|329:296|329:296|288:259,1,90,0|0,0:0|0:0,0:0:0:0:
227,242,22345,2,0,P|162:248|134:253,1,90,8|0,0:1|0:0,0:0:0:0:
137,252,22754,2,0,P|175:232|169:177,1,90,0|0,1:0|1:0,0:0:0:0:
122,137,23164,6,0,P|127:112|133:89,1,45,0|0,1:0|0:0,0:0:0:0:
161,9,23436,2,0,P|136:17|113:23,1,45,8|0,0:1|0:0,0:0:0:0:
30,39,23709,2,0,P|49:55|66:72,1,45,0|0,0:0|0:0,0:0:0:0:
122,137,23982,1,0,1:0:0:0:
86,200,24118,6,0,B|30:186|30:186|53:194|61:220,1,90,0|0,0:0|0:0,0:0:0:0:
0,254,24527,2,0,P|21:287|19:341,1,90,8|0,0:1|0:0,0:0:0:0:
20,336,24936,2,0,B|58:308|58:308|112:323,1,90,0|0,1:0|1:0,0:0:0:0:
169,340,25345,1,0,1:0:0:0:
254,207,25618,2,0,P|206:214|200:216,1,45,8|0,0:1|0:0,0:0:0:0:
220,285,25891,2,0,P|268:278|274:276,1,45,0|0,0:0|0:0,0:0:0:0:
322,231,26164,1,0,1:0:0:0:
355,134,26300,6,0,P|343:187|335:221,1,90,0|0,0:0|0:0,0:0:0:0:
370,153,26709,2,0,P|405:127|451:137,1,90,8|0,0:1|0:0,0:0:0:0:
502,185,27118,1,0,1:0:0:0:
502,185,27254,6,0,P|484:161|486:131,1,45,0|0,0:0|1:0,0:0:0:0:
505,77,27527,2,0,L|515:20,1,45,0|0,1:0|0:0,0:0:0:0:
434,95,27800,2,0,B|394:106|359:64|387:70|350:30|302:50,1,135,8|0,0:1|0:0,0:0:0:0:
302,53,28345,1,4,1:0:0:0:
255,119,28482,6,0,P|257:164|301:192,1,90,0|0,0:0|0:0,0:0:0:0:
339,247,28891,2,0,P|397:238|441:234,1,90,8|0,0:1|0:0,0:0:0:0:
428,235,29300,2,0,P|419:269|416:285,1,45,0|0,1:0|0:0,0:0:0:0:
469,332,29573,1,0,1:0:0:0:
469,332,29709,2,0,P|482:360|488:378,1,45,0|0,1:0|0:0,0:0:0:0:
398,344,29982,5,8,0:1:0:0:
330,318,30118,1,2,0:1:0:0:
274,363,30254,1,0,0:0:0:0:
318,247,30527,1,0,1:0:0:0:
330,318,30664,6,0,P|333:280|343:214,1,90,0|0,0:0|0:0,0:0:0:0:
370,162,31073,2,0,B|346:157|346:157|319:122|319:122|288:116,1,90,8|0,0:1|0:0,0:0:0:0:
298,117,31482,2,0,L|286:54,1,45,0|0,1:0|0:0,0:0:0:0:
274,187,31754,1,0,1:0:0:0:
274,187,31891,2,0,L|218:175,1,45,0|0,1:0|0:0,0:0:0:0:
154,160,32164,5,8,0:1:0:0:
71,260,32436,2,0,L|39:265,1,22.5,2|0,0:0|0:0,0:0:0:0:
123,350,32709,1,0,1:0:0:0:
191,320,32845,6,0,P|180:272|171:226,1,90,0|0,0:0|0:0,0:0:0:0:
154,160,33254,2,0,P|97:188|67:177,1,90,8|0,0:1|0:0,0:0:0:0:
74,181,33664,2,0,P|70:142|78:119,1,45,0|0,1:0|0:0,0:0:0:0:
80,65,33936,1,0,1:0:0:0:
80,65,34073,2,0,P|47:71|23:60,1,45,0|0,1:0|0:0,0:0:0:0:
151,40,34345,5,8,0:1:0:0:
151,40,34482,2,0,P|193:61|190:112,1,90,0|0,0:0|0:0,0:0:0:0:
154,160,34891,1,0,1:0:0:0:
208,212,35027,6,0,P|272:205|312:203,1,90,0|0,0:0|0:0,0:0:0:0:
214,286,35436,2,0,P|278:279|318:277,1,90,8|0,0:1|0:0,0:0:0:0:
367,317,35845,2,0,P|387:335|395:359,1,45,0|0,1:0|0:0,0:0:0:0:
370,242,36118,1,0,0:0:0:0:
434,206,36254,2,0,P|446:178|451:146,1,45,0|0,1:0|0:0,0:0:0:0:
409,102,36527,5,8,0:1:0:0:
365,40,36664,1,0,3:0:0:0:
365,40,36732,1,0,3:0:0:0:
365,40,36800,2,0,L|371:99,1,45,0|0,3:0|1:0,0:0:0:0:
318,136,37073,6,0,B|299:140|299:140|278:129,3,36,4|2|0|2,1:0|0:0|0:0|0:0,0:0:0:0:
275,124,37618,2,0,P|224:126|200:152,1,72,10|0,0:0|0:0,0:0:0:0:
207,151,38027,2,0,B|139:143|139:143|131:134|131:134|61:126,1,144,2|2,0:0|0:0,0:0:0:0:
56,126,38709,1,8,0:0:0:0:
98,204,38982,1,0,0:0:0:0:
98,204,39118,6,0,P|99:264|55:280,1,108,0|0,0:0|0:0,0:0:0:0:
119,343,39800,2,0,B|181:331|157:380|234:368,2,108,10|2|10,0:0|0:0|0:0,0:0:0:0:
17,376,40891,1,8,0:0:0:0:
47,279,41164,2,0,L|-5:287,1,36,0|0,0:0|0:0,0:0:0:0:
98,204,41573,6,0,P|105:157|115:126,1,72,2|0,0:0|0:0,0:0:0:0:
122,126,41982,1,10,0:0:0:0:
196,72,42254,1,2,0:0:0:0:
196,72,42391,2,0,L|310:87,1,108,2|2,0:0|0:0,0:0:0:0:
422,79,43073,2,0,P|424:49|385:17,1,72,8|2,0:0|0:0,0:0:0:0:
382,25,43482,6,0,P|370:78|359:142,1,108,2|0,0:0|0:0,0:0:0:0:
395,222,44164,2,0,P|418:235|482:193,2,108,10|0|8,0:0|0:0|0:0,0:0:0:0:
298,179,45254,2,0,B|282:204|282:204|292:252,1,72,8|0,0:0|0:0,0:0:0:0:
412,348,45936,6,0,P|426:303|440:271,1,72,2|2,0:0|0:0,0:0:0:0:
445,273,46345,1,10,0:0:0:0:
509,213,46618,1,0,0:0:0:0:
509,213,46754,2,0,P|436:187|396:176,1,108,2|2,0:0|0:0,0:0:0:0:
312,117,47436,2,0,P|279:126|268:133,2,36,8|0|0,0:0|0:0|0:0,0:0:0:0:
459,30,48118,6,0,P|425:55|392:54,1,72,2|0,0:0|0:0,0:0:0:0:
384,52,48527,1,10,0:0:0:0:
265,22,48800,1,2,0:0:0:0:
265,22,48936,2,0,P|252:37|243:65,1,36,2|0,0:0|0:0,0:0:0:0:
233,69,49209,6,0,B|214:82|211:103|211:103|201:82|178:77,1,72,0|0,0:0|0:0,0:0:0:0:
176,88,49618,1,8,0:0:0:0:
74,64,49891,2,0,P|73:93|71:104,1,36,2|2,0:0|0:0,0:0:0:0:
74,64,50164,6,0,P|108:114|96:163,1,108,2|0,0:0|0:0,0:0:0:0:
92,172,50709,2,0,B|68:188|41:178|41:178|96:197,1,108,10|2,0:0|0:0,0:0:0:0:
160,266,51391,1,0,0:0:0:0:
160,266,51527,2,0,P|115:277|99:299,2,72,2|8|0,0:0|0:0|0:0,0:0:0:0:
256,259,52345,6,0,L|238:380,1,108,2|0,0:0|0:0,0:0:0:0:
253,352,52891,1,10,0:0:0:0:
244,253,53164,1,0,0:0:0:0:
244,253,53300,2,0,P|231:201|213:186,1,72,2|0,0:0|0:0,0:0:0:0:
207,184,53709,1,8,0:0:0:0:
299,153,53982,1,8,0:0:0:0:
166,247,54527,6,0,P|117:237|69:234,1,90,0|0,3:0|0:0,0:0:0:0:
13,333,55073,2,0,P|53:340|83:285,1,90,8|0,3:2|0:0,0:0:0:0:
77,234,55482,1,0,3:0:0:0:
7,89,55891,1,0,3:0:0:0:
21,183,56164,1,8,3:2:0:0:
124,152,56436,2,0,P|146:146|171:141,1,45,0|0,0:0|0:0,0:0:0:0:
213,199,56709,6,0,B|222:106|222:106|259:82,1,135,0|0,3:0|0:0,0:0:0:0:
295,145,57254,2,0,P|327:145|370:191,1,90,8|0,3:2|0:0,0:0:0:0:
339,250,57664,1,0,3:0:0:0:
376,331,57936,1,0,0:0:0:0:
376,331,58073,2,0,P|427:316|473:313,1,90,8|8,3:2|3:2,0:0:0:0:
317,384,58618,5,2,0:0:0:0:
317,384,58686,1,2,0:0:0:0:
317,384,58754,1,2,0:0:0:0:
317,384,58823,1,2,0:0:0:0:
317,384,58891,2,0,P|279:337|251:333,1,90,0|0,3:0|0:0,0:0:0:0:
140,261,59436,2,0,B|139:274|139:274|149:282|149:282|227:268,1,90,8|0,3:2|0:0,0:0:0:0:
269,223,59845,5,0,3:0:0:0:
315,83,60254,1,0,3:0:0:0:
418,39,60527,1,8,3:2:0:0:
378,160,60800,2,0,P|365:119|325:77,2,90,0|0|0,0:0|3:0|0:0,0:0:0:0:
354,229,61482,1,0,0:0:0:0:
354,229,61618,2,0,P|306:225|295:225,2,45,8|0|0,3:2|0:0|0:0,0:0:0:0:
416,276,62027,6,0,P|465:279|497:250,1,90,0|0,3:0|0:0,0:0:0:0:
484,181,62436,1,8,3:2:0:0:
484,181,62573,1,0,0:0:0:0:
494,254,62709,2,0,L|475:356,1,90,8|0,3:2|0:0,0:0:0:0:
358,233,63254,5,0,1:0:0:0:
358,233,63391,2,0,P|345:260|347:288,2,45,2|0|2,0:0|0:0|0:0,0:0:0:0:
271,269,63800,1,8,3:2:0:0:
271,269,63937,2,0,P|273:298|288:322,1,45,2|0,0:0|0:0,0:0:0:0:
253,380,64209,6,0,P|219:372|143:366,1,90,2|2,1:2|0:0,0:0:0:0:
61,327,64618,2,0,P|92:325|115:320,1,45,0|2,1:0|0:0,0:0:0:0:
148,260,64891,1,8,3:2:0:0:
148,260,65027,2,0,P|138:216|126:155,1,90,2|0,0:0|0:0,0:0:0:0:
183,123,65436,6,0,B|146:95|146:95|96:106,1,90,0|0,1:0|0:0,0:0:0:0:
46,59,65845,2,0,L|-3:53,1,45,2|8,0:0|3:2,0:0:0:0:
102,8,66118,2,0,L|151:2,1,45,2|0,0:0|0:0,0:0:0:0:
194,137,66391,6,0,L|210:32,1,90,2|0,1:2|0:0,0:0:0:0:
280,59,66800,2,0,L|340:35,1,45,0|0,1:0|0:0,0:0:0:0:
408,119,67073,2,0,L|366:101,1,45,8|0,3:2|0:0,0:0:0:0:
397,189,67345,2,0,L|421:249,1,45,0|0,0:0|0:0,0:0:0:0:
408,119,67618,5,0,1:0:0:0:
408,119,67754,2,0,P|411:81|441:52,1,72,2|2,0:0|0:0,0:0:0:0:
355,77,68164,2,0,P|388:89|408:119,1,72,8|0,1:2|0:0,0:0:0:0:
104,119,68709,5,0,1:0:0:0:
104,119,68845,2,0,P|101:81|71:52,1,72,2|2,0:0|0:0,0:0:0:0:
157,77,69255,2,0,P|124:89|104:119,1,72,8|0,1:2|0:0,0:0:0:0:
199,280,69800,5,0,1:0:0:0:
256,192,70073,1,0,1:0:0:0:
211,123,70345,1,0,1:0:0:0:
213,158,70482,1,0,1:0:0:0:
232,184,70618,1,0,1:0:0:0:
246,192,70754,1,0,1:0:0:0:
256,192,70891,1,0,1:0:0:0:
138,144,71300,6,0,L|117:140,2,18,0|0|8,3:0|3:0|3:1,0:0:0:0:
211,123,71573,5,0,1:0:0:0:
256,192,71709,1,0,0:0:0:0:
199,280,71845,1,8,3:1:0:0:
328,215,71982,5,4,1:0:0:0:
328,215,72118,2,0,P|381:223|436:161,1,125.999996154785,2|0,0:1|0:0,0:0:0:0:
357,88,72527,2,0,P|363:139|365:166,1,62.9999980773926,8|0,0:1|0:0,0:0:0:0:
469,45,72800,5,0,0:0:0:0:
469,45,72936,2,0,B|432:37|391:64|430:69|381:93|347:87,1,125.999996154785,2|0,1:0|0:0,0:0:0:0:
214,73,73345,2,0,B|206:37|206:37|164:23,1,62.9999980773926,0|0,1:0|0:0,0:0:0:0:
149,104,73618,2,0,P|114:127|114:217,1,125.999996154785,8|0,0:1|0:0,0:0:0:0:
170,172,74027,6,0,B|186:217|187:231|192:245,1,62.9999980773926,0|0,0:0|1:0,0:0:0:0:
59,305,74300,2,0,B|82:272|129:275|129:275|142:300|179:307,1,125.999996154785,2|0,0:1|0:0,0:0:0:0:
250,223,74709,1,10,0:1:0:0:
250,223,74845,2,0,P|195:229|179:236,1,62.9999980773926,0|0,0:0|0:0,0:0:0:0:
59,305,75118,6,0,B|96:269|96:269|74:194,1,125.999996154785,2|0,1:0|0:0,0:0:0:0:
32,84,75527,2,0,L|22:155,1,62.9999980773926,0|0,1:0|0:0,0:0:0:0:
75,197,75800,2,0,B|97:191|112:203|112:203|117:186|138:169,1,62.9999980773926,8|2,0:1|0:0,0:0:0:0:
235,74,76073,2,0,P|240:50|243:38,2,31.4999990386963,2|2|2,0:0|0:0|0:0,0:0:0:0:
301,102,76345,6,0,B|289:144|229:167|186:128|186:128|168:108|168:108|143:114,1,188.999994232178,0|2,1:0|0:1,0:0:0:0:
115,48,76891,2,0,L|54:62,1,62.9999980773926,8|0,0:1|0:0,0:0:0:0:
270,169,77300,2,0,P|258:225|245:304,1,125.999996154785,2|0,1:0|0:0,0:0:0:0:
297,349,77709,6,0,B|332:358|332:358|359:336,1,62.9999980773926,2|0,1:0|0:0,0:0:0:0:
481,270,77982,2,0,P|510:263|521:260,2,31.4999990386963,8|0|0,0:1|0:0|0:0,0:0:0:0:
414,233,78254,1,2,0:0:0:0:
406,234,78322,1,2,0:0:0:0:
398,236,78390,1,2,0:0:0:0:
481,270,78527,6,0,B|495:233|495:233|482:259,1,62.9999980773926,0|0,1:0|0:1,0:0:0:0:
418,307,78800,2,0,B|421:332|421:332|409:354|432:375,1,62.9999980773926,2|0,0:1|0:0,0:0:0:0:
346,180,79073,2,0,P|328:202|353:296,1,125.999996154785,10|0,0:1|0:0,0:0:0:0:
280,256,79482,1,2,1:0:0:0:
236,318,79618,6,0,P|200:311|92:298,1,125.999996154785,0|0,0:0|1:0,0:0:0:0:
2,204,80027,1,0,0:0:0:0:
114,227,80164,1,8,0:1:0:0:
110,155,80300,1,0,3:0:0:0:
94,148,80368,1,0,3:0:0:0:
76,152,80436,2,0,L|91:74,1,62.9999980773926,0|0,3:0|1:0,0:0:0:0:
114,227,80709,6,0,P|170:198|176:132,1,125.999996154785,6|0,1:0|0:0,0:0:0:0:
18,23,81254,2,0,B|8:65|8:65|92:91,1,125.999996154785,8|0,0:1|0:0,0:0:0:0:
160,70,81664,1,2,1:0:0:0:
160,70,81800,2,0,P|188:67|227:87,1,62.9999980773926,0|0,0:0|0:0,0:0:0:0:
300,171,82073,1,0,1:0:0:0:
179,140,82209,1,2,0:1:0:0:
293,99,82345,2,0,B|334:61|388:81|388:81|402:99|402:99|384:128|384:128|406:163,1,188.999994232178,8|2,0:1|0:0,0:0:0:0:
512,12,82891,6,0,P|486:80|468:139,1,125.999996154785,0|2,1:0|0:1,0:0:0:0:
325,264,83436,2,0,P|323:317|349:336,1,62.9999980773926,10|0,0:1|0:0,0:0:0:0:
402,328,83709,1,0,0:0:0:0:
450,208,83845,1,2,1:0:0:0:
450,208,83982,2,0,L|365:226,1,62.9999980773926,0|0,0:0|0:0,0:0:0:0:
325,264,84254,2,0,B|273:249|273:249|261:227|261:227|207:211,2,125.999996154785,0|8|0,1:0|0:1|0:0,0:0:0:0:
503,316,85073,6,0,P|468:345|391:339,1,125.999996154785,2|0,1:0|0:0,0:0:0:0:
325,179,85618,2,0,B|333:107|358:81|358:81|369:68|368:35,1,125.999996154785,8|0,0:1|0:0,0:0:0:0:
297,37,86027,1,2,1:0:0:0:
297,37,86164,2,0,P|247:47|230:79,1,62.9999980773926,0|0,0:0|0:0,0:0:0:0:
325,179,86436,1,0,1:0:0:0:
421,129,86573,1,2,0:1:0:0:
289,108,86709,2,0,B|256:92|226:102|226:102|212:130|174:140|174:140|139:126|94:137,1,188.999994232178,8|0,0:1|0:0,0:0:0:0:
61,185,87254,6,0,P|87:139|58:61,1,125.999996154785,0|0,1:0|0:0,0:0:0:0:
13,242,87800,2,0,P|36:290|43:309,1,62.9999980773926,10|0,0:1|0:0,0:0:0:0:
11,369,88073,1,0,0:0:0:0:
109,268,88209,1,2,1:0:0:0:
109,268,88345,2,0,P|154:275|233:295,1,125.999996154785,0|0,1:0|1:0,0:0:0:0:
281,352,88754,5,0,3:0:0:0:
287,361,88823,1,0,3:0:0:0:
282,372,88891,2,0,L|391:354,1,108,8|0,3:1|3:0,0:0:0:0:
401,363,89436,5,4,1:0:0:0:
418,288,89573,2,0,P|435:262|470:256,2,62.9999980773926,0|0|0,0:1|0:0|0:0,0:0:0:0:
401,363,89982,2,0,P|390:309|355:235,1,125.999996154785,10|0,0:1|0:0,0:0:0:0:
272,152,90391,6,0,B|250:234|250:234|313:215,1,125.999996154785,2|0,1:0|0:0,0:0:0:0:
278,80,90800,1,0,1:0:0:0:
278,80,90936,2,0,P|243:83|218:105,1,62.9999980773926,0|8,0:1|0:1,0:0:0:0:
119,23,91209,2,0,P|154:26|179:48,1,62.9999980773926,2|0,0:1|0:0,0:0:0:0:
272,152,91482,5,2,0:0:0:0:
251,234,91618,2,0,B|161:261|161:261|117:222,1,125.999996154785,0|2,1:0|0:1,0:0:0:0:
13,84,92164,2,0,L|2:13,1,62.9999980773926,10|0,0:1|0:0,0:0:0:0:
71,133,92436,1,0,0:0:0:0:
71,133,92573,2,0,L|61:200,1,62.9999980773926,2|0,1:0|0:0,0:0:0:0:
16,252,92845,5,0,1:0:0:0:
137,239,92982,1,0,1:0:0:0:
77,317,93118,2,0,P|65:353|59:381,2,62.9999980773926,0|8|0,0:0|0:1|0:0,0:0:0:0:
61,195,93527,2,0,P|28:181|-6:184,1,62.9999980773926,2|0,0:1|0:0,0:0:0:0:
16,252,93800,1,0,1:0:0:0:
111,140,93936,6,0,B|130:58|152:108|170:5,1,125.999996154785,0|0,0:1|0:0,0:0:0:0:
186,139,94345,2,0,P|213:182|296:177,1,125.999996154785,10|0,0:1|0:0,0:0:0:0:
368,59,94754,2,0,L|290:69,1,62.9999980773926,2|0,1:0|0:0,0:0:0:0:
257,119,95027,1,0,1:0:0:0:
283,186,95164,2,0,L|361:176,1,62.9999980773926,0|0,1:0|0:0,0:0:0:0:
421,219,95436,5,8,0:1:0:0:
493,140,95573,1,2,0:1:0:0:
494,132,95641,1,2,0:0:0:0:
496,124,95709,1,2,0:0:0:0:
445,69,95845,2,0,B|448:44|448:44|436:22|459:1,2,62.9999980773926,2|0|2,0:1|1:0|0:1,0:0:0:0:
493,140,96254,6,0,P|447:151|427:234,2,125.999996154785,0|8|0,0:0|0:1|0:0,0:0:0:0:
476,278,96936,1,0,1:0:0:0:
476,278,97073,2,0,B|406:291|426:241|352:256,1,125.999996154785,0|0,0:0|1:0,0:0:0:0:
254,366,97618,2,0,P|185:364|239:297,1,188.999994232178,8|0,0:1|0:0,0:0:0:0:
306,312,98164,5,4,1:0:0:0:
386,206,98300,2,0,P|281:221|242:227,1,125.999996154785,2|0,0:1|0:0,0:0:0:0:
204,166,98709,1,8,0:1:0:0:
306,312,98982,5,0,0:0:0:0:
317,188,99118,1,2,1:0:0:0:
257,230,99254,2,0,P|243:273|235:302,1,62.9999980773926,0|0,0:0|1:0,0:0:0:0:
168,313,99527,2,0,P|137:273|47:293,2,125.999996154785,2|8|0,1:0|0:1|0:0,0:0:0:0:
204,166,100345,5,0,1:0:0:0:
153,33,100482,2,0,B|111:78|111:78|141:152,1,125.999996154785,2|0,0:1|0:0,0:0:0:0:
204,166,100891,1,10,0:1:0:0:
353,1,101164,5,0,0:0:0:0:
310,64,101300,2,0,P|250:97|182:86,1,125.999996154785,2|0,1:0|1:0,0:0:0:0:
194,91,101709,2,0,P|236:97|265:121,1,62.9999980773926,0|0,1:0|0:0,0:0:0:0:
245,231,101982,1,8,0:1:0:0:
204,166,102118,5,0,0:1:0:0:
326,137,102254,1,0,0:0:0:0:
390,243,102391,1,2,0:1:0:0:
390,243,102527,6,0,P|402:175|450:44,1,188.999994232178,0|0,1:0|0:0,0:0:0:0:
501,112,103073,2,0,P|484:159|467:239,1,125.999996154785,10|0,0:1|0:0,0:0:0:0:
474,309,103482,2,0,P|457:261|379:247,1,125.999996154785,2|0,1:0|1:0,0:0:0:0:
326,344,103891,1,0,1:0:0:0:
400,327,104027,1,0,0:0:0:0:
253,360,104164,6,0,B|187:350|174:285|174:285|151:328|90:315,1,188.999994232178,10|2,0:1|0:1,0:0:0:0:
49,284,104709,1,0,1:0:0:0:
49,284,104845,2,0,P|44:246|64:216,2,62.9999980773926,0|0|0,0:0|0:0|0:0,0:0:0:0:
114,318,105254,2,0,L|105:382,1,62.9999980773926,8|0,0:1|0:0,0:0:0:0:
177,280,105527,1,0,0:0:0:0:
173,268,105664,5,0,1:0:0:0:
190,187,106209,6,0,L|219:177,2,18,0|0|0,3:0|3:0|3:0,0:0:0:0:
128,148,106482,1,0,3:0:0:0:
128,148,106550,1,0,3:0:0:0:
128,148,106618,2,0,L|136:98,1,36,8|0,3:1|1:0,0:0:0:0:
135,99,106891,1,4,1:0:0:0:
193,57,107027,6,0,P|166:32|106:32,1,90,0|0,0:0|0:0,0:0:0:0:
62,78,107437,2,0,B|1:70|1:70|26:87,1,90,8|0,0:1|0:0,0:0:0:0:
24,86,107846,2,0,P|39:118|31:146,2,45,0|0|0,1:0|0:0|1:0,0:0:0:0:
2,190,108255,1,0,1:0:0:0:
143,146,108527,1,8,0:1:0:0:
191,202,108664,2,0,P|177:234|172:256,1,45,0|2,0:0|0:0,0:0:0:0:
259,174,108936,2,0,L|254:142,2,22.5,2|2|0,0:0|0:0|1:0,0:0:0:0:
252,248,109209,6,0,B|287:276|287:276|337:252,1,90,0|0,0:0|0:0,0:0:0:0:
400,246,109618,2,0,P|377:272|377:332,1,90,8|0,0:1|0:0,0:0:0:0:
433,370,110027,2,0,B|488:362|456:333|523:325,1,90,0|0,1:0|1:0,0:0:0:0:
501,257,110436,5,2,1:2:0:0:
447,208,110573,1,2,0:0:0:0:
377,233,110709,1,8,0:1:0:0:
302,341,110982,2,0,P|314:374|313:388,2,45,0|0|0,0:0|0:0|1:0,0:0:0:0:
240,381,111391,6,0,B|171:373|171:373|157:340,1,90,0|0,0:0|0:0,0:0:0:0:
216,303,111800,2,0,B|210:251|247:271|239:205,1,90,8|0,0:1|0:0,0:0:0:0:
240,219,112209,2,0,P|231:148|227:126,1,90,0|0,1:0|1:0,0:0:0:0:
167,89,112618,1,0,1:0:0:0:
67,204,112891,2,0,P|34:198|11:195,1,45,8|0,0:1|0:0,0:0:0:0:
118,257,113164,2,0,P|151:251|174:248,1,45,0|0,0:0|0:0,0:0:0:0:
74,316,113437,1,0,1:0:0:0:
118,257,113573,6,0,P|154:234|198:250,1,90,0|0,0:0|0:0,0:0:0:0:
260,213,113982,2,0,L|271:121,1,90,8|0,0:1|0:0,0:0:0:0:
243,53,114391,1,0,1:0:0:0:
243,53,114527,6,0,L|195:45,1,45,0|0,0:0|1:0,0:0:0:0:
140,91,114800,2,0,L|79:100,1,45,0|0,1:0|0:0,0:0:0:0:
48,39,115073,2,0,B|24:57|24:57|14:119|14:119|50:158,1,135,8|0,0:1|0:0,0:0:0:0:
53,159,115618,1,4,1:0:0:0:
95,97,115754,6,0,P|122:129|119:193,1,90,0|0,0:0|0:0,0:0:0:0:
92,242,116164,2,0,L|2:230,1,90,8|0,0:1|0:0,0:0:0:0:
15,304,116573,2,0,L|60:310,1,45,0|0,1:0|0:0,0:0:0:0:
71,384,116846,1,0,1:0:0:0:
71,384,116982,2,0,L|124:377,1,45,0|0,1:0|0:0,0:0:0:0:
187,367,117255,5,8,0:1:0:0:
172,293,117391,2,0,P|156:274|145:266,2,22.5,2|0|0,3:1|3:0|3:0,0:0:0:0:
291,375,117800,1,0,1:0:0:0:
246,319,117936,6,0,P|278:303|330:314,1,90,0|0,0:0|0:0,0:0:0:0:
392,353,118345,2,0,L|480:339,1,90,8|0,0:1|0:0,0:0:0:0:
512,270,118755,2,0,P|508:241|486:219,1,45,0|0,1:0|0:0,0:0:0:0:
434,267,119027,1,0,1:0:0:0:
434,267,119164,2,0,P|410:257|378:255,1,45,0|0,1:0|0:0,0:0:0:0:
371,184,119437,5,8,0:1:0:0:
426,121,119573,1,0,0:0:0:0:
426,121,119709,2,0,B|421:88|444:72|450:98|426:124,1,67.5,2|0,0:0|0:0,0:0:0:0:
433,137,119982,1,0,1:0:0:0:
350,111,120118,6,0,L|254:126,1,90,0|0,0:0|0:0,0:0:0:0:
210,178,120527,2,0,B|182:153|182:153|197:91,1,90,8|0,0:1|0:0,0:0:0:0:
232,11,120936,2,0,P|247:43|250:63,1,45,0|0,1:0|0:0,0:0:0:0:
194,102,121209,1,0,1:0:0:0:
194,102,121346,2,0,P|161:108|137:97,1,45,0|0,1:0|0:0,0:0:0:0:
112,37,121618,5,8,0:1:0:0:
112,37,121754,2,0,B|92:25|92:25|61:30,2,45,0|0|0,0:0|0:0|0:0,0:0:0:0:
150,104,122164,1,0,1:0:0:0:
92,154,122300,6,0,P|69:176|63:240,1,90,0|0,0:0|0:0,0:0:0:0:
102,293,122709,2,0,P|125:271|131:207,1,90,8|0,0:1|0:0,0:0:0:0:
203,189,123118,1,0,1:0:0:0:
203,189,123254,2,0,L|258:201,1,45,0|0,0:0|0:0,0:0:0:0:
318,217,123527,2,0,L|306:272,1,45,0|0,1:0|0:0,0:0:0:0:
293,334,123800,5,8,0:1:0:0:
230,379,123936,1,0,3:0:0:0:
230,379,124004,1,0,3:0:0:0:
230,379,124073,2,0,P|219:351|215:324,1,45,0|0,1:0|1:0,0:0:0:0:
221,323,124345,6,0,P|258:328|299:335,1,72,4|0,1:0|0:0,0:0:0:0:
383,384,124891,2,0,P|428:376|468:370,1,72,10|0,0:0|0:0,0:0:0:0:
467,361,125300,2,0,P|490:315|427:250,1,144,2|0,0:0|0:0,0:0:0:0:
420,258,125982,1,8,0:0:0:0:
328,207,126255,1,0,0:0:0:0:
328,207,126391,6,0,L|343:97,1,108,2|0,0:0|0:0,0:0:0:0:
437,53,127073,2,0,B|375:65|399:16|322:28,2,108,10|0|10,0:0|0:0|0:0,0:0:0:0:
471,144,128164,1,8,0:0:0:0:
403,216,128437,2,0,L|351:224,1,36,0|0,0:0|0:0,0:0:0:0:
342,99,128845,6,0,P|296:104|269:80,1,72,2|0,0:0|0:0,0:0:0:0:
270,74,129255,1,10,0:0:0:0:
174,8,129527,1,2,0:0:0:0:
174,8,129664,2,0,B|155:45|155:45|191:107,1,108,2|2,0:0|0:0,0:0:0:0:
241,184,130345,2,0,P|190:191|167:209,1,72,8|2,0:0|0:0,0:0:0:0:
167,218,130755,6,0,P|115:213|57:207,1,108,2|0,0:0|0:0,0:0:0:0:
153,285,131437,2,0,P|175:289|234:230,2,108,10|0|0,0:0|0:0|0:0,0:0:0:0:
98,198,132527,2,0,L|112:116,1,72,8|2,0:0|0:0,0:0:0:0:
229,32,133209,6,0,P|280:40|299:66,1,72,2|0,0:0|0:0,0:0:0:0:
297,67,133618,1,10,0:0:0:0:
254,157,133891,1,0,0:0:0:0:
254,157,134027,2,0,P|307:143|359:140,1,108,2|2,0:0|0:0,0:0:0:0:
451,197,134709,2,0,P|451:222|446:246,1,36,8|0,0:0|0:0,0:0:0:0:
365,287,135118,6,0,L|378:203,2,72,0|2|0,0:0|0:0|0:0,0:0:0:0:
377,304,135800,1,10,0:0:0:0:
453,368,136073,1,2,0:0:0:0:
453,368,136209,2,0,P|396:381|371:390,1,72,2|0,0:0|0:0,0:0:0:0:
373,378,136618,1,8,0:0:0:0:
283,316,136891,1,8,0:0:0:0:
196,351,137164,2,0,P|182:375|176:388,1,36,2|2,0:0|0:0,0:0:0:0:
178,382,137436,6,0,B|186:323|146:337|154:269,1,108,2|0,0:0|0:0,0:0:0:0:
163,262,137982,2,0,P|212:229|270:246,1,108,10|2,0:0|0:0,0:0:0:0:
347,184,138664,1,2,0:0:0:0:
347,184,138800,2,0,P|352:231|353:265,2,72,0|8|0,0:0|0:0|0:0,0:0:0:0:
379,98,139618,6,0,B|299:115|299:115|282:152,1,108,2|0,0:0|0:0,0:0:0:0:
280,153,140164,1,10,0:0:0:0:
376,190,140437,1,0,0:0:0:0:
376,190,140573,2,0,P|433:198|456:207,1,72,2|0,0:0|0:0,0:0:0:0:
454,217,140982,1,8,0:0:0:0:
484,304,141254,6,0,L|437:312,1,36,8|0,0:0|3:0,0:0:0:0:
441,323,141459,1,0,3:0:0:0:
432,336,141527,2,0,L|384:343,1,36,0|8,3:0|0:1,0:0:0:0:
337,298,141800,1,4,1:0:0:0:
75,199,159254,6,0,P|92:225|164:223,1,108,2|0,0:1|0:0,0:0:0:0:
175,226,159800,2,0,L|169:190,1,36,10|0,0:0|0:0,0:0:0:0:
223,141,160073,2,0,L|232:98,1,36,0|0,0:0|0:0,0:0:0:0:
192,45,160345,5,2,0:0:0:0:
65,90,160618,1,0,0:0:0:0:
46,87,160754,1,2,0:0:0:0:
28,83,160891,2,0,L|103:70,1,72,8|0,0:0|0:0,0:0:0:0:
188,9,161436,6,0,P|192:34|189:58,1,36,2|0,0:0|0:0,0:0:0:0:
176,115,161709,1,0,0:0:0:0:
275,73,161845,2,0,P|255:88|233:98,1,36,2|8,0:0|0:0,0:0:0:0:
176,115,162118,1,0,0:0:0:0:
262,179,162254,2,0,P|238:169|219:155,1,36,0|0,0:0|0:0,0:0:0:0:
176,115,162527,5,2,0:0:0:0:
305,38,162800,1,8,0:0:0:0:
300,56,162936,1,2,0:0:0:0:
300,76,163073,2,0,P|369:61|382:61,1,72,8|2,0:0|0:0,0:0:0:0:
460,134,163618,6,0,L|441:249,1,108,2|0,0:1|0:0,0:0:0:0:
466,306,164164,2,0,P|464:281|452:262,1,36,8|0,0:0|0:0,0:0:0:0:
394,304,164436,2,0,P|396:329|408:348,1,36,0|0,0:0|0:0,0:0:0:0:
330,267,164709,5,2,0:0:0:0:
234,373,164982,1,0,0:0:0:0:
241,354,165118,1,2,0:0:0:0:
232,336,165254,2,0,P|197:322|162:325,1,72,8|0,0:0|0:0,0:0:0:0:
24,276,165800,6,0,L|71:267,1,36,2|0,0:0|0:0,0:0:0:0:
130,254,166073,1,0,0:0:0:0:
203,335,166209,2,0,L|171:298,1,36,2|8,0:0|0:0,0:0:0:0:
130,254,166482,1,0,0:0:0:0:
164,152,166618,2,0,L|148:197,1,36,0|0,0:0|0:0,0:0:0:0:
130,254,166891,5,2,0:0:0:0:
82,115,167164,1,8,0:0:0:0:
58,114,167300,1,2,0:0:0:0:
40,130,167436,2,0,P|25:161|44:205,1,72,8|0,0:0|0:0,0:0:0:0:
214,116,167982,6,0,L|198:21,1,90,0|0,1:0|0:0,0:0:0:0:
132,68,168391,1,0,0:0:0:0:
132,68,168527,2,0,P|91:61|81:46,2,45,8|0|0,3:2|0:0|0:0,0:0:0:0:
213,22,168936,2,0,P|265:29|321:42,1,90,0|0,1:0|0:0,0:0:0:0:
368,3,169345,6,0,B|380:28|380:28|375:47,1,45,0|0,1:0|0:0,0:0:0:0:
372,119,169618,2,0,B|344:116|344:116|330:103,1,45,8|0,3:2|0:0,0:0:0:0:
269,64,169891,2,0,B|284:41|284:41|303:35,1,45,0|0,0:0|0:0,0:0:0:0:
442,96,170164,6,0,P|429:165|404:186,1,90,0|0,1:0|0:0,0:0:0:0:
442,249,170573,1,0,0:0:0:0:
442,249,170709,2,0,L|494:243,2,45,8|0|0,3:2|0:0|0:0,0:0:0:0:
392,311,171118,2,0,B|333:307|359:340|293:332,1,90,0|0,1:0|0:0,0:0:0:0:
264,246,171527,6,0,L|309:260,1,45,8|0,1:2|0:0,0:0:0:0:
283,175,171800,2,0,L|272:128,1,45,8|0,3:2|0:0,0:0:0:0:
213,193,172073,2,0,L|177:225,1,45,0|0,0:0|0:0,0:0:0:0:
104,228,172345,5,0,1:0:0:0:
79,253,172481,1,0,0:0:0:0:
71,288,172618,2,0,P|76:312|83:326,1,36,0|0,0:0|0:0,0:0:0:0:
143,355,172891,2,0,P|152:310|139:282,1,72,8|0,1:2|0:0,0:0:0:0:
408,228,173436,5,0,1:0:0:0:
432,253,173572,1,0,0:0:0:0:
441,288,173709,2,0,P|436:312|429:326,1,36,0|0,0:0|0:0,0:0:0:0:
369,355,173982,2,0,P|360:310|373:282,1,72,8|0,1:2|0:0,0:0:0:0:
313,104,174527,5,0,1:0:0:0:
256,192,174800,1,0,1:0:0:0:
301,261,175072,1,0,1:0:0:0:
299,226,175209,1,0,1:0:0:0:
280,200,175345,1,0,1:0:0:0:
266,192,175481,1,0,1:0:0:0:
256,192,175618,1,0,1:0:0:0:
313,104,176027,6,0,L|318:81,2,18,0|0|8,3:0|3:0|3:1,0:0:0:0:
243,144,176300,5,0,0:0:0:0:
161,180,176436,1,2,0:1:0:0:
65,120,176573,1,8,1:2:0:0:
90,213,176709,5,0,1:0:0:0:
90,213,176845,2,0,L|83:289,1,72,2|0,0:0|0:0,0:0:0:0:
83,284,177254,2,0,B|74:246|74:246|37:232,1,72,0|2,3:0|0:0,0:0:0:0:
13,298,177664,1,2,0:0:0:0:
13,298,177800,2,0,B|28:294|28:294|51:307|51:307|59:298|59:298|127:281,1,108,2|0,3:0|3:0,0:0:0:0:
183,274,178345,6,0,P|180:309|173:322,1,36,8|0,3:1|1:0,0:0:0:0:
99,362,178618,1,0,0:1:0:0:
137,213,178754,1,8,3:1:0:0:
263,267,178891,1,0,1:0:0:0:
183,274,179027,2,0,B|282:252|282:252|257:273,1,125.999996154785,2|0,0:1|0:0,0:0:0:0:
218,211,179436,1,10,0:1:0:0:
218,211,179573,2,0,P|226:171|265:150,1,62.9999980773926,0|0,0:1|0:0,0:0:0:0:
337,205,179845,6,0,P|354:256|308:322,1,125.999996154785,2|0,1:0|0:0,0:0:0:0:
253,344,180254,2,0,L|320:332,1,62.9999980773926,0|0,1:0|0:0,0:0:0:0:
370,277,180527,2,0,B|394:280|401:292|401:292|387:290|386:247,1,62.9999980773926,8|0,0:1|0:0,0:0:0:0:
472,148,180800,2,0,P|477:124|480:112,2,31.4999990386963,2|2|2,0:0|0:0|0:0,0:0:0:0:
438,215,181073,6,0,P|436:162|395:26,1,188.999994232178,0|0,1:0|0:0,0:0:0:0:
398,32,181618,2,0,B|426:49|426:49|470:37,1,62.9999980773926,8|0,0:1|0:0,0:0:0:0:
275,180,182027,2,0,B|248:205|211:198|211:198|190:162|146:168,1,125.999996154785,2|0,1:0|0:0,0:0:0:0:
149,238,182436,6,0,L|82:248,1,62.9999980773926,2|0,1:0|0:0,0:0:0:0:
29,118,182709,2,0,P|18:91|15:71,2,31.4999990386963,8|0|0,0:1|0:0|0:0,0:0:0:0:
97,147,182982,1,2,0:0:0:0:
99,139,183050,1,2,0:0:0:0:
103,132,183118,1,2,0:0:0:0:
165,167,183254,6,0,B|209:151|209:151|219:117,1,62.9999980773926,0|0,1:0|0:1,0:0:0:0:
137,35,183527,2,0,B|160:51|160:51|168:69|158:96,1,62.9999980773926,2|0,0:1|0:0,0:0:0:0:
2,183,183800,2,0,P|28:143|113:141,1,125.999996154785,10|0,0:1|0:0,0:0:0:0:
165,167,184209,1,2,1:0:0:0:
204,230,184345,6,0,B|229:259|229:259|321:240,1,125.999996154785,0|0,0:0|1:0,0:0:0:0:
426,155,184754,1,0,0:0:0:0:
385,260,184891,1,8,0:1:0:0:
459,245,185027,1,0,1:0:0:0:
474,253,185095,1,0,1:0:0:0:
477,271,185164,2,0,L|472:194,1,62.9999980773926,0|0,1:0|1:0,0:0:0:0:
385,260,185436,6,0,B|377:301|377:301|367:317|367:317|356:383,1,125.999996154785,6|0,1:0|0:0,0:0:0:0:
426,155,185982,2,0,P|356:163|333:221,1,125.999996154785,8|0,0:1|0:0,0:0:0:0:
385,260,186391,1,2,1:0:0:0:
385,260,186527,2,0,L|450:251,1,62.9999980773926,0|0,0:0|0:0,0:0:0:0:
501,140,186800,1,0,1:0:0:0:
417,167,186936,1,2,0:1:0:0:
509,289,187073,2,0,B|448:329|459:433|554:398|506:344|434:336,1,188.999994232178,8|2,0:1|0:0,0:0:0:0:
283,354,187618,6,0,L|144:375,1,125.999996154785,0|2,1:0|0:1,0:0:0:0:
0,216,188164,2,0,P|42:212|76:231,1,62.9999980773926,10|0,0:1|0:0,0:0:0:0:
26,282,188436,1,0,0:0:0:0:
132,164,188572,1,2,1:0:0:0:
132,164,188709,2,0,P|135:220|136:247,1,62.9999980773926,0|0,0:0|0:0,0:0:0:0:
205,155,188982,2,0,B|198:110|198:110|137:84|137:84|109:101,2,125.999996154785,0|8|0,1:0|0:1|0:0,0:0:0:0:
283,354,189800,6,0,P|273:298|340:253,1,125.999996154785,2|0,1:0|0:0,0:0:0:0:
510,140,190345,2,0,B|497:38|497:38|465:17,1,125.999996154785,8|0,0:1|0:0,0:0:0:0:
416,66,190754,1,2,1:0:0:0:
416,66,190891,2,0,P|405:30|410:-2,1,62.9999980773926,0|0,0:0|0:0,0:0:0:0:
510,140,191163,1,0,1:0:0:0:
368,126,191300,1,2,0:1:0:0:
416,183,191436,2,0,P|343:162|228:144,1,188.999994232178,8|0,0:1|0:0,0:0:0:0:
169,107,191982,6,0,B|208:130|208:130|191:221,1,125.999996154785,0|0,1:0|0:0,0:0:0:0:
96,95,192527,2,0,P|86:50|76:12,1,62.9999980773926,10|0,0:1|0:0,0:0:0:0:
9,19,192800,1,0,0:0:0:0:
62,161,192936,1,2,1:0:0:0:
62,161,193073,2,0,P|11:199|34:262,1,125.999996154785,0|0,1:0|1:0,0:0:0:0:
98,288,193481,5,0,3:0:0:0:
102,276,193550,1,0,3:0:0:0:
97,265,193618,2,0,L|115:378,1,108,8|0,3:1|3:0,0:0:0:0:
124,356,194163,5,4,1:0:0:0:
188,319,194300,2,0,P|198:363|192:384,2,62.9999980773926,0|0|0,0:1|0:0|0:0,0:0:0:0:
150,253,194709,2,0,P|193:278|272:256,1,125.999996154785,10|0,0:1|0:0,0:0:0:0:
335,384,195118,6,0,B|365:346|365:346|333:259,1,125.999996154785,2|0,1:0|0:0,0:0:0:0:
201,145,195527,1,0,1:0:0:0:
201,145,195664,2,0,P|212:188|215:217,1,62.9999980773926,0|8,0:1|0:1,0:0:0:0:
154,91,195936,2,0,P|165:48|168:19,1,62.9999980773926,2|0,0:1|0:0,0:0:0:0:
85,120,196209,5,2,0:0:0:0:
154,91,196345,2,0,B|193:97|224:68|198:74|232:31|293:50,1,125.999996154785,0|2,1:0|0:1,0:0:0:0:
452,158,196891,2,0,P|453:205|433:235,1,62.9999980773926,10|0,0:1|0:0,0:0:0:0:
384,183,197164,1,0,0:0:0:0:
384,183,197300,2,0,P|383:136|403:106,1,62.9999980773926,2|0,1:0|0:0,0:0:0:0:
453,85,197572,5,0,1:0:0:0:
384,183,197709,1,0,1:0:0:0:
321,97,197845,2,0,P|360:101|384:106,2,62.9999980773926,0|8|0,0:0|0:1|0:0,0:0:0:0:
335,24,198254,2,0,P|374:28|398:33,1,62.9999980773926,2|0,0:1|0:0,0:0:0:0:
453,85,198527,1,0,1:0:0:0:
384,225,198664,6,0,B|356:219|356:219|303:263|303:263|256:253,1,125.999996154785,0|0,0:1|0:0,0:0:0:0:
181,142,199072,2,0,P|242:140|285:202,1,125.999996154785,10|0,0:1|0:0,0:0:0:0:
257,335,199481,2,0,L|179:345,1,62.9999980773926,2|0,1:0|0:0,0:0:0:0:
145,291,199754,1,0,1:0:0:0:
150,218,199891,2,0,L|228:208,1,62.9999980773926,0|0,1:0|0:0,0:0:0:0:
363,136,200163,5,8,0:1:0:0:
291,61,200300,1,2,0:1:0:0:
283,62,200368,1,2,0:0:0:0:
275,64,200436,1,2,0:0:0:0:
257,135,200573,2,0,B|280:151|280:151|288:169|278:196,2,62.9999980773926,2|0|2,0:1|1:0|0:1,0:0:0:0:
212,209,200982,6,0,P|163:169|85:191,2,125.999996154785,0|8|0,0:0|0:1|0:0,0:0:0:0:
75,246,201663,1,0,1:0:0:0:
75,246,201800,2,0,P|66:194|46:107,1,125.999996154785,0|0,0:0|1:0,0:0:0:0:
51,317,202345,1,8,0:1:0:0:
114,361,202482,6,0,L|181:367,1,62.9999980773926,0|0,0:0|0:0,0:0:0:0:
75,246,202754,2,0,L|-17:260,1,62.9999980773926,0|4,0:0|1:0,0:0:0:0:
136,288,203027,2,0,P|193:298|252:237,1,125.999996154785,2|0,0:1|0:0,0:0:0:0:
241,182,203436,1,8,0:1:0:0:
60,26,203709,5,0,0:0:0:0:
2,130,203845,2,0,P|51:124|79:123,1,62.9999980773926,2|0,1:0|0:0,0:0:0:0:
122,170,204118,1,0,1:0:0:0:
122,170,204254,2,0,P|162:139|142:49,2,125.999996154785,2|8|0,1:0|0:1|0:0,0:0:0:0:
214,10,205072,5,0,1:0:0:0:
283,152,205209,2,0,P|324:138|410:130,1,125.999996154785,2|0,0:1|0:0,0:0:0:0:
476,153,205618,1,10,0:1:0:0:
367,292,205891,5,0,0:0:0:0:
283,152,206027,2,0,P|332:157|315:239,1,125.999996154785,2|0,1:0|1:0,0:0:0:0:
367,292,206436,2,0,P|355:340|354:362,1,62.9999980773926,0|0,1:0|0:0,0:0:0:0:
418,235,206709,1,8,0:1:0:0:
378,169,206845,5,0,0:1:0:0:
367,292,206982,1,0,0:0:0:0:
480,340,207118,1,2,0:1:0:0:
480,340,207254,6,0,B|460:323|460:323|324:310|324:310|284:335,1,188.999994232178,0|0,1:0|0:0,0:0:0:0:
283,247,207800,2,0,B|267:186|267:186|199:222,1,125.999996154785,10|0,0:1|0:0,0:0:0:0:
301,323,208209,2,0,B|274:345|274:345|168:337,1,125.999996154785,2|0,1:0|1:0,0:0:0:0:
122,299,208618,1,0,1:0:0:0:
140,227,208754,1,0,0:0:0:0:
105,372,208891,6,0,B|43:357|29:289|69:249|69:249|27:242,1,188.999994232178,10|2,0:1|0:1,0:0:0:0:
0,176,209436,1,0,1:0:0:0:
0,176,209573,2,0,L|71:165,2,62.9999980773926,0|0|0,0:0|0:0|0:0,0:0:0:0:
73,97,209982,2,0,P|87:61|59:19,1,62.9999980773926,8|0,0:1|0:0,0:0:0:0:
132,140,210254,1,0,0:0:0:0:
150,135,210391,5,0,1:0:0:0:
347,198,210936,6,0,L|376:208,2,18,0|0|0,3:0|3:0|3:0,0:0:0:0:
285,237,211209,1,0,3:0:0:0:
285,237,211277,1,0,3:0:0:0:
285,237,211345,2,0,L|293:287,1,36,8|0,3:1|1:0,0:0:0:0:
292,286,211618,1,4,1:0:0:0:
252,353,211754,6,0,P|167:343|142:344,1,90,0|0,0:0|0:0,0:0:0:0:
103,298,212164,2,0,P|83:260|121:214,1,90,8|0,0:1|0:0,0:0:0:0:
103,221,212573,2,0,L|161:212,2,45,0|0|0,1:0|0:0|0:0,0:0:0:0:
42,168,212981,1,0,1:0:0:0:
133,27,213254,1,8,0:1:0:0:
194,72,213391,2,0,P|190:109|187:133,1,45,0|2,0:0|0:0,0:0:0:0:
156,184,213664,2,0,L|159:217,2,22.5,2|0|0,0:0|0:0|1:0,0:0:0:0:
229,176,213936,6,0,P|254:196|316:182,1,90,0|0,0:0|0:0,0:0:0:0:
373,151,214345,2,0,L|385:249,1,90,8|0,0:1|0:0,0:0:0:0:
383,240,214754,2,0,B|431:232|431:232|467:254,1,90,0|0,1:0|0:0,0:0:0:0:
508,180,215163,5,2,1:2:0:0:
461,125,215299,1,2,0:0:0:0:
489,58,215436,1,8,0:1:0:0:
373,151,215709,2,0,P|344:149|321:137,2,45,0|0|0,0:0|0:0|1:0,0:0:0:0:
364,78,216118,6,0,B|351:20|351:20|318:2,1,90,0|0,0:0|0:0,0:0:0:0:
286,67,216527,2,0,B|232:71|255:96|198:99,1,90,8|0,0:1|0:0,0:0:0:0:
203,98,216936,2,0,P|218:62|189:15,1,90,0|0,1:0|0:0,0:0:0:0:
121,8,217345,1,0,1:0:0:0:
158,160,217618,2,0,P|151:197|147:221,1,45,8|0,0:1|0:0,0:0:0:0:
85,143,217890,2,0,P|78:180|74:204,1,45,2|2,0:0|0:0,0:0:0:0:
12,227,218163,1,0,1:0:0:0:
75,313,218299,6,0,P|110:280|164:292,1,90,0|0,0:0|0:0,0:0:0:0:
261,343,218709,2,0,L|162:355,1,90,8|0,0:1|0:0,0:0:0:0:
149,282,219118,1,0,1:0:0:0:
149,282,219254,6,0,P|109:243|111:192,2,90,0|0|8,0:0|1:0|0:1,0:0:0:0:
185,223,219936,1,0,3:0:0:0:
185,223,220004,1,0,3:0:0:0:
185,223,220073,2,0,P|181:181|175:158,1,45,0|0,1:0|1:0,0:0:0:0:
125,134,220345,6,0,P|86:108|87:54,1,90,4|0,1:0|0:0,0:0:0:0:
206,21,220891,2,0,P|199:68|193:113,1,90,8|0,0:1|0:0,0:0:0:0:
249,158,221299,1,0,1:0:0:0:
249,158,221436,6,0,L|305:168,1,45,0|0,0:0|0:0,0:0:0:0:
359,131,221709,2,0,L|415:141,1,45,0|0,1:0|0:0,0:0:0:0:
318,67,221981,1,8,0:1:0:0:
359,131,222118,2,0,B|376:170|356:205|356:205|349:223,1,90,0|2,0:0|0:0,0:0:0:0:
394,281,222527,6,0,L|292:300,1,90,0|0,1:0|0:0,0:0:0:0:
415,367,223072,1,8,0:1:0:0:
487,376,223208,1,0,0:0:0:0:
499,303,223345,2,0,L|493:252,1,45,0|0,0:0|1:0,0:0:0:0:
437,207,223618,6,0,P|429:168|469:120,1,90,0|0,0:0|1:0,0:0:0:0:
326,209,224163,1,8,0:1:0:0:
274,158,224299,2,0,P|220:172|214:175,2,45,0|2|0,0:0|0:0|0:0,0:0:0:0:
310,93,224709,6,0,B|331:51|331:51|299:20,1,90,0|0,1:0|0:0,0:0:0:0:
166,124,225254,2,0,P|153:163|146:219,1,90,8|0,0:1|0:0,0:0:0:0:
203,255,225663,1,0,1:0:0:0:
203,255,225799,6,0,P|217:296|215:309,1,45,0|0,0:0|0:0,0:0:0:0:
145,297,226072,2,0,L|135:342,1,45,0|0,1:0|0:0,0:0:0:0:
55,234,226345,1,8,0:1:0:0:
126,251,226482,2,0,L|136:350,1,90,0|2,0:0|0:0,0:0:0:0:
72,379,226891,6,0,P|26:382|1:330,1,90,0|0,1:0|0:0,0:0:0:0:
55,234,227436,1,8,0:1:0:0:
126,251,227572,1,0,0:0:0:0:
198,267,227709,2,0,P|232:261|247:260,1,45,0|0,0:0|1:0,0:0:0:0:
304,222,227982,6,0,P|293:259|321:311,1,90,0|0,0:0|1:0,0:0:0:0:
395,290,228390,1,0,3:0:0:0:
395,290,228458,1,0,3:0:0:0:
395,290,228527,2,0,L|484:305,1,80.9999975280763,8|8,3:1|0:1,0:0:0:0:
488,307,229072,1,4,1:0:0:0:
