osu file format v14

[General]
AudioFilename: audio.mp3
AudioLeadIn: 0
PreviewTime: 71435
Countdown: 0
SampleSet: Soft
StackLeniency: 0.1
Mode: 0
LetterboxInBreaks: 0
WidescreenStoryboard: 0

[Editor]
Bookmarks: 2162,10889,19617,37071,54526,63253,71980,80708,89435,106889,124344,141799,150526,159253,167980,176708,178889,185435,194162,211617,220344,229071,237799
DistanceSpacing: 1.1
BeatDivisor: 8
GridSize: 4
TimelineZoom: 0.9999998

[Metadata]
Title:Biscuit Funk
TitleUnicode:Biscuit Funk
Artist:Snail's House
ArtistUnicode:Snail's House
Creator:VoiceCore
Version:Expert
Source:
Tags:-Nanako- Calvaria Ujico* snails Funk future bass electronic instrumental
BeatmapID:3582592
BeatmapSetID:1751172

[Difficulty]
HPDrainRate:4.8
CircleSize:4
OverallDifficulty:8.8
ApproachRate:9.4
SliderMultiplier:2
SliderTickRate:1

[Events]
//Background and Video events
0,0,"bg.jpg",0,0
//Break Periods
2,142000,149987
//Storyboard Layer 0 (Background)
//Storyboard Layer 1 (Fail)
//Storyboard Layer 2 (Pass)
//Storyboard Layer 3 (Foreground)
//Storyboard Layer 4 (Overlay)
//Storyboard Sound Samples

[TimingPoints]
-17,545.454545454546,4,2,2,50,1,0
1619,-166.666666666667,4,2,2,50,0,0
2164,545.454545454546,4,2,2,60,1,0
2164,-83.3333333333333,4,2,2,60,0,0
2504,-83.3333333333333,4,2,2,5,0,0
2573,-83.3333333333333,4,2,2,60,0,0
4686,-83.3333333333333,4,2,2,5,0,0
4754,-83.3333333333333,4,2,2,60,0,0
6868,-83.3333333333333,4,2,2,5,0,0
6936,-83.3333333333333,4,2,2,60,0,0
9050,-83.3333333333333,4,2,2,5,0,0
9118,-83.3333333333333,4,2,2,60,0,0
10004,-83.3333333333333,4,2,2,5,0,0
10073,-83.3333333333333,4,2,2,60,0,0
11095,-83.3333333333333,4,2,2,5,0,0
11164,-83.3333333333333,4,2,2,60,0,0
11641,-83.3333333333333,4,2,2,5,0,0
11709,-83.3333333333333,4,2,2,60,0,0
12186,-83.3333333333333,4,2,2,5,0,0
12254,-83.3333333333333,4,2,2,60,0,0
13277,-83.3333333333333,4,2,2,5,0,0
13345,-83.3333333333333,4,2,2,60,0,0
15459,-83.3333333333333,4,2,2,5,0,0
15527,-83.3333333333333,4,2,2,60,0,0
16004,-83.3333333333333,4,2,2,5,0,0
16073,-83.3333333333333,4,2,2,60,0,0
16550,-83.3333333333333,4,2,2,5,0,0
16618,-83.3333333333333,4,2,2,60,0,0
17641,-83.3333333333333,4,2,2,5,0,0
17709,-83.3333333333333,4,2,2,60,0,0
19209,-250,4,2,2,50,0,0
19618,-83.3333333333333,4,2,2,60,0,0
19959,-83.3333333333333,4,2,2,5,0,0
20027,-83.3333333333333,4,2,2,60,0,0
20777,-83.3333333333333,4,2,2,5,0,0
20845,-83.3333333333333,4,2,2,60,0,0
22141,-83.3333333333333,4,2,2,5,0,0
22209,-83.3333333333333,4,2,2,60,0,0
22959,-83.3333333333333,4,2,2,5,0,0
23027,-83.3333333333333,4,2,2,60,0,0
24323,-83.3333333333333,4,2,2,5,0,0
24391,-83.3333333333333,4,2,2,60,0,0
25141,-83.3333333333333,4,2,2,5,0,0
25209,-83.3333333333333,4,2,2,60,0,0
26504,-83.3333333333333,4,2,2,5,0,0
26573,-83.3333333333333,4,2,2,60,0,0
28686,-83.3333333333333,4,2,2,5,0,0
28754,-83.3333333333333,4,2,2,60,0,0
29504,-83.3333333333333,4,2,2,5,0,0
29573,-83.3333333333333,4,2,2,60,0,0
29982,-125,4,2,2,50,0,0
30527,-83.3333333333333,4,2,2,60,0,0
30868,-83.3333333333333,4,2,2,5,0,0
30936,-83.3333333333333,4,2,2,60,0,0
31686,-83.3333333333333,4,2,2,5,0,0
31754,-83.3333333333333,4,2,2,60,0,0
32164,-125,4,2,2,60,0,0
32436,-62.5,4,2,2,50,0,0
32709,-83.3333333333333,4,2,2,60,0,0
33050,-83.3333333333333,4,2,2,5,0,0
33118,-83.3333333333333,4,2,2,60,0,0
33868,-83.3333333333333,4,2,2,5,0,0
33936,-83.3333333333333,4,2,2,60,0,0
35232,-83.3333333333333,4,2,2,5,0,0
35300,-83.3333333333333,4,2,2,60,0,0
36459,-83.3333333333333,4,2,2,5,0,0
36527,-83.3333333333333,4,2,2,60,0,0
37073,-125,4,2,2,50,0,0
54527,-100,4,2,2,60,0,0
71982,-66.6666666666667,4,2,2,70,0,1
73550,-66.6666666666667,4,2,2,5,0,1
73618,-66.6666666666667,4,2,2,70,0,1
79823,-66.6666666666667,4,2,2,5,0,1
79891,-66.6666666666667,4,2,2,70,0,1
81459,-66.6666666666667,4,2,2,5,0,1
81527,-66.6666666666667,4,2,2,70,0,1
82550,-66.6666666666667,4,2,2,5,0,1
82618,-66.6666666666667,4,2,2,70,0,1
84732,-66.6666666666667,4,2,2,5,0,1
84800,-66.6666666666667,4,2,2,70,0,1
85823,-66.6666666666667,4,2,2,5,0,1
85891,-66.6666666666667,4,2,2,70,0,1
86914,-66.6666666666667,4,2,2,5,0,1
86982,-66.6666666666667,4,2,2,70,0,1
88891,-166.666666666667,4,2,2,70,0,0
89436,-66.6666666666667,4,2,2,70,0,1
90186,-66.6666666666667,4,2,2,5,0,1
90254,-66.6666666666667,4,2,2,70,0,1
92095,-66.6666666666667,4,2,2,5,0,1
92164,-66.6666666666667,4,2,2,70,0,1
92777,-66.6666666666667,4,2,2,5,0,1
92845,-66.6666666666667,4,2,2,70,0,1
93459,-66.6666666666667,4,2,2,5,0,1
93527,-66.6666666666667,4,2,2,70,0,1
96459,-66.6666666666667,4,2,2,5,0,1
96527,-66.6666666666667,4,2,2,70,0,1
99732,-66.6666666666667,4,2,2,5,0,1
99800,-66.6666666666667,4,2,2,70,0,1
101095,-66.6666666666667,4,2,2,5,0,1
101164,-66.6666666666667,4,2,2,70,0,1
104095,-66.6666666666667,4,2,2,5,0,1
104164,-66.6666666666667,4,2,2,70,0,1
105254,-100,4,2,2,70,0,1
105664,-166.666666666667,4,2,2,60,0,0
106209,-100,4,2,2,60,0,0
106891,-83.3333333333333,4,2,2,60,0,0
107232,-83.3333333333333,4,2,2,5,0,0
107300,-83.3333333333333,4,2,2,60,0,0
108050,-83.3333333333333,4,2,2,5,0,0
108118,-83.3333333333333,4,2,2,60,0,0
109414,-83.3333333333333,4,2,2,5,0,0
109482,-83.3333333333333,4,2,2,60,0,0
110232,-83.3333333333333,4,2,2,5,0,0
110300,-83.3333333333333,4,2,2,60,0,0
111595,-83.3333333333333,4,2,2,5,0,0
111664,-83.3333333333333,4,2,2,60,0,0
112414,-83.3333333333333,4,2,2,5,0,0
112482,-83.3333333333333,4,2,2,60,0,0
113777,-83.3333333333333,4,2,2,5,0,0
113845,-83.3333333333333,4,2,2,60,0,0
115959,-83.3333333333333,4,2,2,5,0,0
116027,-83.3333333333333,4,2,2,60,0,0
116777,-83.3333333333333,4,2,2,5,0,0
116845,-83.3333333333333,4,2,2,60,0,0
118141,-83.3333333333333,4,2,2,5,0,0
118209,-83.3333333333333,4,2,2,60,0,0
118959,-83.3333333333333,4,2,2,5,0,0
119027,-83.3333333333333,4,2,2,60,0,0
119436,-125,4,2,2,60,0,0
119709,-62.5,4,2,2,60,0,0
119982,-83.3333333333333,4,2,2,60,0,0
120323,-83.3333333333333,4,2,2,5,0,0
120391,-83.3333333333333,4,2,2,60,0,0
121141,-83.3333333333333,4,2,2,5,0,0
121209,-83.3333333333333,4,2,2,60,0,0
122504,-83.3333333333333,4,2,2,5,0,0
122573,-83.3333333333333,4,2,2,60,0,0
123732,-83.3333333333333,4,2,2,5,0,0
123800,-83.3333333333333,4,2,2,60,0,0
124345,-125,4,2,2,50,0,0
150527,-125,4,2,2,50,0,0
159254,-100,4,2,2,50,0,0
167982,-100,4,2,2,60,0,0
178891,-66.6666666666667,4,2,2,70,0,1
184550,-66.6666666666667,4,2,2,5,0,1
184618,-66.6666666666667,4,2,2,70,0,1
186186,-66.6666666666667,4,2,2,5,0,1
186254,-66.6666666666667,4,2,2,70,0,1
187277,-66.6666666666667,4,2,2,5,0,1
187345,-66.6666666666667,4,2,2,70,0,1
189459,-66.6666666666667,4,2,2,5,0,1
189527,-66.6666666666667,4,2,2,70,0,1
190550,-66.6666666666667,4,2,2,5,0,1
190618,-66.6666666666667,4,2,2,70,0,1
191641,-66.6666666666667,4,2,2,5,0,1
191709,-66.6666666666667,4,2,2,70,0,1
193618,-166.666666666667,4,2,2,70,0,0
194164,-66.6666666666667,4,2,2,70,0,1
194914,-66.6666666666667,4,2,2,5,0,1
194982,-66.6666666666667,4,2,2,70,0,1
196823,-66.6666666666667,4,2,2,5,0,1
196891,-66.6666666666667,4,2,2,70,0,1
197504,-66.6666666666667,4,2,2,5,0,1
197573,-66.6666666666667,4,2,2,70,0,1
198186,-66.6666666666667,4,2,2,5,0,1
198254,-66.6666666666667,4,2,2,70,0,1
201186,-66.6666666666667,4,2,2,5,0,1
201254,-66.6666666666667,4,2,2,70,0,1
204459,-66.6666666666667,4,2,2,5,0,1
204527,-66.6666666666667,4,2,2,70,0,1
205823,-66.6666666666667,4,2,2,5,0,1
205891,-66.6666666666667,4,2,2,70,0,1
208823,-66.6666666666667,4,2,2,5,0,1
208891,-66.6666666666667,4,2,2,70,0,1
209982,-100,4,2,2,70,0,1
210391,-166.666666666667,4,2,2,70,0,0
210936,-100,4,2,2,70,0,0
211618,-83.3333333333333,4,2,2,60,0,0
211959,-83.3333333333333,4,2,2,5,0,0
212027,-83.3333333333333,4,2,2,60,0,0
214141,-83.3333333333333,4,2,2,5,0,0
214209,-83.3333333333333,4,2,2,60,0,0
216323,-83.3333333333333,4,2,2,5,0,0
216391,-83.3333333333333,4,2,2,60,0,0
218504,-83.3333333333333,4,2,2,5,0,0
218573,-83.3333333333333,4,2,2,60,0,0
219459,-83.3333333333333,4,2,2,5,0,0
219527,-83.3333333333333,4,2,2,60,0,0
220550,-83.3333333333333,4,2,2,5,0,0
220618,-83.3333333333333,4,2,2,60,0,0
221095,-83.3333333333333,4,2,2,5,0,0
221164,-83.3333333333333,4,2,2,60,0,0
221641,-83.3333333333333,4,2,2,5,0,0
221709,-83.3333333333333,4,2,2,60,0,0
222732,-83.3333333333333,4,2,2,5,0,0
222800,-83.3333333333333,4,2,2,60,0,0
224914,-83.3333333333333,4,2,2,5,0,0
224982,-83.3333333333333,4,2,2,60,0,0
225459,-83.3333333333333,4,2,2,5,0,0
225527,-83.3333333333333,4,2,2,60,0,0
226004,-83.3333333333333,4,2,2,5,0,0
226073,-83.3333333333333,4,2,2,60,0,0
227095,-83.3333333333333,4,2,2,5,0,0
227164,-83.3333333333333,4,2,2,60,0,0
228664,-250,4,2,2,60,0,0

[Colours]
Combo1 : 128,255,128
Combo2 : 128,255,255
Combo3 : 255,166,210
Combo4 : 252,245,171

[HitObjects]
225,208,1483,5,0,3:0:0:0:
233,198,1551,1,0,3:0:0:0:
231,185,1619,2,0,P|197:158|147:171,1,89.9999972534181,8|0,3:2|1:0,0:0:0:0:
102,224,2164,5,4,1:0:0:0:
232,289,2300,2,0,P|201:339|189:387,1,89.9999972534181
198,378,2573,1,0,0:0:0:0:
309,263,2709,2,0,P|326:292|361:299,2,59.9999981689454,8|0|0,0:1|0:0|0:0,0:0:0:0:
414,105,3118,6,0,P|387:164|374:218,1,119.999996337891,0|0,1:0|0:0,0:0:0:0:
497,370,3527,2,0,P|487:325|472:301,1,59.9999981689454,0|0,1:0|0:0,0:0:0:0:
374,217,3800,5,8,0:1:0:0:
400,295,3936,1,0,0:0:0:0:
482,141,4073,5,2,0:0:0:0:
467,144,4141,1,2,0:0:0:0:
452,147,4209,1,2,0:0:0:0:
438,150,4277,1,2,0:0:0:0:
423,153,4345,5,0,1:0:0:0:
369,20,4482,2,0,P|426:15|450:53,1,89.9999972534181
447,47,4754,1,0,0:0:0:0:
314,80,4891,2,0,P|282:78|251:72,2,59.9999981689454,8|0|0,0:1|0:0|0:0,0:0:0:0:
221,145,5300,6,0,P|186:113|183:42,1,119.999996337891,0|0,1:0|0:0,0:0:0:0:
323,189,5709,6,0,L|316:231,1,29.9999990844727,2|0,1:2|0:0,0:0:0:0:
227,321,5845,2,0,L|218:276,1,29.9999990844727,2|0,0:0|0:0,0:0:0:0:
306,294,5982,5,8,0:1:0:0:
294,371,6118,1,0,0:0:0:0:
218,278,6254,2,0,P|222:248|232:214,1,59.9999981689454
149,197,6527,5,0,1:0:0:0:
125,349,6664,2,0,P|111:302|78:251,1,89.9999972534181
80,260,6936,1,0,0:0:0:0:
6,375,7073,2,0,P|36:358|40:323,2,59.9999981689454,8|0|0,0:1|0:0|0:0,0:0:0:0:
9,215,7482,6,0,P|80:174|130:192,1,119.999996337891,0|0,1:0|0:0,0:0:0:0:
306,118,7891,2,0,P|264:117|242:108,1,59.9999981689454,0|0,1:0|0:0,0:0:0:0:
72,42,8164,5,8,0:1:0:0:
167,9,8300,1,0,0:0:0:0:
238,112,8436,2,0,L|181:116,1,29.9999990844727,2|0,0:0|0:0,0:0:0:0:
248,127,8573,2,0,L|305:123,1,29.9999990844727,2|0,0:0|0:0,0:0:0:0:
316,55,8709,5,0,1:0:0:0:
174,193,8845,2,0,P|141:179|75:174,1,89.9999972534181
77,179,9118,1,0,0:0:0:0:
229,249,9254,2,0,P|264:248|292:231,2,59.9999981689454,8|0|0,0:1|0:0|0:0,0:0:0:0:
108,359,9664,5,0,1:0:0:0:
108,359,9800,2,0,P|85:309|116:270,1,89.9999972534181
108,273,10073,2,0,P|75:288|41:286,1,59.9999981689454,0|0,1:0|0:0,0:0:0:0:
108,180,10345,5,8,0:1:0:0:
181,328,10482,1,0,3:0:0:0:
210,328,10550,1,0,3:0:0:0:
231,307,10618,2,0,P|234:264|216:232,1,59.9999981689454,0|0,3:0|1:0,0:0:0:0:
61,107,10891,6,0,P|32:131|19:193,1,89.9999972534181,4|0,1:0|0:0,0:0:0:0:
23,190,11164,2,0,L|92:179,1,59.9999981689454
196,64,11436,2,0,P|236:68|311:78,1,89.9999972534181,8|0,0:1|0:0,0:0:0:0:
293,83,11709,5,0,0:0:0:0:
160,169,11845,1,0,1:0:0:0:
107,103,11982,2,0,P|91:57|89:15,1,89.9999972534181
100,15,12254,5,0,1:0:0:0:
196,64,12391,1,0,0:0:0:0:
125,99,12527,5,8,0:1:0:0:
268,30,12664,1,0,0:0:0:0:
248,159,12800,5,2,0:0:0:0:
251,173,12868,1,2,0:0:0:0:
254,188,12936,1,2,0:0:0:0:
258,202,13004,1,2,0:0:0:0:
261,217,13073,6,0,P|272:155|283:115,1,89.9999972534181,0|0,1:0|0:0,0:0:0:0:
289,123,13345,2,0,P|329:116|345:92,1,59.9999981689454
363,25,13618,5,8,0:1:0:0:
400,157,13754,1,0,0:0:0:0:
495,195,13891,1,0,0:0:0:0:
495,195,14027,6,0,P|493:165|466:130,2,59.9999981689454,0|0|0,1:0|0:0|0:0,0:0:0:0:
384,288,14436,2,0,P|393:243|409:227,1,59.9999981689454,0|0,1:0|0:0,0:0:0:0:
503,375,14709,2,0,L|437:365,1,59.9999981689454,8|2,0:1|0:1,0:1:0:0:
432,371,14914,1,2,0:0:0:0:
421,376,14982,2,0,L|355:366,1,59.9999981689454,2|0,0:0|0:0,0:0:0:0:
401,233,15254,6,0,P|344:227|310:259,1,89.9999972534181,0|0,1:0|0:0,0:0:0:0:
315,255,15527,2,0,P|314:296|296:311,1,59.9999981689454
225,128,15800,2,0,L|243:233,1,89.9999972534181,8|0,0:1|0:0,0:0:0:0:
232,226,16073,5,0,0:0:0:0:
117,347,16209,1,0,1:0:0:0:
61,285,16345,2,0,P|110:263|164:278,1,89.9999972534181
154,275,16618,5,0,1:0:0:0:
232,226,16754,1,0,0:0:0:0:
209,336,16891,5,8,0:1:0:0:
102,215,17027,1,0,0:0:0:0:
185,131,17164,2,0,L|177:181,1,29.9999990844727,2|0,0:0|0:0,0:0:0:0:
176,119,17300,2,0,L|184:69,1,29.9999990844727,2|0,0:0|0:0,0:0:0:0:
52,18,17436,6,0,P|25:49|33:121,1,89.9999972534181,0|0,1:0|0:0,0:0:0:0:
26,107,17709,2,0,P|53:137|79:170,1,59.9999981689454
32,219,17982,5,8,0:1:0:0:
103,80,18118,1,0,0:0:0:0:
170,142,18254,1,0,0:0:0:0:
170,142,18391,6,0,P|200:157|231:155,2,59.9999981689454,0|0|0,1:0|0:0|0:0,0:0:0:0:
148,6,18800,1,0,1:0:0:0:
215,83,18936,2,0,P|209:66|211:39,1,29.9999990844727,2|0,0:0|0:0,0:0:0:0:
287,2,19073,1,8,3:1:0:0:
287,2,19209,6,0,L|283:50,1,40,0|8,3:0|0:1,0:0:0:0:
318,172,19618,5,4,1:0:0:0:
389,29,19754,2,0,P|385:79|381:129,1,89.9999972534181
387,129,20027,1,0,0:0:0:0:
258,234,20164,2,0,P|246:216|236:173,2,59.9999981689454,8|0|0,0:1|0:0|0:0,0:0:0:0:
414,260,20573,6,0,P|339:272|305:296,1,89.9999972534181,0|0,1:0|0:0,0:0:0:0:
322,289,20845,2,0,L|318:329,1,29.9999990844727,0|0,1:0|0:0,0:0:0:0:
392,348,20982,2,0,P|430:371|466:371,1,59.9999981689454,0|0,1:0|0:0,0:0:0:0:
495,248,21254,5,8,0:1:0:0:
470,163,21391,1,0,0:0:0:0:
394,251,21527,5,2,0:0:0:0:
385,238,21595,1,2,0:0:0:0:
374,228,21663,1,2,0:0:0:0:
362,219,21731,1,2,0:0:0:0:
348,214,21799,5,0,1:0:0:0:
239,340,21936,2,0,P|200:346|138:356,1,89.9999972534181
141,362,22209,1,0,0:0:0:0:
12,257,22345,2,0,P|58:272|70:289,2,59.9999981689454,8|0|0,0:1|0:0|0:0,0:0:0:0:
189,189,22754,6,0,P|180:135|152:86,1,89.9999972534181,0|0,1:0|0:0,0:0:0:0:
153,104,23027,2,0,P|132:83|123:77,1,29.9999990844727,0|0,1:0|0:0,0:0:0:0:
84,144,23164,2,0,P|38:158|5:158,1,59.9999981689454,0|0,1:0|0:0,0:0:0:0:
14,40,23436,5,8,0:1:0:0:
109,8,23573,1,0,0:0:0:0:
153,104,23709,1,0,0:0:0:0:
153,104,23845,1,0,0:0:0:0:
235,73,23982,5,0,1:0:0:0:
358,11,24118,2,0,P|406:28|448:36,1,89.9999972534181
456,35,24391,1,0,0:0:0:0:
314,102,24527,2,0,P|292:137|284:163,2,59.9999981689454,8|0|0,0:1|0:0|0:0,0:0:0:0:
454,194,24936,6,0,P|479:250|490:299,1,89.9999972534181,0|0,1:0|0:0,0:0:0:0:
476,282,25209,2,0,P|469:308|460:318,1,29.9999990844727,0|0,1:0|0:0,0:0:0:0:
391,312,25345,2,0,P|385:278|404:245,1,59.9999981689454,0|0,1:0|0:0,0:0:0:0:
454,194,25618,5,8,0:1:0:0:
385,116,25754,1,0,0:0:0:0:
306,246,25891,1,0,0:0:0:0:
306,246,26027,1,0,0:0:0:0:
394,255,26164,5,0,1:0:0:0:
470,117,26300,2,0,P|463:72|454:26,1,89.9999972534181
444,21,26573,1,0,0:0:0:0:
302,110,26709,2,0,P|277:102|232:91,2,59.9999981689454,8|0|0,0:1|0:0|0:0,0:0:0:0:
170,192,27118,5,0,1:0:0:0:
105,138,27254,1,0,0:0:0:0:
179,27,27391,1,0,1:0:0:0:
179,27,27527,2,0,L|169:90,1,59.9999981689454,0|0,1:0|0:0,0:0:0:0:
170,192,27800,6,0,P|192:241|103:306,1,179.999994506836,8|0,0:1|0:0,0:0:0:0:
28,256,28345,5,4,1:0:0:0:
170,192,28482,2,0,P|240:202|269:206,1,89.9999972534181
270,207,28754,1,0,0:0:0:0:
369,101,28891,2,0,P|362:66|338:50,2,59.9999981689454,8|0|0,0:1|0:0|0:0,0:0:0:0:
328,265,29300,6,0,P|330:316|359:359,1,89.9999972534181,0|0,1:0|0:0,0:0:0:0:
359,356,29573,2,0,P|337:344|311:347,1,29.9999990844727,0|0,1:0|0:0,0:0:0:0:
254,335,29709,2,0,P|213:339|183:364,1,59.9999981689454,0|0,1:0|0:0,0:0:0:0:
30,373,29982,6,0,L|24:328,2,40,8|2|0,0:1|0:1|0:0,0:0:0:0:
30,373,30527,5,0,1:0:0:0:
87,239,30664,2,0,P|102:191|56:156,1,89.9999972534181
68,158,30936,1,0,0:0:0:0:
8,55,31073,2,0,P|12:15|41:4,2,59.9999981689454,8|0|0,0:1|0:0|0:0,0:0:0:0:
172,136,31482,6,0,P|233:147|278:153,1,89.9999972534181,0|0,1:0|0:0,0:0:0:0:
264,159,31754,2,0,L|296:153,1,29.9999990844727,0|0,1:0|0:0,0:0:0:0:
326,86,31891,2,0,P|290:72|248:89,1,59.9999981689454,0|0,1:0|0:0,0:0:0:0:
397,266,32164,6,0,L|392:215,1,40,8|0,0:1|0:0,0:0:0:0:
315,235,32436,6,0,L|320:286,1,40,2|0,0:0|0:0,0:0:0:0:
397,266,32709,5,0,1:0:0:0:
504,121,32845,2,0,P|494:181|456:193,1,89.9999972534181
460,190,33118,1,0,0:0:0:0:
352,96,33254,2,0,P|336:55|329:16,2,59.9999981689454,8|0|0,0:1|0:0|0:0,0:0:0:0:
207,46,33664,6,0,P|172:32|119:23,1,89.9999972534181,0|0,1:0|0:0,0:0:0:0:
110,35,33936,2,0,P|74:53|66:52,1,29.9999990844727,0|0,1:0|0:0,0:0:0:0:
22,98,34073,2,0,P|8:73|0:37,1,59.9999981689454,0|0,1:0|0:0,0:0:0:0:
146,124,34345,5,8,0:1:0:0:
175,229,34482,1,0,0:0:0:0:
97,289,34618,1,0,0:0:0:0:
97,289,34754,1,0,0:0:0:0:
11,279,34891,5,0,1:0:0:0:
175,229,35027,2,0,B|236:234|190:259|277:273,1,89.9999972534181
264,264,35300,1,0,0:0:0:0:
325,138,35436,2,0,P|296:149|280:192,2,59.9999981689454,8|0|0,0:1|0:0|0:0,0:0:0:0:
373,280,35845,5,0,1:0:0:0:
373,280,35982,2,0,P|360:232|347:211,1,59.9999981689454
434,377,36254,2,0,P|441:336|482:290,1,89.9999972534181,0|0,1:0|0:0,0:0:0:0:
481,299,36527,5,8,0:1:0:0:
321,353,36664,1,0,3:0:0:0:
291,351,36732,1,0,3:0:0:0:
265,365,36800,2,0,L|200:359,1,59.9999981689454,0|0,3:0|1:0,0:0:0:0:
29,339,37073,5,4,1:0:0:0:
29,339,37209,2,0,B|35:317|35:317|17:294,2,40,2|0|2,0:0|0:0|0:0,0:0:0:0:
99,270,37618,2,0,B|116:308|116:308|110:348,1,80,10|0,0:0|0:0,0:0:0:0:
152,212,38027,2,0,L|234:226,1,80,2|0,0:0|0:0,0:0:0:0:
329,168,38436,5,2,0:0:0:0:
329,168,38573,2,0,P|301:169|276:182,1,40,2|8,0:0|0:0,0:0:0:0:
283,289,38845,1,2,0:0:0:0:
359,310,38982,1,0,0:0:0:0:
283,289,39118,6,0,B|362:280|319:247|396:238,1,120
352,168,39664,1,0,0:0:0:0:
352,168,39800,2,0,P|367:215|405:227,1,80,10|0,0:0|0:0,0:0:0:0:
457,180,40209,2,0,P|442:133|404:121,1,80,2|0,0:0|0:0,0:0:0:0:
347,22,40618,6,0,B|317:27|317:27|312:34|312:34|257:44,2,80,10|8|0,0:0|0:0|0:0,0:0:0:0:
428,42,41300,2,0,L|478:32,1,40
416,121,41573,5,2,0:0:0:0:
416,121,41709,2,0,P|403:143|400:162,1,40
440,226,41982,1,10,0:0:0:0:
323,138,42254,1,2,0:0:0:0:
323,138,42391,2,0,P|278:152|228:157,1,80,2|0,0:0|0:0,0:0:0:0:
163,142,42800,5,2,0:0:0:0:
92,91,42936,1,0,0:0:0:0:
142,21,43073,1,8,0:0:0:0:
211,69,43209,2,2,L|233:64,2,20
163,142,43482,6,0,P|86:147|35:169,1,120,2|0,0:0|0:0,0:0:0:0:
60,240,44027,1,2,0:0:0:0:
60,240,44164,2,0,P|137:235|188:213,1,120,10|0,0:0|0:0,0:0:0:0:
176,219,44709,2,0,P|157:243|149:267,1,40
243,325,44982,6,0,L|248:370,1,40,8|0,0:0|0:0,0:0:0:0:
294,226,45254,2,0,L|299:271,2,40,8|0|0,0:0|0:0|0:0,0:0:0:0:
346,157,45664,5,0,0:0:0:0:
306,232,45800,1,0,0:0:0:0:
346,157,45936,2,0,P|385:155|419:176,1,80,2|2,0:0|0:0,0:0:0:0:
458,246,46345,2,0,L|440:333,1,80,10|0,0:0|0:0,0:0:0:0:
418,175,46754,2,0,P|417:143|448:100,1,80,2|0,0:0|0:0,0:0:0:0:
496,43,47164,5,2,0:0:0:0:
496,43,47300,1,0,0:0:0:0:
442,103,47436,1,8,0:0:0:0:
355,52,47573,2,0,P|351:29|346:3,2,40
321,129,47982,5,0,0:0:0:0:
321,129,48118,2,0,P|270:137|240:145,1,80,2|0,0:0|0:0,0:0:0:0:
202,213,48527,1,10,0:0:0:0:
336,292,48800,1,2,0:0:0:0:
336,292,48936,2,0,P|320:331|306:379,1,80,2|0,0:0|0:0,0:0:0:0:
296,215,49345,6,0,L|287:172,1,40,8|0,0:0|0:0,0:0:0:0:
233,338,49618,2,0,L|224:295,1,40,8|0,0:0|0:0,0:0:0:0:
132,331,49891,1,2,0:0:0:0:
101,211,50027,1,2,0:0:0:0:
198,151,50164,6,0,P|188:193|174:244,1,80,2|0,0:0|0:0,0:0:0:0:
101,211,50573,1,0,0:0:0:0:
101,211,50709,2,0,P|111:169|125:118,1,80,10|0,0:0|0:0,0:0:0:0:
74,69,51118,2,0,P|58:47|38:33,2,40,2|0|0,0:0|0:0|0:0,0:0:0:0:
140,25,51527,2,0,P|177:33|225:1,1,80,2|8,0:0|0:0,0:0:0:0:
204,114,51936,5,2,0:0:0:0:
293,158,52073,1,0,0:0:0:0:
361,85,52209,1,0,0:0:0:0:
310,14,52345,2,0,L|219:28,1,80,2|0,0:0|0:0,0:0:0:0:
361,85,52754,5,0,0:0:0:0:
361,85,52891,2,0,L|445:93,1,80,10|0,0:0|0:0,0:0:0:0:
382,175,53300,2,0,P|358:200|341:248,1,80,2|0,0:0|0:0,0:0:0:0:
508,287,53709,6,0,P|476:270|461:271,1,40,8|0,0:0|0:0,0:0:0:0:
389,304,53982,2,0,L|510:286,1,120,8|0,0:0|0:0,0:0:0:0:
341,241,54527,6,0,P|299:223|234:227,1,100,0|0,3:0|0:0,0:0:0:0:
184,363,54936,1,0,0:0:0:0:
184,363,55073,2,0,B|207:316|207:316|179:265,1,100,8|0,3:2|0:0,0:0:0:0:
12,210,55482,6,0,P|1:171|37:118,1,100,0|0,3:0|0:0,0:0:0:0:
95,245,55891,1,0,3:0:0:0:
95,245,56027,1,0,0:0:0:0:
2,360,56164,2,0,P|55:338|66:338,1,50,8|0,3:2|0:0,0:0:0:0:
190,340,56436,6,0,P|224:365|284:364,2,100,0|0|0,0:0|3:0|0:0,0:0:0:0:
286,209,57118,1,0,0:0:0:0:
286,209,57254,2,0,B|331:182|331:182|389:196,1,100,8|0,3:2|0:0,0:0:0:0:
254,291,57664,6,0,L|261:182,1,100,0|0,3:0|0:0,0:0:0:0:
254,183,58004,1,0,0:0:0:0:
247,174,58073,2,0,L|242:119,1,50,8|0,3:2|0:0,0:0:0:0:
319,6,58345,5,8,3:2:0:0:
313,84,58482,1,0,0:0:0:0:
247,38,58618,1,2,0:0:0:0:
234,34,58686,1,2,0:0:0:0:
222,31,58754,1,2,0:0:0:0:
210,30,58822,1,2,0:0:0:0:
197,29,58891,6,0,P|180:80|125:95,1,100,0|0,3:0|0:0,0:0:0:0:
6,192,59300,1,0,0:0:0:0:
6,192,59436,2,0,B|57:181|57:181|105:214,1,100,8|0,3:2|0:0,0:0:0:0:
230,306,59845,6,0,P|286:298|342:290,1,100,0|0,3:0|0:0,0:0:0:0:
394,189,60254,1,0,3:0:0:0:
394,189,60391,1,0,0:0:0:0:
431,313,60527,2,0,P|444:357|447:371,1,50,8|0,3:2|0:0,0:0:0:0:
329,245,60800,6,0,P|309:198|333:137,2,100,0|0|0,0:0|3:0|0:0,0:0:0:0:
387,89,61482,1,0,0:0:0:0:
387,89,61618,2,0,B|396:38|396:38|353:-1,1,100,8|0,3:2|0:0,0:0:0:0:
221,166,62027,2,0,L|325:151,1,100,0|0,3:0|0:0,0:0:0:0:
394,189,62436,6,0,L|426:193,1,25,8|0,3:2|0:0,0:0:0:0:
505,93,62573,2,0,L|473:101,1,25
447,263,62709,5,8,3:2:0:0:
512,218,62845,1,0,0:0:0:0:
512,218,62982,2,0,P|507:197|489:168,1,50
387,89,63254,5,0,1:0:0:0:
268,221,63391,2,0,P|270:247|276:272,1,50,2|0,0:0|0:0,0:0:0:0:
192,182,63664,2,0,P|187:208|186:234,1,50,2|8,0:0|3:2,0:0:0:0:
128,124,63936,5,2,0:0:0:0:
128,124,64073,1,0,0:0:0:0:
309,148,64209,2,0,P|302:115|291:80,1,50,2|0,1:2|0:0,0:0:0:0:
255,29,64482,5,2,0:0:0:0:
192,182,64618,2,0,P|187:208|186:234,1,50,0|2,1:0|0:0,0:0:0:0:
226,306,64891,5,8,3:2:0:0:
268,221,65027,1,2,0:0:0:0:
118,139,65164,1,0,0:0:0:0:
118,139,65300,1,0,0:0:0:0:
65,208,65436,5,0,1:0:0:0:
25,47,65573,2,0,P|15:16|3:-10,1,50
104,61,65845,2,0,P|102:28|97:0,1,50,2|8,0:0|3:2,0:0:0:0:
118,139,66118,5,2,0:0:0:0:
118,139,66254,1,0,0:0:0:0:
226,306,66391,2,0,P|266:299|290:287,1,50,2|0,1:2|0:0,0:0:0:0:
320,230,66664,6,0,P|317:209|313:201,1,25
384,281,66800,2,0,P|375:311|374:335,1,50,0|0,1:0|0:0,0:0:0:0:
454,353,67073,5,8,3:2:0:0:
498,182,67209,1,0,0:0:0:0:
396,121,67345,1,0,0:0:0:0:
396,121,67482,1,0,0:0:0:0:
332,184,67618,5,0,1:0:0:0:
332,184,67754,2,0,P|291:203|234:200,1,100,2|2,0:0|0:0,0:0:0:0:
246,90,68164,5,8,1:2:0:0:
246,90,68300,2,0,P|274:78|300:85,2,50,2|0|2,0:0|0:0|0:0,0:0:0:0:
249,289,68709,5,0,1:0:0:0:
249,289,68845,2,0,P|299:288|355:267,1,100,2|2,0:0|0:0,0:0:0:0:
355,26,69254,6,0,P|323:6|306:3,1,50,8|2,1:2|0:0,0:0:0:0:
198,28,69527,2,0,P|170:53|163:69,1,50
179,206,69800,6,0,L|113:198,1,50,0|0,1:0|0:0,0:0:0:0:
333,178,70073,2,0,L|399:186,1,50,0|0,1:0|0:0,0:0:0:0:
179,206,70345,5,0,1:0:0:0:
242,115,70482,1,0,1:0:0:0:
333,178,70618,1,0,1:0:0:0:
270,269,70755,1,0,1:0:0:0:
179,206,70891,1,0,1:0:0:0:
497,42,71300,6,0,L|501:4,2,25,0|0|8,3:0|3:0|3:1,3:0:0:0:
453,199,71573,5,0,1:0:0:0:
337,90,71709,1,0,0:0:0:0:
497,42,71845,1,8,3:1:0:0:
427,115,71982,5,4,1:0:0:0:
255,25,72118,2,0,B|204:17|170:56|204:54|173:91|110:78,1,150.000005722046,2|0,0:1|0:0,0:0:0:0:
37,57,72527,5,8,0:1:0:0:
256,103,72664,2,0,P|297:143|300:183,1,75.0000028610231
124,297,72936,6,0,P|131:252|165:211,1,75.0000028610231,2|0,1:0|0:0,0:0:0:0:
222,179,73209,1,0,0:0:0:0:
159,378,73345,2,0,P|219:360|284:359,1,112.500004291535,0|0,1:0|0:0,0:0:0:0:
283,361,73618,6,0,P|241:334|226:310,1,75.0000028610231,8|0,0:1|0:0,0:0:0:0:
378,181,73891,1,0,0:0:0:0:
404,306,74027,1,0,0:0:0:0:
308,278,74164,5,0,1:0:0:0:
462,181,74300,2,0,B|470:130|431:96|433:130|396:99|409:36,1,150.000005722046,2|0,0:1|0:0,0:0:0:0:
491,45,74709,5,10,0:1:0:0:
299,153,74845,1,0,0:0:0:0:
197,79,74982,1,0,0:0:0:0:
197,79,75118,2,0,P|155:57|122:57,1,75.0000028610231,2|0,1:0|0:0,0:0:0:0:
46,182,75391,5,0,0:0:0:0:
89,292,75527,1,0,1:0:0:0:
138,132,75664,1,0,0:0:0:0:
50,60,75800,6,0,L|5:64,2,37.5000014305115,8|0|2,0:1|0:0|0:0,0:0:0:0:
114,249,76073,5,2,0:0:0:0:
151,252,76141,1,2,0:0:0:0:
188,255,76209,1,2,0:0:0:0:
269,130,76345,6,0,B|321:123|360:154|322:156|371:191|426:174,1,150.000005722046,0|0,1:0|0:0,0:0:0:0:
471,284,76754,1,2,0:1:0:0:
398,97,76891,2,0,P|402:57|447:25,1,75.0000028610231,8|0,0:1|0:0,0:0:0:0:
472,202,77164,5,0,0:0:0:0:
278,123,77300,2,0,P|227:131|185:148,1,75.0000028610231,2|0,1:0|0:0,0:0:0:0:
340,202,77573,5,0,0:0:0:0:
286,333,77709,1,2,1:0:0:0:
114,265,77845,1,0,0:0:0:0:
308,48,77982,6,0,P|302:29|285:15,3,37.5000014305115,8|0|0|0,0:1|0:0|0:0|0:0,0:0:0:0:
278,123,78254,1,2,0:0:0:0:
246,141,78322,1,2,0:0:0:0:
210,135,78390,1,2,0:0:0:0:
185,107,78458,1,2,0:0:0:0:
184,71,78527,5,0,1:0:0:0:
289,17,78664,1,0,0:1:0:0:
244,260,78800,1,2,0:1:0:0:
331,378,78936,1,0,0:0:0:0:
331,378,79073,6,0,P|332:321|310:293,1,75.0000028610231,10|0,0:1|0:0,0:0:0:0:
125,183,79345,1,0,0:0:0:0:
125,183,79482,1,2,1:0:0:0:
243,345,79618,6,0,P|196:329|124:323,1,112.500004291535
122,332,79891,2,0,P|85:360|46:353,1,75.0000028610231,0|0,1:0|0:0,0:0:0:0:
0,166,80164,5,8,0:1:0:0:
184,249,80300,1,0,3:0:0:0:
188,263,80368,1,0,3:0:0:0:
192,277,80436,2,0,P|204:230|218:196,1,75.0000028610231,0|0,3:0|1:0,0:0:0:0:
375,80,80709,6,0,P|403:130|393:172,1,75.0000028610231,6|0,1:0|0:0,0:0:0:0:
271,289,80982,2,0,P|277:321|285:372,1,75.0000028610231
325,144,81254,2,0,P|291:117|218:115,1,112.500004291535,8|0,0:1|0:0,0:0:0:0:
214,121,81527,5,0,0:0:0:0:
345,252,81664,1,2,1:0:0:0:
467,179,81800,2,0,P|416:180|386:193,1,75.0000028610231
402,366,82073,5,0,1:0:0:0:
271,289,82209,1,2,0:1:0:0:
79,367,82345,2,0,P|31:341|33:278,1,112.500004291535,8|0,0:1|0:0,0:0:0:0:
19,279,82618,2,2,B|38:269|38:269|68:277,3,37.5000014305115
119,225,82891,6,0,L|109:141,1,75.0000028610231,0|0,1:0|0:1,0:0:0:0:
292,9,83164,2,0,P|274:53|252:88,1,75.0000028610231,2|0,0:1|0:0,0:0:0:0:
144,27,83436,5,10,0:1:0:0:
34,136,83573,1,0,0:0:0:0:
251,177,83709,1,0,0:0:0:0:
251,177,83845,2,0,P|343:150|426:139,1,150.000005722046,2|0,1:0|0:0,0:0:0:0:
466,211,84254,5,0,1:0:0:0:
375,305,84391,1,0,0:0:0:0:
396,141,84527,2,0,B|408:48|408:48|432:87,1,112.500004291535,8|0,0:1|0:0,0:0:0:0:
427,75,84800,2,0,P|466:97|501:88,1,75.0000028610231
293,23,85073,6,0,P|240:13|189:8,1,75.0000028610231,2|0,1:0|0:1,0:0:0:0:
73,172,85345,2,0,P|28:164|4:136,1,75.0000028610231
187,87,85618,2,0,L|308:106,1,112.500004291535,8|0,0:1|0:0,0:0:0:0:
312,108,85891,5,0,0:0:0:0:
391,240,86027,1,2,1:0:0:0:
281,337,86164,2,0,P|303:284|329:258,1,75.0000028610231
275,174,86436,5,0,1:0:0:0:
372,340,86573,1,2,0:1:0:0:
202,258,86709,2,0,P|277:263|329:274,1,112.500004291535,8|0,0:1|0:0,0:0:0:0:
326,262,86982,2,0,P|365:258|397:223,1,75.0000028610231
275,174,87254,6,0,P|267:108|261:74,1,75.0000028610231,0|2,1:0|0:1,0:0:0:0:
107,0,87527,2,0,P|91:40|85:89,1,75.0000028610231
129,217,87800,5,10,0:1:0:0:
265,99,87936,1,0,0:0:0:0:
471,230,88073,1,0,0:0:0:0:
471,230,88209,1,2,1:0:0:0:
391,250,88345,6,0,B|379:213|379:213|413:165,1,75.0000028610231,0|0,1:0|0:0,0:0:0:0:
433,337,88618,2,0,L|479:331,1,37.5000014305115,0|0,1:0|0:0,0:0:0:0:
351,322,88754,1,0,3:0:0:0:
341,333,88823,1,0,3:0:0:0:
331,344,88891,6,0,L|232:357,1,89.9999972534181,8|0,3:1|3:0,0:0:0:0:
216,281,89436,5,4,1:0:0:0:
3,207,89573,2,0,B|59:201|23:175|93:172,2,75.0000028610231,0|0|0,0:1|0:0|0:0,0:0:0:0:
203,67,89982,2,0,P|214:109|155:162,1,112.500004291535,10|0,0:1|0:0,0:0:0:0:
158,159,90254,5,0,0:0:0:0:
0,39,90391,2,0,P|109:14|148:6,1,150.000005722046,2|0,1:0|0:0,0:0:0:0:
203,67,90800,5,0,1:0:0:0:
257,221,90936,1,0,0:1:0:0:
454,129,91073,1,8,0:1:0:0:
285,151,91209,2,0,P|262:202|254:231,1,75.0000028610231,2|0,0:1|0:0,0:0:0:0:
365,108,91482,5,2,0:0:0:0:
368,93,91550,1,2,0:0:0:0:
362,79,91618,2,0,P|336:46|291:37,1,75.0000028610231,0|0,1:0|0:1,0:0:0:0:
182,195,91891,2,0,P|184:256|243:301,1,112.500004291535,2|0,0:1|0:0,0:0:0:0:
232,292,92164,5,10,0:1:0:0:
374,192,92300,2,0,P|412:203|469:208,1,75.0000028610231
232,292,92573,6,0,P|169:305|119:318,1,112.500004291535,2|0,1:0|0:0,0:0:0:0:
109,309,92845,2,0,P|132:284|134:265,1,37.5000014305115,0|0,1:0|0:0,0:0:0:0:
105,203,92982,1,0,1:0:0:0:
42,370,93118,1,0,0:0:0:0:
42,370,93254,6,0,P|27:312|-2:256,1,112.500004291535,8|0,0:1|0:0,0:0:0:0:
4,249,93527,2,0,P|1:209|24:170,1,75.0000028610231,2|0,0:1|0:0,0:0:0:0:
206,65,93800,5,0,1:0:0:0:
0,36,93936,2,0,B|48:32|81:74|43:66|76:113|138:105,1,150.000005722046,0|0,0:1|0:0,0:0:0:0:
284,26,94345,2,0,P|335:5|387:1,1,75.0000028610231,10|0,0:1|0:0,0:0:0:0:
194,149,94618,5,0,0:0:0:0:
431,50,94754,2,0,P|364:32|259:27,1,150.000005722046,2|0,1:0|1:0,0:0:0:0:
272,110,95164,5,0,1:0:0:0:
314,220,95300,1,0,0:0:0:0:
463,139,95436,1,8,0:1:0:0:
409,288,95573,5,2,0:1:0:0:
412,302,95641,1,2,0:0:0:0:
414,316,95709,1,2,0:0:0:0:
368,101,95845,2,0,B|371:56|343:87|359:16,2,75.0000028610231,2|0|2,0:1|1:0|0:1,0:0:0:0:
314,220,96254,2,0,P|270:271|211:255,1,112.500004291535
216,261,96527,5,8,0:1:0:0:
161,110,96664,2,0,P|211:142|226:171,1,75.0000028610231
92,364,96936,1,0,1:0:0:0:
92,364,97073,6,0,P|115:286|120:266,1,75.0000028610231,0|0,0:0|1:0,0:0:0:0:
22,142,97345,1,0,1:0:0:0:
40,230,97482,1,0,0:0:0:0:
161,110,97618,2,0,P|143:52|68:80,2,150.000005722046,8|0|4,0:1|0:0|1:0,0:0:0:0:
40,230,98300,6,0,P|103:216|196:197,1,150.000005722046,2|0,0:1|0:0,0:0:0:0:
365,248,98709,2,0,P|408:293|410:324,1,75.0000028610231,8|0,0:1|0:0,0:0:0:0:
254,359,98982,1,0,0:0:0:0:
316,182,99118,2,0,P|309:130|305:92,1,75.0000028610231,2|0,1:0|0:0,0:0:0:0:
283,254,99391,5,0,1:0:0:0:
197,66,99527,2,0,P|149:47|76:47,1,112.500004291535,2|0,1:0|0:0,0:0:0:0:
74,56,99800,2,0,P|106:91|105:127,2,75.0000028610231,8|0|0,0:1|0:1|0:0,0:0:0:0:
23,278,100345,5,0,1:0:0:0:
195,160,100482,2,0,P|167:207|129:295,1,150.000005722046,2|0,0:1|0:0,0:0:0:0:
277,357,100891,2,0,P|278:319|205:318,1,112.500004291535,10|0,0:1|0:0,0:0:0:0:
206,317,101164,6,0,P|179:354|170:360,1,37.5000014305115
129,294,101300,2,0,L|118:209,1,75.0000028610231,2|0,1:0|0:0,0:0:0:0:
145,108,101573,5,0,1:0:0:0:
47,292,101709,2,0,L|36:207,1,75.0000028610231,0|0,1:0|0:0,0:0:0:0:
16,43,101982,5,8,0:1:0:0:
62,141,102118,1,0,0:1:0:0:
214,19,102254,1,0,0:0:0:0:
363,84,102391,1,2,0:1:0:0:
363,84,102527,6,0,P|304:118|216:12,1,225.000008583069,0|0,1:0|0:0,0:0:0:0:
296,35,103073,1,10,0:1:0:0:
429,136,103209,2,0,P|460:183|468:226,1,75.0000028610231
355,360,103482,6,0,L|262:348,1,75.0000028610231,2|0,1:0|0:0,0:0:0:0:
186,219,103754,1,0,1:0:0:0:
381,287,103891,2,0,L|260:271,1,112.500004291535,0|0,1:0|0:0,0:0:0:0:
254,273,104164,6,0,P|275:212|378:207,1,150.000005722046,10|0,0:1|0:0,0:0:0:0:
434,353,104573,2,0,P|481:356|504:323,2,75.0000028610231,2|0|0,0:1|1:0|0:0,0:0:0:0:
395,127,104982,6,0,P|425:159|430:200,1,75.0000028610231
351,192,105254,2,0,L|251:181,1,100,8|0,0:1|0:0,0:0:0:0:
205,117,105664,2,0,P|173:87|121:95,1,89.9999972534181,0|0,1:0|0:0,0:0:0:0:
174,201,106209,5,0,3:0:0:0:
170,213,106277,1,0,3:0:0:0:
171,225,106345,1,0,3:0:0:0:
93,174,106482,5,0,3:0:0:0:
84,197,106550,1,0,3:0:0:0:
85,223,106618,2,0,P|38:207|16:212,1,50,8|0,3:1|1:0,0:0:0:0:
2,282,106891,5,4,1:0:0:0:
121,347,107027,2,0,L|215:331,1,89.9999972534181
221,330,107300,1,0,0:0:0:0:
264,186,107437,2,0,P|264:155|234:123,2,59.9999981689454,8|0|0,0:1|0:0|0:0,0:0:0:0:
85,223,107846,6,0,P|88:189|110:123,1,89.9999972534181,0|0,1:0|0:0,0:0:0:0:
113,128,108118,2,0,L|111:89,1,29.9999990844727,0|0,1:0|0:0,0:0:0:0:
37,87,108255,2,0,L|27:4,1,59.9999981689454,0|0,1:0|0:0,0:0:0:0:
85,223,108527,5,8,0:1:0:0:
204,163,108664,1,0,0:0:0:0:
310,271,108800,5,2,0:0:0:0:
319,284,108868,1,2,0:0:0:0:
330,294,108936,1,2,0:0:0:0:
342,303,109004,1,2,0:0:0:0:
356,308,109072,5,0,1:0:0:0:
416,202,109209,2,0,P|423:143|432:98,1,89.9999972534181
434,102,109482,1,0,0:0:0:0:
444,279,109618,2,0,P|460:315|454:340,2,59.9999981689454,8|0|0,0:1|0:0|0:0,0:0:0:0:
227,222,110027,6,0,P|266:190|312:181,1,89.9999972534181,0|0,1:0|0:0,0:0:0:0:
313,187,110300,2,0,P|326:187|339:197,1,29.9999990844727,0|0,1:0|0:0,0:0:0:0:
277,107,110437,6,0,L|270:50,1,29.9999990844727,2|0,1:2|0:0,0:0:0:0:
357,11,110573,2,0,L|352:65,1,29.9999990844727,2|0,0:0|0:0,0:0:0:0:
414,104,110709,5,8,0:1:0:0:
416,202,110846,1,0,0:0:0:0:
299,277,110982,1,0,0:0:0:0:
299,277,111118,1,0,0:0:0:0:
359,340,111255,5,0,1:0:0:0:
210,298,111391,2,0,P|178:304|116:312,1,89.9999972534181
109,309,111664,1,0,0:0:0:0:
214,163,111800,2,0,P|192:198|184:224,2,59.9999981689454,8|0|0,0:1|0:0|0:0,0:0:0:0:
110,26,112209,6,0,P|69:31|20:57,1,89.9999972534181,0|0,1:0|0:0,0:0:0:0:
24,64,112482,2,0,P|17:90|8:100,1,29.9999990844727,0|0,1:0|0:0,0:0:0:0:
90,118,112618,2,0,P|118:137|128:174,1,59.9999981689454,0|0,1:0|0:0,0:0:0:0:
78,233,112891,5,8,0:1:0:0:
0,169,113027,1,0,0:0:0:0:
110,26,113164,1,0,0:0:0:0:
110,26,113300,1,0,0:0:0:0:
184,79,113437,5,0,1:0:0:0:
275,203,113573,2,0,P|268:248|259:294,1,89.9999972534181
253,302,113846,1,0,0:0:0:0:
391,355,113982,2,0,P|416:347|461:336,2,59.9999981689454,8|0|0,0:1|0:0|0:0,0:0:0:0:
304,369,114391,5,0,1:0:0:0:
364,272,114527,1,0,0:0:0:0:
275,203,114664,1,0,1:0:0:0:
275,203,114800,2,0,L|211:197,1,59.9999981689454,0|0,1:0|0:0,0:0:0:0:
32,79,115073,6,0,P|81:57|146:146,1,179.999994506836,8|0,0:1|0:0,0:0:0:0:
155,269,115618,5,4,1:0:0:0:
9,248,115755,2,0,P|6:212|3:155,1,89.9999972534181
8,147,116027,1,0,0:0:0:0:
171,63,116164,2,0,P|177:34|179:-1,2,59.9999981689454,8|0|0,0:1|0:0|0:0,0:0:0:0:
238,178,116573,6,0,P|289:176|332:147,1,89.9999972534181,0|0,1:0|0:0,0:0:0:0:
329,147,116846,2,0,P|317:169|320:195,1,29.9999990844727,0|0,1:0|0:0,0:0:0:0:
308,252,116982,2,0,P|312:293|337:323,1,59.9999981689454,0|0,1:0|0:0,0:0:0:0:
467,366,117254,5,8,0:1:0:0:
467,366,117391,2,0,L|510:358,2,29.9999990844727,2|0|0,3:1|3:0|3:0,0:0:0:0:
422,284,117800,5,0,1:0:0:0:
237,336,117937,2,0,P|203:363|158:361,1,89.9999972534181
146,357,118209,1,0,0:0:0:0:
234,211,118346,2,0,P|230:171|207:146,2,59.9999981689454,8|0|0,0:1|0:0|0:0,0:0:0:0:
62,309,118755,6,0,P|51:248|45:203,1,89.9999972534181,0|0,1:0|0:0,0:0:0:0:
58,215,119027,2,0,L|64:183,1,29.9999990844727,0|0,1:0|0:0,0:0:0:0:
26,123,119164,2,0,P|62:109|104:126,1,59.9999981689454,0|0,1:0|0:0,0:0:0:0:
203,293,119437,6,0,L|254:288,1,40,8|0,0:1|0:0,0:0:0:0:
234,211,119709,6,0,L|183:216,1,40,2|0,0:0|0:0,0:0:0:0:
203,293,119982,5,0,1:0:0:0:
371,183,120118,2,0,P|361:123|323:111,1,89.9999972534181
327,114,120391,1,0,0:0:0:0:
412,254,120527,2,0,P|396:295|389:334,2,59.9999981689454,8|0|0,0:1|0:0|0:0,0:0:0:0:
502,34,120937,6,0,P|467:20|414:11,1,89.9999972534181,0|0,1:0|0:0,0:0:0:0:
405,23,121209,2,0,P|369:41|361:40,1,29.9999990844727,0|0,1:0|0:0,0:0:0:0:
301,34,121346,2,0,P|276:20|240:12,1,59.9999981689454,0|0,1:0|0:0,0:0:0:0:
327,114,121618,5,8,0:1:0:0:
191,166,121755,1,0,0:0:0:0:
90,77,121891,1,0,0:0:0:0:
90,77,122027,1,0,0:0:0:0:
166,28,122164,5,0,1:0:0:0:
80,162,122300,2,0,B|71:222|114:186|99:271,1,89.9999972534181
97,256,122573,1,0,0:0:0:0:
0,367,122709,2,0,P|33:371|66:392,2,59.9999981689454,8|0|0,0:1|0:0|0:0,0:0:0:0:
157,313,123118,5,0,1:0:0:0:
157,313,123255,2,0,P|181:269|187:245,1,59.9999981689454
20,276,123527,2,0,P|53:251|115:248,1,89.9999972534181,0|0,1:0|0:0,0:0:0:0:
97,256,123800,5,8,0:1:0:0:
250,357,123937,1,0,3:0:0:0:
280,359,124005,1,0,3:0:0:0:
293,333,124073,2,0,L|276:254,1,59.9999981689454,0|0,1:0|1:0,0:0:0:0:
383,158,124345,5,4,1:0:0:0:
383,158,124482,2,0,B|416:182|416:182|455:173,1,80
477,98,124891,2,0,P|468:55|465:17,1,80,10|0,0:0|0:0,0:0:0:0:
393,78,125300,2,0,P|384:35|381:-3,1,80,2|0,0:0|0:0,0:0:0:0:
311,109,125709,5,2,0:0:0:0:
311,109,125845,2,0,L|258:120,1,40,0|8,0:0|0:0,0:0:0:0:
172,23,126118,1,2,0:0:0:0:
248,41,126254,1,0,0:0:0:0:
172,23,126391,6,0,B|105:35|141:68|61:82,1,120,2|0,0:0|0:0,0:0:0:0:
3,37,126936,1,0,0:0:0:0:
3,37,127073,2,0,P|34:40|72:74,1,80,10|0,0:0|0:0,0:0:0:0:
114,156,127482,2,0,P|145:153|183:119,1,80
56,223,127891,6,0,B|62:258|62:258|59:263|59:263|68:312,2,80,10|8|0,0:0|0:0|0:0,0:0:0:0:
7,157,128573,2,0,L|2:112,1,40
124,168,128845,5,2,0:0:0:0:
124,168,128982,2,0,L|166:162,1,40
224,110,129254,1,10,0:0:0:0:
179,244,129527,1,2,0:0:0:0:
179,244,129664,2,0,P|173:285|205:318,1,80,2|0,0:0|0:0,0:0:0:0:
267,354,130073,5,2,0:0:0:0:
308,283,130209,1,0,0:0:0:0:
385,312,130345,1,8,0:0:0:0:
462,342,130482,2,2,L|491:337,2,20
385,312,130754,6,0,L|397:186,1,120,2|0,0:0|0:0,0:0:0:0:
317,200,131300,1,0,0:0:0:0:
317,200,131436,2,0,L|309:79,1,120,10|0,0:0|0:0,0:0:0:0:
309,80,131982,2,0,L|348:86,1,40
224,127,132254,6,0,L|181:132,1,40,8|0,0:0|0:0,0:0:0:0:
247,21,132527,2,0,L|204:26,1,40,8|0,0:0|0:0,0:0:0:0:
131,1,132800,1,2,0:0:0:0:
40,83,132936,2,0,P|45:111|48:133,1,40,2|0,0:0|0:0,0:0:0:0:
10,270,133209,6,0,B|4:231|4:231|29:191,1,80,2|0,0:0|0:0,0:0:0:0:
100,178,133618,2,0,L|186:183,1,80,10|0,0:0|0:0,0:0:0:0:
214,253,134027,2,0,P|233:286|296:279,1,100,2|2,0:0|0:0,0:0:0:0:
296,277,134436,2,0,L|294:234,1,40,2|0,0:0|0:0,0:0:0:0:
229,335,134709,2,0,P|213:358|204:381,2,40,8|0|0,0:0|0:0|0:0,0:0:0:0:
214,253,135118,6,0,B|165:264|192:278|133:298,1,80,0|2,0:0|0:0,0:0:0:0:
136,291,135459,1,2,0:0:0:0:
126,287,135527,2,0,P|98:279|80:278,2,40,2|0|10,0:0|0:0|0:0,0:0:0:0:
290,383,136073,5,2,0:0:0:0:
290,383,136209,2,0,L|373:361,1,80,2|0,0:0|0:0,0:0:0:0:
486,325,136618,6,0,L|434:314,1,40,8|0,0:0|0:0,0:0:0:0:
376,216,136891,2,0,L|324:205,1,40,8|0,0:0|0:0,0:0:0:0:
426,148,137164,1,2,0:0:0:0:
457,235,137300,1,2,0:0:0:0:
359,300,137436,6,0,P|328:301|268:307,1,80,2|0,0:0|0:0,0:0:0:0:
219,254,137845,1,0,0:0:0:0:
219,254,137982,2,0,P|188:253|128:247,1,80,10|0,0:0|0:0,0:0:0:0:
249,138,138391,6,0,L|238:188,1,40,2|0,0:0|0:0,0:0:0:0:
219,254,138664,1,2,0:0:0:0:
219,254,138800,2,0,L|230:345,1,80,0|8,0:0|0:0,0:0:0:0:
118,357,139209,5,2,0:0:0:0:
42,318,139345,1,0,0:0:0:0:
63,240,139482,1,0,0:0:0:0:
145,232,139618,2,0,P|165:194|150:153,1,80,2|0,0:0|0:0,0:0:0:0:
45,70,140027,5,0,0:0:0:0:
45,70,140164,2,0,P|40:105|82:143,1,80,10|0,0:0|0:0,0:0:0:0:
176,76,140573,2,0,L|257:87,1,80,2|0,0:0|0:0,0:0:0:0:
155,160,140982,6,0,L|184:165,1,20,8|0,0:0|0:0,0:0:0:0:
233,221,141118,2,0,L|262:226,1,20
333,160,141254,5,8,0:0:0:0:
285,304,141391,1,0,3:0:0:0:
287,315,141459,1,0,3:0:0:0:
289,326,141527,2,0,L|286:378,1,40,0|8,3:0|0:1,0:0:0:0:
233,221,141800,1,4,1:0:0:0:
166,77,150527,5,2,0:0:0:0:
166,77,150664,2,0,P|202:70|248:63,1,80,2|0,0:0|0:0,0:0:0:0:
200,151,151073,2,0,P|231:145|252:142,2,40,8|0|0,0:0|0:0|0:0,0:0:0:0:
233,223,151482,6,0,P|219:256|201:316,1,80,2|0,0:0|0:0,0:0:0:0:
273,337,151891,2,0,P|277:357|283:382,1,40,2|0,0:0|0:0,0:0:0:0:
349,319,152164,2,0,P|353:339|359:364,2,40,8|0|0,0:0|0:0|0:0,0:0:0:0:
398,251,152573,6,0,P|431:250|464:324,1,120,2|0,0:0|0:0,0:0:0:0:
349,319,153118,1,0,0:0:0:0:
349,319,153254,2,0,P|333:301|321:280,2,40,8|0|0,0:0|0:0|0:0,0:0:0:0:
337,191,153664,6,0,L|246:198,1,80,2|0,0:0|0:0,0:0:0:0:
314,114,154073,2,0,P|278:115|262:117,1,40,10|0,0:0|0:0,0:0:0:0:
376,60,154345,2,0,L|427:66,3,40,8|0|0|0,0:0|0:0|0:0|0:0,0:0:0:0:
471,152,154891,5,2,0:0:0:0:
471,152,155027,2,0,P|470:183|447:235,1,80,2|0,0:0|0:0,0:0:0:0:
395,152,155436,2,0,P|394:175|383:191,2,40,8|0|0,0:0|0:0|0:0,0:0:0:0:
313,143,155845,6,0,P|272:120|234:129,1,80,2|0,0:0|0:0,0:0:0:0:
155,112,156254,2,0,P|140:127|136:150,1,40,2|0,0:0|0:0,0:0:0:0:
72,197,156527,2,0,P|79:224|97:238,2,40,8|0|0,0:0|0:0|0:0,0:0:0:0:
93,112,156936,6,0,L|86:236,1,120,2|0,0:0|0:0,0:0:0:0:
156,307,157482,1,0,0:0:0:0:
156,307,157618,2,0,L|153:356,2,40,8|0|0,0:0|0:0|0:0,0:0:0:0:
243,202,158027,6,0,P|215:219|163:222,1,80,2|0,0:0|0:0,0:0:0:0:
186,143,158436,2,0,P|159:138|144:130,1,40,10|0,0:0|0:0,0:0:0:0:
62,75,158709,2,0,P|90:66|115:71,3,40,8|0|0|0,0:0|0:0|0:0|0:0,0:0:0:0:
25,152,159254,6,0,B|50:188|33:243|17:202|0:257|40:308,1,150,2|0,0:1|0:0,0:0:0:0:
104,255,159800,2,0,B|147:251|186:293|143:286|182:329|246:320,1,150,10|0,0:0|0:0,0:0:0:0:
272,232,160345,5,2,0:0:0:0:
248,224,160482,1,0,0:0:0:0:
228,239,160618,1,0,0:0:0:0:
318,338,160754,5,2,0:0:0:0:
354,350,160891,1,8,0:0:0:0:
384,327,161027,1,0,0:0:0:0:
436,267,161164,2,0,P|471:268|499:287,1,50
355,212,161436,5,2,0:0:0:0:
358,187,161573,1,0,0:0:0:0:
361,162,161709,1,0,0:0:0:0:
479,5,161845,5,2,0:0:0:0:
482,38,161982,1,8,0:0:0:0:
486,71,162118,1,0,0:0:0:0:
494,150,162254,2,0,P|478:184|467:216,1,50
393,80,162527,5,2,0:0:0:0:
370,67,162664,1,0,0:0:0:0:
345,72,162800,1,8,0:0:0:0:
265,180,162936,5,2,0:0:0:0:
230,199,163073,1,8,0:0:0:0:
192,192,163209,1,0,0:0:0:0:
244,95,163345,2,2,B|233:104|233:104|217:107,3,25
212,101,163618,6,0,B|179:89|179:89|105:133|105:133|60:116,1,150,2|0,0:1|0:0,0:0:0:0:
0,94,164164,2,0,B|35:24|35:24|112:50,1,150,8|0,0:0|0:0,0:0:0:0:
78,122,164709,5,2,0:0:0:0:
70,145,164845,1,0,0:0:0:0:
66,169,164982,1,0,0:0:0:0:
150,307,165118,5,2,0:0:0:0:
142,270,165254,1,8,0:0:0:0:
128,236,165391,1,0,0:0:0:0:
68,322,165527,2,0,P|55:280|43:267,1,50
171,163,165800,5,2,0:0:0:0:
193,173,165936,1,0,0:0:0:0:
218,172,166073,1,0,0:0:0:0:
253,290,166209,5,2,0:0:0:0:
286,277,166345,1,8,0:0:0:0:
312,249,166482,1,0,0:0:0:0:
300,115,166618,2,0,L|302:177,1,50
392,293,166891,5,2,0:0:0:0:
388,317,167027,1,0,0:0:0:0:
384,341,167164,1,8,0:0:0:0:
470,217,167300,5,2,0:0:0:0:
440,212,167436,1,8,0:0:0:0:
410,207,167573,1,0,0:0:0:0:
300,115,167709,2,0,L|373:109,1,50
441,47,167982,5,0,1:0:0:0:
299,200,168119,2,0,P|301:226|307:251,1,50
222,86,168392,2,0,P|217:60|216:34,1,50,0|8,0:0|3:2,0:0:0:0:
140,179,168664,5,0,0:0:0:0:
140,179,168801,1,0,0:0:0:0:
94,358,168937,2,0,P|87:325|76:290,1,50,0|0,1:0|0:0,0:0:0:0:
226,354,169210,5,0,0:0:0:0:
71,225,169346,2,0,P|45:220|19:219,1,50,0|0,1:0|0:0,0:0:0:0:
140,179,169619,5,8,3:2:0:0:
261,239,169755,1,0,0:0:0:0:
413,143,169892,1,0,0:0:0:0:
413,143,170028,1,0,0:0:0:0:
347,86,170164,5,0,1:0:0:0:
421,286,170301,2,0,P|404:317|394:341,1,50
512,207,170573,2,0,P|479:209|451:214,1,50,0|8,0:0|3:2,0:0:0:0:
329,349,170846,5,0,0:0:0:0:
329,349,170982,1,0,0:0:0:0:
224,149,171119,2,0,P|190:125|165:117,1,50,0|0,1:0|0:0,0:0:0:0:
113,178,171392,6,0,P|110:199|106:207,1,25
123,280,171528,2,0,P|150:265|168:248,1,50,8|0,1:2|0:0,0:0:0:0:
38,130,171801,5,8,3:2:0:0:
0,298,171937,1,0,0:0:0:0:
109,371,172073,1,0,0:0:0:0:
109,371,172210,1,0,0:0:0:0:
238,260,172345,5,0,1:0:0:0:
238,260,172482,2,0,L|224:362,1,100
368,349,172891,5,8,1:2:0:0:
368,349,173027,2,0,L|375:297,2,50
139,344,173436,5,0,1:0:0:0:
139,344,173573,2,0,L|153:242,1,100
386,215,173982,6,0,P|425:230|447:251,1,50,8|0,1:2|0:0,0:0:0:0:
299,282,174254,2,0,P|265:296|243:296,1,50
133,84,174527,6,0,L|143:12,1,50,0|0,1:0|0:0,0:0:0:0:
305,232,174800,2,0,L|295:304,1,50,0|0,1:0|0:0,0:0:0:0:
133,84,175073,5,0,1:0:0:0:
292,73,175209,1,0,1:0:0:0:
305,232,175345,1,0,1:0:0:0:
144,245,175481,1,0,1:0:0:0:
133,84,175618,1,0,1:0:0:0:
447,349,176027,6,0,L|441:388,2,25,0|0|8,3:0|3:0|3:1,0:0:0:0:
335,304,176300,5,0,0:0:0:0:
300,163,176436,1,0,0:1:0:0:
431,107,176573,1,8,1:2:0:0:
407,215,176709,5,0,1:0:0:0:
407,215,176845,2,0,B|347:189|305:230|305:230|281:254|254:244,1,150,2|0,0:0|3:0,0:0:0:0:
86,186,177527,5,2,0:0:0:0:
252,208,177664,1,2,0:0:0:0:
189,60,177800,1,2,3:2:0:0:
175,154,177902,6,0,L|168:201,2,37.5,2|2|2,0:0|0:0|0:0,0:0:0:0:
189,60,178209,5,0,3:0:0:0:
193,35,178277,1,0,3:0:0:0:
196,10,178345,1,8,3:1:0:0:
163,243,178482,5,0,1:0:0:0:
266,117,178618,1,0,0:1:0:0:
100,95,178754,1,8,3:1:0:0:
175,154,178891,5,0,1:0:0:0:
455,232,179027,2,0,B|463:283|424:317|426:283|389:314|402:377,1,150.000005722046,2|0,0:1|0:0,0:0:0:0:
481,363,179436,5,10,0:1:0:0:
509,141,179573,1,0,0:1:0:0:
359,197,179709,1,0,0:0:0:0:
359,197,179845,2,0,P|315:211|281:199,1,75.0000028610231,2|0,1:0|0:0,0:0:0:0:
186,103,180118,5,0,0:0:0:0:
358,23,180254,1,0,1:0:0:0:
288,203,180391,1,0,0:0:0:0:
351,315,180527,6,0,L|396:311,2,37.5000014305115,8|0|0,0:1|0:0|0:0,0:0:0:0:
167,180,180800,5,2,0:0:0:0:
130,177,180868,1,2,0:0:0:0:
93,174,180936,1,2,0:0:0:0:
59,311,181072,6,0,B|66:259|35:220|33:258|-2:209|15:154,1,150.000005722046,0|0,1:0|0:0,0:0:0:0:
52,96,181481,1,2,0:1:0:0:
225,254,181618,2,0,P|232:302|239:349,1,75.0000028610231,8|0,0:1|0:0,0:0:0:0:
108,375,181891,5,0,0:0:0:0:
208,166,182027,2,0,P|265:177|297:206,1,75.0000028610231,2|0,1:0|0:0,0:0:0:0:
286,333,182300,5,0,0:0:0:0:
147,265,182436,1,2,1:0:0:0:
241,86,182572,1,0,0:0:0:0:
381,196,182709,6,0,P|400:190|414:173,3,37.5000014305115,8|0|0|0,0:1|0:0|0:0|0:0,0:0:0:0:
443,73,182981,1,2,0:0:0:0:
411,55,183049,1,2,0:0:0:0:
375,61,183117,1,2,0:0:0:0:
350,89,183185,1,2,0:0:0:0:
349,125,183254,5,0,1:0:0:0:
414,265,183391,1,0,0:1:0:0:
164,370,183527,1,2,0:1:0:0:
60,269,183663,1,0,0:0:0:0:
60,269,183800,6,0,P|105:262|139:290,1,75.0000028610231,10|0,0:1|0:0,0:0:0:0:
243,345,184072,1,0,0:0:0:0:
243,345,184209,1,2,1:0:0:0:
326,234,184345,6,0,P|342:187|348:115,1,112.500004291535
340,112,184618,2,0,P|303:140|264:133,1,75.0000028610231,0|0,1:0|0:0,0:0:0:0:
225,36,184891,5,8,0:1:0:0:
326,234,185027,1,0,1:0:0:0:
330,248,185095,1,0,1:0:0:0:
334,262,185163,2,0,P|376:267|420:276,1,75.0000028610231,0|0,1:0|1:0,0:0:0:0:
243,345,185436,6,0,P|193:373|151:363,1,75.0000028610231,6|0,1:0|0:1,0:0:0:0:
17,259,185709,2,0,P|19:225|29:179,1,75.0000028610231
183,294,185981,2,0,P|137:294|94:232,1,112.500004291535,8|0,0:1|0:0,0:0:0:0:
103,233,186254,5,0,0:0:0:0:
190,117,186391,1,2,1:0:0:0:
5,53,186527,2,0,P|28:46|80:25,1,75.0000028610231
205,22,186800,5,0,1:0:0:0:
238,192,186936,1,2,0:1:0:0:
420,142,187072,2,0,P|412:71|374:53,1,112.500004291535,8|0,0:1|0:0,0:0:0:0:
364,57,187345,2,2,B|352:75|352:75|322:83,3,37.5000014305115
273,127,187618,6,0,L|170:116,1,75.0000028610231,0|0,1:0|0:1,0:0:0:0:
386,231,187891,2,0,P|373:277|365:321,1,75.0000028610231,2|0,0:1|0:0,0:0:0:0:
241,362,188163,5,10,0:1:0:0:
71,345,188300,1,0,0:0:0:0:
186,117,188436,1,0,0:0:0:0:
186,117,188573,2,0,B|167:46|90:46|90:46|123:56,1,150.000005722046,2|0,1:0|0:0,0:0:0:0:
96,126,188981,5,0,1:0:0:0:
178,246,189118,1,0,0:0:0:0:
386,214,189254,2,0,B|293:202|293:202|332:178,1,112.500004291535,8|0,0:1|0:0,0:0:0:0:
303,177,189527,2,0,P|325:216|316:251,1,75.0000028610231
144,357,189800,6,0,P|91:347|40:342,1,75.0000028610231,2|0,1:0|0:1,0:0:0:0:
256,311,190072,2,0,P|301:319|325:347,1,75.0000028610231
166,188,190345,2,0,L|185:67,1,112.500004291535,8|0,0:1|0:0,0:0:0:0:
187,60,190618,5,0,0:0:0:0:
333,30,190754,1,2,1:0:0:0:
461,174,190891,2,0,P|422:154|377:163,1,75.0000028610231
295,277,191164,5,0,1:0:0:0:
437,383,191300,1,2,0:1:0:0:
409,232,191436,2,0,P|351:243|295:267,1,112.500004291535,8|0,0:1|0:0,0:0:0:0:
295,277,191709,2,0,P|282:317|236:327,1,75.0000028610231
122,217,191981,6,0,P|114:151|108:117,1,75.0000028610231,0|2,1:0|0:1,0:0:0:0:
266,7,192254,2,0,P|250:47|244:96,1,75.0000028610231
309,176,192527,5,10,0:1:0:0:
122,217,192663,1,0,0:0:0:0:
226,384,192800,1,0,0:0:0:0:
226,384,192936,1,2,1:0:0:0:
270,312,193072,6,0,B|243:286|243:286|194:303,1,75.0000028610231,0|0,1:0|0:0,0:0:0:0:
45,347,193345,2,0,L|51:393,1,37.5000014305115,0|0,1:0|0:0,0:0:0:0:
60,265,193481,1,0,3:0:0:0:
49,255,193550,1,0,3:0:0:0:
38,245,193618,6,0,L|25:146,1,89.9999972534181,8|0,3:1|3:0,0:0:0:0:
56,85,194163,5,4,1:0:0:0:
207,298,194300,2,0,B|263:292|227:266|297:263,2,75.0000028610231,0|0|0,0:1|0:0|0:0,0:0:0:0:
227,101,194709,2,0,P|216:59|275:6,1,112.500004291535,10|0,0:1|0:0,0:0:0:0:
268,11,194981,5,0,0:0:0:0:
466,123,195118,2,0,P|357:98|318:90,1,150.000005722046,2|0,1:0|0:0,0:0:0:0:
227,101,195527,5,0,1:0:0:0:
195,250,195663,1,0,0:1:0:0:
400,344,195800,1,8,0:1:0:0:
268,243,195936,2,0,P|210:244|174:260,1,75.0000028610231,2|0,0:1|0:0,0:0:0:0:
7,302,196209,5,2,0:0:0:0:
22,299,196277,1,2,0:0:0:0:
36,305,196345,2,0,P|69:331|78:376,1,75.0000028610231,0|0,1:0|0:1,0:0:0:0:
101,165,196618,2,0,P|115:117|156:71,1,112.500004291535,2|0,0:1|0:0,0:0:0:0:
170,74,196891,5,10,0:1:0:0:
268,243,197027,2,0,P|306:254|363:259,1,75.0000028610231
494,131,197300,6,0,P|431:144|381:157,1,112.500004291535,2|0,1:0|0:0,0:0:0:0:
378,169,197572,2,0,P|408:184|424:211,1,37.5000014305115,0|0,1:0|0:0,0:0:0:0:
440,260,197709,1,0,1:0:0:0:
456,48,197845,1,0,0:0:0:0:
456,48,197981,6,0,P|389:39|341:22,1,112.500004291535,8|0,0:1|0:0,0:0:0:0:
331,26,198254,2,0,P|291:23|252:46,1,75.0000028610231,2|0,0:1|0:0,0:0:0:0:
159,252,198527,5,0,1:0:0:0:
311,105,198663,2,0,B|315:153|273:186|281:148|234:181|242:243,1,150.000005722046,0|0,0:1|0:0,0:0:0:0:
347,357,199072,2,0,P|328:309|307:280,1,75.0000028610231,10|0,0:1|0:0,0:0:0:0:
166,157,199345,5,0,0:0:0:0:
219,358,199481,2,0,P|152:340|47:335,1,150.000005722046,2|0,1:0|1:0,0:0:0:0:
0,371,199891,5,0,1:0:0:0:
97,251,200027,1,0,0:0:0:0:
0,142,200163,1,8,0:1:0:0:
174,52,200300,5,2,0:1:0:0:
177,38,200368,1,2,0:0:0:0:
179,24,200436,1,2,0:0:0:0:
15,222,200572,2,0,B|18:267|-10:236|6:307,2,75.0000028610231,2|0|2,0:1|1:0|0:1,0:0:0:0:
166,157,200981,2,0,P|239:164|266:207,1,112.500004291535
262,206,201254,5,8,0:1:0:0:
153,349,201391,2,0,P|180:292|208:274,1,75.0000028610231
368,205,201663,1,0,1:0:0:0:
368,205,201800,6,0,P|446:228|466:233,1,75.0000028610231,0|0,0:0|1:0,0:0:0:0:
329,368,202072,1,0,1:0:0:0:
232,353,202209,1,0,0:0:0:0:
262,206,202345,1,8,0:1:0:0:
365,289,202482,5,0,0:0:0:0:
232,353,202618,1,0,0:0:0:0:
73,302,202754,1,0,0:0:0:0:
114,87,202891,5,4,1:0:0:0:
114,87,203027,2,0,P|128:152|146:246,1,150.000005722046,2|0,0:1|0:0,0:0:0:0:
37,108,203436,2,0,P|43:46|66:24,1,75.0000028610231,8|0,0:1|0:0,0:0:0:0:
227,13,203709,1,0,0:0:0:0:
143,233,203845,2,0,L|224:221,1,75.0000028610231,2|0,1:0|0:0,0:0:0:0:
351,269,204118,5,0,1:0:0:0:
285,102,204254,2,0,P|328:17|357:-20,1,112.500004291535,2|0,1:0|0:0,0:0:0:0:
351,10,204527,2,0,P|383:45|382:81,2,75.0000028610231,8|0|0,0:1|0:1|0:0,0:0:0:0:
217,222,205072,5,0,1:0:0:0:
386,146,205209,2,0,P|435:199|508:188,1,150.000005722046,2|0,0:1|0:0,0:0:0:0:
435,16,205618,2,0,P|444:92|465:124,1,112.500004291535,10|0,0:1|0:0,0:0:0:0:
475,113,205891,6,0,P|487:89|491:63,1,37.5000014305115
435,16,206027,2,0,L|343:30,1,75.0000028610231,2|0,1:0|0:0,0:0:0:0:
219,51,206300,5,0,1:0:0:0:
386,146,206436,2,0,L|301:160,1,75.0000028610231,0|0,1:0|0:0,0:0:0:0:
215,246,206709,5,8,0:1:0:0:
103,225,206845,1,0,0:1:0:0:
226,353,206981,1,0,0:0:0:0:
375,288,207118,1,2,0:1:0:0:
375,288,207254,6,0,P|316:254|228:360,1,225.000008583069,0|0,1:0|0:0,0:0:0:0:
308,337,207800,1,10,0:1:0:0:
443,235,207936,2,0,P|464:187|469:153,1,75.0000028610231
286,58,208209,6,0,L|193:46,1,75.0000028610231,2|0,1:0|0:0,0:0:0:0:
50,193,208481,1,0,1:0:0:0:
293,137,208618,2,0,L|172:121,1,112.500004291535,0|0,1:0|0:0,0:0:0:0:
167,129,208891,6,0,P|215:227|212:275,1,150.000005722046,10|0,0:1|0:0,0:0:0:0:
19,377,209300,2,0,P|16:330|49:307,2,75.0000028610231,2|0|0,0:1|1:0|0:0,0:0:0:0:
184,375,209709,6,0,P|227:383|261:346,1,75.0000028610231
126,310,209982,2,0,L|110:201,1,100,8|0,0:1|0:0,0:0:0:0:
144,137,210391,2,0,P|144:179|111:211,1,89.9999972534181,0|0,1:0|0:0,0:0:0:0:
71,83,210936,5,0,3:0:0:0:
67,71,211004,1,0,3:0:0:0:
68,59,211072,1,0,3:0:0:0:
194,25,211209,5,0,3:0:0:0:
203,48,211277,1,0,3:0:0:0:
202,74,211345,2,0,P|249:58|271:63,1,50,8|0,3:1|1:0,0:0:0:0:
323,81,211618,5,4,1:0:0:0:
219,220,211754,2,0,P|178:224|132:202,1,89.9999972534181
127,194,212027,1,0,0:0:0:0:
308,165,212163,2,0,P|347:156|381:154,2,59.9999981689454,8|0|0,0:1|0:0|0:0,0:0:0:0:
155,269,212572,6,0,P|128:328|115:382,1,119.999996337891,0|0,1:0|0:0,0:0:0:0:
45,184,212981,2,0,P|55:229|70:253,1,59.9999981689454,0|0,1:0|0:0,0:0:0:0:
204,156,213254,5,8,0:1:0:0:
96,120,213390,1,0,0:0:0:0:
155,269,213527,5,2,0:0:0:0:
170,266,213595,1,2,0:0:0:0:
185,263,213663,1,2,0:0:0:0:
199,260,213731,1,2,0:0:0:0:
214,257,213800,5,0,1:0:0:0:
305,338,213936,2,0,P|343:370|395:365,1,89.9999972534181
392,365,214208,1,0,0:0:0:0:
477,247,214345,2,0,P|479:215|485:184,2,59.9999981689454,8|0|0,0:1|0:0|0:0,0:0:0:0:
376,286,214754,6,0,P|363:247|337:155,1,119.999996337891,0|0,1:0|0:0,0:0:0:0:
409,81,215163,6,0,L|402:123,1,29.9999990844727,2|0,1:2|0:0,0:0:0:0:
319,35,215299,2,0,L|310:-10,1,29.9999990844727,2|0,0:0|0:0,0:0:0:0:
258,118,215436,5,8,0:1:0:0:
164,154,215572,1,0,0:0:0:0:
73,36,215708,2,0,P|105:51|138:80,1,59.9999981689454
258,118,215981,5,0,1:0:0:0:
160,244,216118,2,0,P|112:227|59:215,1,89.9999972534181
66,226,216390,1,0,0:0:0:0:
191,319,216527,2,0,P|221:302|237:272,2,59.9999981689454,8|0|0,0:1|0:0|0:0,0:0:0:0:
303,209,216936,6,0,P|342:280|364:341,1,119.999996337891,0|0,1:0|0:0,0:0:0:0:
395,140,217345,2,0,P|404:113|423:72,1,59.9999981689454,0|0,1:0|0:0,0:0:0:0:
512,175,217618,5,8,0:1:0:0:
444,275,217754,1,0,0:0:0:0:
264,212,217891,2,0,L|270:267,1,29.9999990844727,2|0,0:0|0:0,0:0:0:0:
250,198,218027,2,0,L|244:143,1,29.9999990844727,2|0,0:0|0:0,0:0:0:0:
199,280,218163,5,0,1:0:0:0:
307,117,218299,2,0,P|303:80|284:23,1,89.9999972534181
275,25,218572,1,0,0:0:0:0:
135,77,218708,2,0,P|100:76|72:66,2,59.9999981689454,8|0|0,0:1|0:0|0:0,0:0:0:0:
220,195,219118,5,0,1:0:0:0:
220,195,219254,2,0,P|276:191|305:212,1,89.9999972534181
312,215,219527,2,0,P|297:182|299:148,1,59.9999981689454,0|0,1:0|0:0,0:0:0:0:
404,62,219799,5,8,0:1:0:0:
389,246,219936,1,0,3:0:0:0:
382,275,220004,1,0,3:0:0:0:
361,296,220072,2,0,P|322:307|295:296,1,59.9999981689454,0|0,1:0|1:0,0:0:0:0:
131,268,220345,6,0,P|138:299|150:370,1,89.9999972534181,4|0,1:0|0:0,0:0:0:0:
136,358,220618,2,0,P|101:334|56:328,1,59.9999981689454
198,197,220890,2,0,P|243:187|273:151,1,89.9999972534181,8|0,0:1|0:0,0:0:0:0:
270,143,221163,5,0,0:0:0:0:
147,43,221299,1,0,1:0:0:0:
88,104,221436,2,0,P|72:150|60:190,1,89.9999972534181
60,201,221708,5,0,1:0:0:0:
111,270,221845,1,0,0:0:0:0:
183,235,221981,5,8,0:1:0:0:
41,303,222118,1,0,0:0:0:0:
234,355,222254,5,2,0:0:0:0:
248,352,222322,1,2,0:0:0:0:
263,349,222390,1,2,0:0:0:0:
277,345,222458,1,2,0:0:0:0:
292,342,222527,6,0,P|338:349|389:365,1,89.9999972534181,0|0,1:0|0:0,0:0:0:0:
390,367,222799,2,0,P|378:328|386:285,1,59.9999981689454
414,235,223072,5,8,0:1:0:0:
313,128,223208,1,0,0:0:0:0:
218,186,223345,1,0,0:0:0:0:
218,186,223481,6,0,P|250:189|282:204,2,59.9999981689454,0|0|0,1:0|0:0|0:0,0:0:0:0:
131,279,223890,2,0,P|140:324|156:340,1,59.9999981689454,0|0,1:0|0:0,0:0:0:0:
133,193,224164,2,0,L|67:183,1,59.9999981689454,8|2,0:1|0:1,0:1:0:0:
67,173,224368,1,2,0:0:0:0:
59,163,224436,2,0,L|-7:153,1,59.9999981689454,2|0,0:0|0:0,0:0:0:0:
162,101,224708,6,0,P|219:107|253:75,1,89.9999972534181,0|0,1:0|0:0,0:0:0:0:
243,77,224981,2,0,L|231:8,1,59.9999981689454
133,193,225254,2,0,L|151:298,1,89.9999972534181,8|0,0:1|0:0,0:0:0:0:
152,293,225527,5,0,0:0:0:0:
289,352,225663,1,0,1:0:0:0:
321,278,225799,2,0,P|370:256|424:271,1,89.9999972534181
413,269,226072,5,0,1:0:0:0:
373,342,226208,1,0,0:0:0:0:
289,352,226345,5,8,0:1:0:0:
462,334,226481,1,0,0:0:0:0:
453,177,226618,2,0,L|407:171,1,29.9999990844727,2|0,0:0|0:0,0:0:0:0:
462,195,226754,2,0,L|508:201,1,29.9999990844727,2|0,0:0|0:0,0:0:0:0:
303,111,226890,6,0,P|339:80|381:70,1,89.9999972534181,0|0,1:0|0:0,0:0:0:0:
387,79,227163,2,0,P|399:114|442:126,1,59.9999981689454
453,37,227436,5,8,0:1:0:0:
284,20,227572,1,0,0:0:0:0:
210,88,227708,1,0,0:0:0:0:
210,88,227845,6,0,P|161:78|142:69,2,59.9999981689454,0|0|0,1:0|0:0|0:0,0:0:0:0:
259,226,228254,1,0,1:0:0:0:
188,195,228390,2,0,P|192:175|197:153,1,29.9999990844727,0|0,3:0|3:0,0:0:0:0:
345,157,228527,1,8,3:1:0:0:
345,157,228664,6,0,L|392:166,1,40,0|8,3:0|0:1,0:0:0:0:
269,141,229072,5,4,1:0:0:0:
