osu file format v14

[General]
AudioFilename: audio.mp3
AudioLeadIn: 0
PreviewTime: 71435
Countdown: 0
SampleSet: Soft
StackLeniency: 0.1
Mode: 0
LetterboxInBreaks: 0
WidescreenStoryboard: 1

[Editor]
Bookmarks: 2162,10889,19617,37071,54526,63253,71980,80708,89435,106889,124344,141799,150526,159253,167980,176708,178889,185435,194162,211617,220344,229071,237799
DistanceSpacing: 1.4
BeatDivisor: 16
GridSize: 4
TimelineZoom: 2

[Metadata]
Title:Biscuit Funk
TitleUnicode:Biscuit Funk
Artist:Snail's House
ArtistUnicode:Snail's House
Creator:VoiceCore
Version:Calvaria's Another
Source:
Tags:-Nanako- Calvaria Ujico* snails Funk future bass electronic instrumental
BeatmapID:4044160
BeatmapSetID:1751172

[Difficulty]
HPDrainRate:5
CircleSize:5
OverallDifficulty:8
ApproachRate:9
SliderMultiplier:1.6
SliderTickRate:1

[Events]
//Background and Video events
0,0,"bg.jpg",0,0
//Break Periods
2,37273,53927
2,142000,149927
//Storyboard Layer 0 (Background)
//Storyboard Layer 1 (Fail)
//Storyboard Layer 2 (Pass)
//Storyboard Layer 3 (Foreground)
//Storyboard Layer 4 (Overlay)
//Storyboard Sound Samples

[TimingPoints]
-17,545.454545454546,4,2,2,50,1,0
2164,545.454545454546,4,2,2,60,1,0
2504,-100,4,2,2,5,0,0
2573,-100,4,2,2,60,0,0
4686,-100,4,2,2,5,0,0
4754,-100,4,2,2,60,0,0
6868,-100,4,2,2,5,0,0
6936,-100,4,2,2,60,0,0
9050,-100,4,2,2,5,0,0
9118,-100,4,2,2,60,0,0
9800,-66.6666666666667,4,2,2,60,0,0
10004,-66.6666666666667,4,2,2,5,0,0
10073,-66.6666666666667,4,2,2,60,0,0
11095,-66.6666666666667,4,2,2,5,0,0
11164,-66.6666666666667,4,2,2,60,0,0
11641,-66.6666666666667,4,2,2,5,0,0
11709,-66.6666666666667,4,2,2,60,0,0
12186,-66.6666666666667,4,2,2,5,0,0
12254,-66.6666666666667,4,2,2,60,0,0
13277,-66.6666666666667,4,2,2,5,0,0
13345,-66.6666666666667,4,2,2,60,0,0
15459,-66.6666666666667,4,2,2,5,0,0
15527,-66.6666666666667,4,2,2,60,0,0
16004,-66.6666666666667,4,2,2,5,0,0
16073,-66.6666666666667,4,2,2,60,0,0
16550,-66.6666666666667,4,2,2,5,0,0
16618,-66.6666666666667,4,2,2,60,0,0
17641,-66.6666666666667,4,2,2,5,0,0
17709,-66.6666666666667,4,2,2,60,0,0
19209,-66.6666666666667,4,2,2,50,0,0
19618,-66.6666666666667,4,2,2,60,0,0
19959,-66.6666666666667,4,2,2,5,0,0
20027,-66.6666666666667,4,2,2,60,0,0
20777,-66.6666666666667,4,2,2,5,0,0
20845,-66.6666666666667,4,2,2,60,0,0
22141,-66.6666666666667,4,2,2,5,0,0
22209,-66.6666666666667,4,2,2,60,0,0
22959,-66.6666666666667,4,2,2,5,0,0
23027,-66.6666666666667,4,2,2,60,0,0
23368,-66.6666666666667,4,2,2,5,0,0
23436,-66.6666666666667,4,2,2,60,0,0
24323,-66.6666666666667,4,2,2,5,0,0
24391,-66.6666666666667,4,2,2,60,0,0
25141,-66.6666666666667,4,2,2,5,0,0
25209,-66.6666666666667,4,2,2,60,0,0
26504,-66.6666666666667,4,2,2,5,0,0
26573,-66.6666666666667,4,2,2,60,0,0
27732,-66.6666666666667,4,2,2,5,0,0
27800,-66.6666666666667,4,2,2,60,0,0
28686,-66.6666666666667,4,2,2,5,0,0
28754,-66.6666666666667,4,2,2,60,0,0
29504,-66.6666666666667,4,2,2,5,0,0
29573,-66.6666666666667,4,2,2,60,0,0
29982,-66.6666666666667,4,2,2,50,0,0
30254,-200,4,2,2,50,0,0
30527,-66.6666666666667,4,2,2,60,0,0
30868,-66.6666666666667,4,2,2,5,0,0
30936,-66.6666666666667,4,2,2,60,0,0
31686,-66.6666666666667,4,2,2,5,0,0
31754,-66.6666666666667,4,2,2,60,0,0
32436,-50,4,2,2,50,0,0
32504,-50,4,2,2,50,0,0
32709,-66.6666666666667,4,2,2,60,0,0
33050,-66.6666666666667,4,2,2,5,0,0
33118,-66.6666666666667,4,2,2,60,0,0
33868,-66.6666666666667,4,2,2,5,0,0
33936,-66.6666666666667,4,2,2,60,0,0
35232,-66.6666666666667,4,2,2,5,0,0
35300,-66.6666666666667,4,2,2,60,0,0
36459,-66.6666666666667,4,2,2,5,0,0
36527,-66.6666666666667,4,2,2,60,0,0
37073,-66.6666666666667,4,2,2,50,0,0
54527,-66.6666666666667,4,2,2,60,0,0
71709,-55.5555555555556,4,2,2,60,0,0
71982,-55.5555555555556,4,2,2,70,0,0
73550,-55.5555555555556,4,2,2,5,0,0
73618,-55.5555555555556,4,2,2,70,0,0
79823,-55.5555555555556,4,2,2,5,0,0
79891,-55.5555555555556,4,2,2,70,0,0
81459,-55.5555555555556,4,2,2,5,0,0
81527,-55.5555555555556,4,2,2,70,0,0
82550,-55.5555555555556,4,2,2,5,0,0
82618,-55.5555555555556,4,2,2,70,0,0
84732,-55.5555555555556,4,2,2,5,0,0
84800,-55.5555555555556,4,2,2,70,0,0
85823,-55.5555555555556,4,2,2,5,0,0
85891,-55.5555555555556,4,2,2,70,0,0
86914,-55.5555555555556,4,2,2,5,0,0
86982,-55.5555555555556,4,2,2,70,0,0
90186,-55.5555555555556,4,2,2,5,0,0
90254,-55.5555555555556,4,2,2,70,0,0
92095,-55.5555555555556,4,2,2,5,0,0
92164,-55.5555555555556,4,2,2,70,0,0
92777,-55.5555555555556,4,2,2,5,0,0
92845,-55.5555555555556,4,2,2,70,0,0
93459,-55.5555555555556,4,2,2,5,0,0
93527,-55.5555555555556,4,2,2,70,0,0
96459,-55.5555555555556,4,2,2,5,0,0
96527,-55.5555555555556,4,2,2,70,0,0
99732,-55.5555555555556,4,2,2,5,0,0
99800,-55.5555555555556,4,2,2,70,0,0
101095,-55.5555555555556,4,2,2,5,0,0
101164,-55.5555555555556,4,2,2,70,0,0
104095,-55.5555555555556,4,2,2,5,0,0
104164,-55.5555555555556,4,2,2,70,0,0
105664,-55.5555555555556,4,2,2,60,0,0
106618,-66.6666666666667,4,2,2,60,0,0
107232,-66.6666666666667,4,2,2,5,0,0
107300,-66.6666666666667,4,2,2,60,0,0
108050,-66.6666666666667,4,2,2,5,0,0
108118,-66.6666666666667,4,2,2,60,0,0
109414,-66.6666666666667,4,2,2,5,0,0
109482,-66.6666666666667,4,2,2,60,0,0
110232,-66.6666666666667,4,2,2,5,0,0
110300,-66.6666666666667,4,2,2,60,0,0
111595,-66.6666666666667,4,2,2,5,0,0
111664,-66.6666666666667,4,2,2,60,0,0
112414,-66.6666666666667,4,2,2,5,0,0
112482,-66.6666666666667,4,2,2,60,0,0
113777,-66.6666666666667,4,2,2,5,0,0
113845,-66.6666666666667,4,2,2,60,0,0
115959,-66.6666666666667,4,2,2,5,0,0
116027,-66.6666666666667,4,2,2,60,0,0
116777,-66.6666666666667,4,2,2,5,0,0
116845,-66.6666666666667,4,2,2,60,0,0
117527,-100,4,2,2,60,0,0
117936,-66.6666666666667,4,2,2,60,0,0
118141,-66.6666666666667,4,2,2,5,0,0
118209,-66.6666666666667,4,2,2,60,0,0
118959,-66.6666666666667,4,2,2,5,0,0
119027,-66.6666666666667,4,2,2,60,0,0
119709,-33.3333333333333,4,2,2,60,0,0
120118,-66.6666666666667,4,2,2,60,0,0
120323,-66.6666666666667,4,2,2,5,0,0
120391,-66.6666666666667,4,2,2,60,0,0
121141,-66.6666666666667,4,2,2,5,0,0
121209,-66.6666666666667,4,2,2,60,0,0
122504,-66.6666666666667,4,2,2,5,0,0
122573,-66.6666666666667,4,2,2,60,0,0
123732,-66.6666666666667,4,2,2,5,0,0
123800,-66.6666666666667,4,2,2,60,0,0
124345,-66.6666666666667,4,2,2,50,0,0
124482,-133.333333333333,4,2,2,50,0,0
141254,-66.6666666666667,4,2,2,50,0,0
150664,-100,4,2,2,50,0,0
167982,-100,4,2,2,60,0,0
176436,-55.5555555555556,4,2,2,60,0,0
178891,-55.5555555555556,4,2,2,70,0,0
184550,-55.5555555555556,4,2,2,5,0,0
184618,-55.5555555555556,4,2,2,70,0,0
186186,-55.5555555555556,4,2,2,5,0,0
186254,-55.5555555555556,4,2,2,70,0,0
187277,-55.5555555555556,4,2,2,5,0,0
187345,-55.5555555555556,4,2,2,70,0,0
189459,-55.5555555555556,4,2,2,5,0,0
189527,-55.5555555555556,4,2,2,70,0,0
190550,-55.5555555555556,4,2,2,5,0,0
190618,-55.5555555555556,4,2,2,70,0,0
191641,-55.5555555555556,4,2,2,5,0,0
191709,-55.5555555555556,4,2,2,70,0,0
194914,-55.5555555555556,4,2,2,5,0,0
194982,-55.5555555555556,4,2,2,70,0,0
196823,-55.5555555555556,4,2,2,5,0,0
196891,-55.5555555555556,4,2,2,70,0,0
197504,-55.5555555555556,4,2,2,5,0,0
197573,-55.5555555555556,4,2,2,70,0,0
198186,-55.5555555555556,4,2,2,5,0,0
198254,-55.5555555555556,4,2,2,70,0,0
201186,-55.5555555555556,4,2,2,5,0,0
201254,-55.5555555555556,4,2,2,70,0,0
204459,-55.5555555555556,4,2,2,5,0,0
204527,-55.5555555555556,4,2,2,70,0,0
205823,-55.5555555555556,4,2,2,5,0,0
205891,-55.5555555555556,4,2,2,70,0,0
208823,-55.5555555555556,4,2,2,5,0,0
208891,-55.5555555555556,4,2,2,70,0,0
211345,-66.6666666666667,4,2,2,70,0,0
211618,-66.6666666666667,4,2,2,60,0,0
211754,-100,4,2,2,60,0,0
211959,-100,4,2,2,5,0,0
212027,-100,4,2,2,60,0,0
214141,-100,4,2,2,5,0,0
214209,-100,4,2,2,60,0,0
216323,-100,4,2,2,5,0,0
216391,-100,4,2,2,60,0,0
218504,-100,4,2,2,5,0,0
218573,-100,4,2,2,60,0,0
219254,-66.6666666666667,4,2,2,60,0,0
219459,-66.6666666666667,4,2,2,5,0,0
219527,-66.6666666666667,4,2,2,60,0,0
220550,-66.6666666666667,4,2,2,5,0,0
220618,-66.6666666666667,4,2,2,60,0,0
221095,-66.6666666666667,4,2,2,5,0,0
221164,-66.6666666666667,4,2,2,60,0,0
221641,-66.6666666666667,4,2,2,5,0,0
221709,-66.6666666666667,4,2,2,60,0,0
222732,-66.6666666666667,4,2,2,5,0,0
222800,-66.6666666666667,4,2,2,60,0,0
224914,-66.6666666666667,4,2,2,5,0,0
224982,-66.6666666666667,4,2,2,60,0,0
225459,-66.6666666666667,4,2,2,5,0,0
225527,-66.6666666666667,4,2,2,60,0,0
226004,-66.6666666666667,4,2,2,5,0,0
226073,-66.6666666666667,4,2,2,60,0,0
227095,-66.6666666666667,4,2,2,5,0,0
227164,-66.6666666666667,4,2,2,60,0,0

[Colours]
Combo1 : 128,255,128
Combo2 : 128,255,255
Combo3 : 255,166,210
Combo4 : 252,245,171

[HitObjects]
96,368,1483,5,0,3:0:0:0:
96,368,1551,1,0,3:0:0:0:
96,368,1619,2,0,L|108:248,1,120,8|0,3:2|1:0,0:0:0:0:
92,264,2164,1,4,1:0:0:0:
100,152,2300,6,0,P|72:160|48:220,1,80,0|0,0:0|0:0,0:0:0:0:
184,320,2709,2,0,P|191:291|151:240,1,80,8|0,0:1|0:0,0:0:0:0:
92,264,3118,2,0,L|148:272,1,40,0|0,1:0|0:0,0:0:0:0:
308,300,3391,5,0,0:0:0:0:
376,292,3527,1,0,1:0:0:0:
444,284,3664,1,0,0:0:0:0:
364,204,3800,5,8,0:1:0:0:
388,376,3936,1,0,0:0:0:0:
480,220,4073,1,2,0:0:0:0:
500,328,4209,1,2,0:0:0:0:
500,328,4277,1,2,0:0:0:0:
500,328,4345,1,0,1:0:0:0:
460,384,4482,6,0,L|472:292,1,80,0|0,0:0|0:0,0:0:0:0:
424,108,4891,2,0,L|413:187,1,80,8|0,0:1|0:0,0:0:0:0:
472,236,5300,2,0,L|511:230,1,40,0|0,1:0|0:0,0:0:0:0:
412,120,5573,1,0,0:0:0:0:
336,120,5709,5,2,1:2:0:0:
336,120,5845,1,2,0:0:0:0:
480,80,5982,2,0,P|492:52|500:28,1,40,8|0,0:1|0:0,0:0:0:0:
508,196,6254,2,0,P|489:171|472:152,1,40,0|0,0:0|0:0,0:0:0:0:
412,40,6527,1,0,1:0:0:0:
412,40,6664,6,0,P|376:40|324:16,1,80,0|0,0:0|0:0,0:0:0:0:
264,144,7073,2,0,P|246:112|240:55,1,80,8|0,0:1|0:0,0:0:0:0:
168,20,7482,2,0,P|144:36|128:60,1,40,0|0,1:0|0:0,0:0:0:0:
112,180,7754,5,0,0:0:0:0:
188,191,7891,1,0,1:0:0:0:
160,120,8027,1,0,0:0:0:0:
136,288,8164,5,8,0:1:0:0:
152,160,8300,1,0,0:0:0:0:
156,352,8436,1,2,0:0:0:0:
168,224,8573,1,2,0:0:0:0:
40,272,8709,5,0,1:0:0:0:
40,272,8845,2,0,P|64:264|112:304,1,80,0|0,0:0|0:0,0:0:0:0:
156,352,9254,2,0,P|108:344|80:312,1,80,8|0,0:1|0:0,0:0:0:0:
86,323,9664,1,0,1:0:0:0:
236,384,9800,6,0,P|268:340|268:268,1,120.000004577637,0|0,0:0|1:0,0:0:0:0:
270,276,10209,1,0,0:0:0:0:
271,277,10345,2,0,P|259:253|227:221,1,60.0000022888184,8|0,0:1|3:0,0:0:0:0:
168,224,10550,1,0,3:0:0:0:
148,232,10618,1,0,3:0:0:0:
296,264,10754,1,0,1:0:0:0:
240,132,10891,6,0,P|248:88|284:52,1,90.0000034332277,4|0,1:0|0:0,0:0:0:0:
277,55,11164,2,0,P|304:72|356:80,1,60.0000022888184,0|0,0:0|0:0,0:0:0:0:
428,0,11436,2,0,P|388:4|360:20,1,60.0000022888184,8|0,0:1|0:0,0:0:0:0:
356,112,11709,1,0,0:0:0:0:
356,112,11845,1,0,1:0:0:0:
370,12,11982,6,0,B|416:28|416:28|428:56|428:56|482:72,1,120.000004577637,0|0,0:0|1:0,0:0:0:0:
500,0,12391,1,0,0:0:0:0:
428,0,12527,2,0,P|404:16|384:52,1,60.0000022888184,8|0,0:1|0:0,0:0:0:0:
436,136,12800,2,0,L|476:144,3,30.0000011444092,2|2|2|2,0:0|0:0|0:0|0:0,0:0:0:0:
465,141,13073,5,0,1:0:0:0:
412,204,13209,2,0,P|412:248|472:308,1,120.000004577637
472,284,13618,2,0,L|392:288,1,60.0000022888184,8|0,0:1|0:0,0:0:0:0:
344,352,13891,1,0,0:0:0:0:
284,224,14027,1,0,1:0:0:0:
284,224,14164,6,0,P|263:254|256:296,1,60.0000022888184,0|0,0:0|0:0,0:0:0:0:
344,352,14436,2,0,P|340:304|320:272,1,60.0000022888184,0|0,1:0|0:0,0:0:0:0:
256,276,14709,1,8,0:1:0:0:
272,352,14845,2,0,L|268:396,2,30.0000011444092,2|2|2,0:1|0:0|0:0,0:0:0:0:
304,208,15118,1,0,0:0:0:0:
304,208,15254,6,0,P|287:150|244:128,1,90.0000034332277,0|0,1:0|0:0,0:0:0:0:
265,133,15527,2,0,L|260:212,1,60.0000022888184,0|0,0:0|0:0,0:0:0:0:
184,40,15800,2,0,L|189:118,1,60.0000022888184,8|0,0:1|0:0,0:0:0:0:
188,99,16073,1,0,0:0:0:0:
88,208,16209,1,0,1:0:0:0:
88,208,16345,6,0,P|40:192|12:116,1,120.000004577637,0|0,0:0|1:0,0:0:0:0:
32,48,16754,2,0,P|56:56|80:88,1,60.0000022888184,0|8,0:0|0:1,0:0:0:0:
128,204,17027,1,0,0:0:0:0:
64,180,17164,1,2,0:0:0:0:
140,168,17300,1,2,0:0:0:0:
200,292,17436,5,0,1:0:0:0:
200,292,17573,2,0,L|72:312,1,120.000004577637,0|0,0:0|0:0,0:0:0:0:
160,316,17982,2,0,P|204:324|240:340,1,60.0000022888184,8|0,0:1|0:0,0:0:0:0:
288,376,18254,1,0,0:0:0:0:
272,276,18391,1,0,1:0:0:0:
376,288,18527,6,0,B|400:280|400:280|432:244|424:176,1,120.000004577637,0|0,0:0|1:0,0:0:0:0:
376,128,18936,1,2,0:0:0:0:
376,128,19004,1,0,0:0:0:0:
376,128,19073,1,8,3:1:0:0:
460,32,19345,6,0,L|464:92,1,60.0000022888184,0|8,0:0|0:1,0:0:0:0:
456,108,19618,1,4,1:0:0:0:
436,220,19754,6,0,P|480:216|508:144,1,120.000004577637,0|0,0:0|0:0,0:0:0:0:
460,32,20163,2,0,P|412:40|388:116,1,120.000004577637,8|0,0:1|0:0,0:0:0:0:
456,108,20572,2,0,L|388:100,1,60.0000022888184,0|0,1:0|0:0,0:0:0:0:
264,140,20845,1,0,1:0:0:0:
260,168,20982,2,0,P|240:128|240:104,1,60.0000022888184,0|0,1:0|0:0,0:0:0:0:
272,40,21254,5,8,0:1:0:0:
394,146,21391,1,0,0:0:0:0:
344,36,21527,1,2,0:0:0:0:
180,64,21664,1,2,0:0:0:0:
180,64,21732,1,2,0:0:0:0:
180,64,21800,1,0,1:0:0:0:
232,15,21936,6,0,P|204:35|162:122,1,120.000004577637,0|0,0:0|0:0,0:0:0:0:
96,220,22345,2,0,L|88:140,1,60.0000022888184,8|0,0:1|0:0,0:0:0:0:
90,160,22618,1,0,0:0:0:0:
24,284,22754,2,0,P|60:260|72:228,1,60.0000022888184,0|0,1:0|0:0,0:0:0:0:
32,64,23027,5,0,1:0:0:0:
120,188,23164,2,0,P|148:216|196:232,1,90.0000034332277,0|0,1:0|0:0,0:0:0:0:
194,231,23436,2,0,L|279:219,1,60.0000022888184,8|0,0:1|0:0,0:0:0:0:
128,280,23709,2,0,L|213:268,1,60.0000022888184,0|0,0:0|0:0,0:0:0:0:
380,332,23982,1,0,1:0:0:0:
380,332,24118,6,0,P|364:292|372:204,1,120.000004577637,0|0,0:0|0:0,0:0:0:0:
452,216,24527,2,0,B|440:156|440:156|384:132,1,120.000004577637,8|0,0:1|0:0,0:0:0:0:
367,216,24936,2,0,P|345:236|332:263,1,60.0000022888184,0|0,1:0|0:0,0:0:0:0:
408,276,25209,5,0,1:0:0:0:
385,132,25345,1,0,1:0:0:0:
272,208,25482,2,0,P|248:172|244:136,1,60.0000022888184,0|8,0:0|0:1,0:0:0:0:
367,216,25754,5,0,0:0:0:0:
443,133,25891,2,0,P|414:127|385:132,1,60.0000022888184,0|0,0:0|0:0,0:0:0:0:
316,108,26164,1,0,1:0:0:0:
385,132,26300,6,0,P|312:104|288:72,1,120.000004577637,0|0,0:0|0:0,0:0:0:0:
240,16,26709,2,0,L|252:80,2,60.0000022888184,8|0|0,0:1|0:0|0:0,0:0:0:0:
240,16,27118,1,0,1:0:0:0:
116,104,27254,5,0,0:0:0:0:
176,0,27391,1,0,1:0:0:0:
224,80,27527,2,0,L|200:184,1,90.0000034332277,0|0,1:0|0:0,0:0:0:0:
203,167,27800,2,0,P|168:140|156:116,1,60.0000022888184,8|0,0:1|0:0,0:0:0:0:
304,72,28073,2,0,P|264:88|240:120,1,60.0000022888184,0|0,0:0|0:0,0:0:0:0:
252,99,28345,1,4,1:0:0:0:
328,248,28482,6,0,P|416:232|436:208,1,120.000004577637,0|0,0:0|0:0,0:0:0:0:
312,180,28891,2,0,P|295:204|286:233,1,60.0000022888184,8|0,0:1|0:0,0:0:0:0:
433,212,29164,1,0,0:0:0:0:
433,212,29300,2,0,P|441:240|437:288,1,60.0000022888184,0|0,1:0|0:0,0:0:0:0:
368,308,29573,5,0,1:0:0:0:
216,268,29709,1,0,1:0:0:0:
301,371,29845,2,0,L|292:312,1,60.0000022888184,0|8,0:0|0:1,0:0:0:0:
328,247,30118,1,2,0:1:0:0:
216,268,30254,6,0,P|219:282|223:297,1,30,0|0,0:0|0:0,0:0:0:0:
222,298,30527,1,0,1:0:0:0:
260,208,30664,6,0,P|254:148|224:97,1,120.000004577637,0|0,0:0|0:0,0:0:0:0:
200,28,31073,2,0,L|192:96,1,60.0000022888184,8|0,0:1|0:0,0:0:0:0:
332,64,31345,1,0,0:0:0:0:
332,64,31482,2,0,L|324:132,1,60.0000022888184,0|0,1:0|0:0,0:0:0:0:
192,87,31754,5,0,1:0:0:0:
120,132,31891,2,0,P|156:164|192:168,1,60.0000022888184,0|0,1:0|0:0,0:0:0:0:
324,123,32164,2,0,L|392:131,1,60.0000022888184,8|0,0:1|0:0,0:0:0:0:
276,172,32436,2,0,L|203:180,1,40,2|0,0:0|0:0,0:0:0:0:
309,193,32709,5,0,1:0:0:0:
309,193,32845,2,0,P|280:223|281:171,1,120.000004577637,0|0,0:0|0:0,0:0:0:0:
388,196,33254,2,0,P|424:226|436:261,1,60.0000022888184,8|0,0:1|0:0,0:0:0:0:
324,284,33527,1,0,0:0:0:0:
324,284,33664,2,0,P|294:320|259:332,1,60.0000022888184,0|0,1:0|0:0,0:0:0:0:
388,292,33936,5,0,1:0:0:0:
512,308,34073,2,0,L|444:300,1,60.0000022888184,0|0,1:0|0:0,0:0:0:0:
283,325,34345,2,0,L|215:333,1,60.0000022888184,8|0,0:1|0:0,0:0:0:0:
112,344,34618,5,0,0:0:0:0:
256,252,34754,1,0,0:0:0:0:
200,360,34891,1,0,1:0:0:0:
116,220,35027,6,0,B|124:272|166:293|166:293|184:264,1,120.000004577637,0|0,0:0|0:0,0:0:0:0:
180,269,35436,2,0,B|188:216|188:216|176:200|176:200|164:148,1,120.000004577637,8|0,0:1|0:0,0:0:0:0:
128,48,35845,6,0,P|108:80|108:112,1,60.0000022888184,0|0,1:0|0:0,0:0:0:0:
165,154,36118,1,0,0:0:0:0:
248,104,36254,2,0,L|189:92,1,60.0000022888184,0|0,1:0|0:0,0:0:0:0:
224,204,36527,5,8,0:1:0:0:
304,64,36664,1,0,3:0:0:0:
274,69,36732,1,0,3:0:0:0:
245,75,36800,1,0,3:0:0:0:
288,192,36936,1,0,1:0:0:0:
256,0,37073,5,4,1:0:0:0:
80,260,54527,5,0,3:0:0:0:
108,52,55073,2,0,P|124:84|132:116,1,60.0000022888184,8|0,3:2|0:0,0:0:0:0:
64,248,55482,2,0,L|184:240,1,120.000004577637,0|0,3:0|0:0,0:0:0:0:
316,284,55891,2,0,P|292:312|268:324,1,60.0000022888184,0|0,3:0|0:0,0:0:0:0:
204,304,56164,5,8,3:2:0:0:
204,304,56300,1,0,0:0:0:0:
312,216,56436,2,0,P|340:220|376:244,1,60.0000022888184,0|0,0:0|0:0,0:0:0:0:
412,328,56709,2,0,L|396:144,1,180.000006866455,0|0,3:0|0:0,0:0:0:0:
448,88,57254,2,0,P|460:60|488:40,1,60.0000022888184,8|0,3:2|0:0,0:0:0:0:
396,148,57664,6,0,P|352:124|276:112,1,120.000004577637,0|0,3:0|0:0,0:0:0:0:
196,72,58073,2,0,L|208:132,1,60.0000022888184,8|0,3:2|0:0,0:0:0:0:
271,52,58345,2,0,L|283:112,1,60.0000022888184,8|0,3:2|0:0,0:0:0:0:
132,160,58618,6,0,L|136:128,3,30.0000011444092,2|2|2|2,0:0|0:0|0:0|0:0,0:0:0:0:
120,160,58891,2,0,P|116:116|164:48,1,120.000004577637,0|0,3:0|0:0,0:0:0:0:
168,224,59300,1,0,0:0:0:0:
168,224,59436,2,0,L|156:348,1,120.000004577637,8|0,3:2|0:0,0:0:0:0:
84,236,59845,2,0,P|32:240|44:292,1,120.000004577637,0|0,3:0|0:0,0:0:0:0:
110,378,60254,2,0,P|146:358|158:338,1,60.0000022888184,0|0,3:0|0:0,0:0:0:0:
0,316,60527,6,0,L|60:312,1,60.0000022888184,8|0,3:2|0:0,0:0:0:0:
155,342,60800,2,0,P|214:339|267:367,1,120.000004577637,0|0,0:0|3:0,0:0:0:0:
424,360,61482,5,0,0:0:0:0:
388,296,61618,2,0,L|403:176,1,120.000004577637,8|0,3:2|0:0,0:0:0:0:
348,276,62027,2,0,P|370:296|404:384,1,120.000004577637,0|0,3:0|0:0,0:0:0:0:
496,232,62436,6,0,L|432:240,1,60.0000022888184,8|0,3:2|0:0,0:0:0:0:
424,360,62709,2,0,L|360:368,1,60.0000022888184,8|0,3:2|0:0,0:0:0:0:
328,308,62982,1,0,0:0:0:0:
336,244,63118,1,0,0:0:0:0:
220,104,63254,5,0,1:0:0:0:
220,104,63391,2,0,P|220:136|228:164,1,60.0000022888184,2|0,0:0|0:0,0:0:0:0:
144,60,63664,2,0,P|158:86|179:107,1,60.0000022888184,2|8,0:0|3:2,0:0:0:0:
272,276,63936,2,0,P|287:250|294:221,1,60.0000022888184,2|0,0:0|0:0,0:0:0:0:
344,56,64209,2,0,P|308:60|316:136,1,120.000004577637,2|2,1:2|0:0,0:0:0:0:
305,130,64618,5,0,1:0:0:0:
268,64,64754,1,2,0:0:0:0:
376,132,64891,1,8,3:2:0:0:
376,132,65027,2,0,P|344:156|260:144,1,120.000004577637,2|0,0:0|0:0,0:0:0:0:
192,64,65436,6,0,P|148:52|108:112,1,120.000004577637,0|0,1:0|0:0,0:0:0:0:
12,172,65845,2,0,L|4:112,1,60.0000022888184,2|8,0:0|3:2,0:0:0:0:
104,192,66118,2,0,L|96:132,1,60.0000022888184,2|0,0:0|0:0,0:0:0:0:
60,272,66391,2,0,L|67:212,1,60.0000022888184,2|0,1:2|0:0,0:0:0:0:
267,149,66664,5,0,0:0:0:0:
267,149,66800,2,0,P|267:173|243:205,1,60.0000022888184,0|0,1:0|0:0,0:0:0:0:
216,92,67073,1,8,3:2:0:0:
172,220,67209,2,0,P|148:237|119:244,2,60.0000022888184,0|0|0,0:0|0:0|0:0,0:0:0:0:
303,335,67618,6,0,L|375:347,1,60.0000022888184,0|2,1:0|0:0,0:0:0:0:
296,224,68027,1,2,0:0:0:0:
296,224,68164,6,0,L|352:270,1,60.0000022888184,8|2,1:2|0:0,0:0:0:0:
348,120,68573,1,2,0:0:0:0:
348,120,68709,6,0,L|373:188,1,60.0000022888184,0|2,1:0|0:0,0:0:0:0:
436,44,68982,2,0,L|423:115,1,60.0000022888184,0|2,0:0|0:0,0:0:0:0:
425,103,69254,1,8,1:2:0:0:
440,181,69391,2,0,P|380:165|346:112,1,120.000004577637,2|0,0:0|0:0,0:0:0:0:
340,24,69800,6,0,P|316:28|276:48,1,60.0000022888184,0|0,1:0|0:0,0:0:0:0:
216,8,70073,2,0,P|197:23|172:60,1,60.0000022888184,0|0,1:0|0:0,0:0:0:0:
283,42,70345,1,0,1:0:0:0:
176,52,70482,1,0,1:0:0:0:
232,116,70618,5,0,1:0:0:0:
84,52,70754,1,0,1:0:0:0:
100,208,70891,1,0,1:0:0:0:
152,124,71027,6,0,L|128:112,12,15.0000005722046,0|0|0|0|0|0|0|0|0|0|0|0|8,0:0|0:0|0:0|0:0|0:0|0:0|0:0|0:0|3:0|0:0|3:0|0:0|3:1,0:0:0:0:
344,200,71573,1,0,1:0:0:0:
328,216,71709,2,0,P|316:196|312:176,1,35.9999989013672,0|0,0:0|0:0,0:0:0:0:
290,117,71845,2,0,P|306:141|310:193,1,71.9999978027344,8|4,3:1|1:0,0:0:0:0:
332,308,72118,6,0,P|340:257|412:204,1,143.999995605469,2|0,0:1|0:0,0:0:0:0:
424,244,72527,2,0,P|453:263|461:303,1,71.9999978027344,8|0,0:1|0:0,0:0:0:0:
352,372,72800,1,0,0:0:0:0:
352,372,72936,2,0,B|319:378|319:378|291:364|291:364|200:360,1,143.999995605469,2|0,1:0|0:0,0:0:0:0:
212,360,73345,1,0,1:0:0:0:
240,236,73482,5,0,0:0:0:0:
212,170,73618,2,0,P|228:194|240:246,1,71.9999978027344,8|0,0:1|0:0,0:0:0:0:
136,276,73891,1,0,0:0:0:0:
136,276,74027,2,0,P|120:308|112:356,1,71.9999978027344,0|0,0:0|1:0,0:0:0:0:
239,235,74300,6,0,P|282:179|230:127,1,143.999995605469,2|0,0:1|0:0,0:0:0:0:
216,88,74709,2,0,L|128:96,1,71.9999978027344,10|0,0:1|0:0,0:0:0:0:
296,56,74982,1,0,0:0:0:0:
296,56,75118,2,0,L|221:47,1,71.9999978027344,2|0,1:0|0:0,0:0:0:0:
87,51,75391,5,0,0:0:0:0:
87,51,75527,2,0,P|127:75|147:99,1,71.9999978027344,0|0,1:0|0:0,0:0:0:0:
111,175,75800,2,0,P|121:191|127:209,2,35.9999989013672,8|0|0,0:1|0:0|0:0,0:0:0:0:
76,164,76073,1,2,0:0:0:0:
124,104,76209,5,2,0:0:0:0:
124,104,76345,2,0,L|120:260,1,143.999995605469,0|0,1:0|0:0,0:0:0:0:
64,296,76754,2,0,P|72:332|96:372,1,71.9999978027344,2|8,0:1|0:1,0:0:0:0:
336,328,77164,5,0,0:0:0:0:
403,308,77300,2,0,P|334:329|263:323,1,143.999995605469,2|0,1:0|0:0,0:0:0:0:
348,252,77709,2,0,P|336:216|340:172,1,71.9999978027344,2|0,1:0|0:0,0:0:0:0:
432,104,77982,2,0,L|437:68,2,35.9999989013672,8|0|0,0:1|0:0|0:0,0:0:0:0:
472,292,78254,2,0,L|496:328,2,35.9999989013672,2|2|2,0:0|0:0|0:0,0:0:0:0:
468,164,78527,6,0,P|424:140|400:140,1,71.9999978027344,0|0,1:0|0:1,0:0:0:0:
360,32,78800,2,0,P|336:76|336:100,1,71.9999978027344,2|0,0:1|0:0,0:0:0:0:
335,96,79073,1,10,0:1:0:0:
196,192,79209,2,0,L|288:172,1,71.9999978027344,0|0,0:0|0:0,0:0:0:0:
176,44,79482,6,0,P|236:76|240:164,1,143.999995605469,2|0,1:0|0:0,0:0:0:0:
247,146,79891,1,0,1:0:0:0:
180,120,80027,1,0,0:0:0:0:
60,232,80164,1,8,0:1:0:0:
136,236,80300,5,0,3:0:0:0:
164,224,80368,1,0,3:0:0:0:
176,196,80436,1,0,3:0:0:0:
64,120,80573,1,0,1:0:0:0:
0,156,80709,6,0,P|64:188|132:144,1,143.999995605469,6|0,1:0|0:0,0:0:0:0:
123,157,81118,1,0,0:0:0:0:
40,92,81254,2,0,L|28:20,2,71.9999978027344,8|0|0,0:1|0:0|0:0,0:0:0:0:
116,268,81664,5,2,1:0:0:0:
96,188,81800,2,0,P|76:244|88:280,1,71.9999978027344,0|0,0:0|0:0,0:0:0:0:
154,379,82073,2,0,P|136:347|98:331,1,71.9999978027344,0|2,1:0|0:1,0:0:0:0:
106,332,82345,1,8,0:1:0:0:
297,298,82482,2,0,P|295:333|272:360,1,71.9999978027344,0|2,0:0|0:0,0:0:0:0:
208,320,82754,5,2,0:0:0:0:
208,308,82823,1,2,0:0:0:0:
216,296,82891,2,0,B|280:264|284:344|360:312,1,143.999995605469,0|2,1:0|0:1,0:0:0:0:
444,244,83300,1,0,0:0:0:0:
444,244,83436,2,0,L|360:256,1,71.9999978027344,10|0,0:1|0:0,0:0:0:0:
512,280,83709,2,0,L|428:268,1,71.9999978027344,0|2,0:0|1:0,0:0:0:0:
362,219,83982,5,0,0:0:0:0:
436,300,84118,1,0,0:0:0:0:
436,300,84254,2,0,B|472:284|472:284|496:228|460:168,1,143.999995605469,0|8,1:0|0:1,0:0:0:0:
368,100,84664,2,0,P|336:128|328:180,1,71.9999978027344,0|0,0:0|0:0,0:0:0:0:
326,155,84936,1,0,0:0:0:0:
468,184,85073,6,0,B|400:172|400:172|392:216|392:216|328:224,1,143.999995605469,2|0,1:0|0:0,0:0:0:0:
248,140,85482,1,0,0:0:0:0:
273,205,85618,2,0,P|253:173|248:136,1,71.9999978027344,8|0,0:1|0:0,0:0:0:0:
326,155,85891,1,0,0:0:0:0:
397,145,86027,6,0,L|309:157,1,71.9999978027344,2|0,1:0|0:0,0:0:0:0:
240,68,86300,2,0,L|152:56,1,71.9999978027344,0|0,0:0|1:0,0:0:0:0:
148,192,86573,1,2,0:1:0:0:
72,204,86709,1,8,0:1:0:0:
20,72,86845,2,0,P|12:44|20:0,1,71.9999978027344,0|0,0:0|0:0,0:0:0:0:
18,2,87118,1,0,0:0:0:0:
88,136,87254,6,0,L|76:296,1,143.999995605469,0|0,1:0|0:0,0:0:0:0:
152,284,87664,1,0,0:0:0:0:
204,160,87800,2,0,P|172:184|156:216,1,71.9999978027344,10|0,0:1|0:0,0:0:0:0:
157,211,88073,1,0,0:0:0:0:
228,368,88209,5,2,1:0:0:0:
228,368,88345,2,0,P|264:356|212:348,1,143.999995605469,0|0,1:0|1:0,0:0:0:0:
340,376,88754,2,0,P|368:360|376:348,1,35.9999989013672,0|0,3:0|3:0,0:0:0:0:
369,357,88891,2,0,P|356:347|337:217,1,143.999995605469,8|0,3:1|0:0,0:0:0:0:
330,230,89300,1,0,3:0:0:0:
504,120,89436,5,4,1:0:0:0:
472,256,89573,2,0,P|500:236|484:188,1,71.9999978027344,0|0,0:1|0:0,0:0:0:0:
420,180,89845,1,0,0:0:0:0:
424,84,89982,2,0,L|436:180,1,71.9999978027344,10|0,0:1|0:0,0:0:0:0:
408,288,90254,1,0,0:0:0:0:
412,384,90391,2,0,B|424:312|424:312|412:272|376:256,1,143.999995605469,2|0,1:0|0:0,0:0:0:0:
296,280,90800,5,0,1:0:0:0:
212,296,90936,2,0,L|292:312,1,71.9999978027344,0|8,0:0|0:1,0:0:0:0:
228,196,91209,1,2,0:1:0:0:
228,196,91345,2,0,L|156:184,1,71.9999978027344,0|2,0:0|0:0,0:0:0:0:
12,164,91618,2,0,P|0:124|96:116,1,143.999995605469,0|2,1:0|0:1,0:0:0:0:
77,90,92027,5,0,0:0:0:0:
40,176,92164,2,0,P|43:211|66:238,1,71.9999978027344,10|0,0:1|0:0,0:0:0:0:
96,328,92436,5,0,0:0:0:0:
96,328,92573,2,0,P|111:291|146:271,1,71.9999978027344,2|0,1:0|0:0,0:0:0:0:
200,316,92845,1,0,1:0:0:0:
264,356,92982,2,0,L|348:340,1,71.9999978027344,0|0,1:0|0:0,0:0:0:0:
334,342,93254,5,8,0:1:0:0:
512,364,93391,1,0,0:0:0:0:
402,283,93527,2,0,L|410:343,1,35.9999989013672,2|0,0:1|0:0,0:0:0:0:
442,371,93664,2,0,P|410:351|414:307,1,71.9999978027344,0|0,0:0|1:0,0:0:0:0:
468,252,93936,6,0,P|492:226|509:194,1,71.9999978027344,0|0,0:1|0:0,0:0:0:0:
352,72,94209,1,0,0:0:0:0:
352,72,94345,2,0,L|368:220,1,143.999995605469,10|0,0:1|0:0,0:0:0:0:
367,215,94754,2,0,P|387:171|375:123,1,71.9999978027344,2|0,1:0|0:0,0:0:0:0:
328,88,95027,1,0,1:0:0:0:
316,160,95164,6,0,P|268:132|252:100,1,71.9999978027344,0|0,1:0|0:0,0:0:0:0:
92,96,95436,2,0,P|96:33|115:19,1,71.9999978027344,8|2,0:1|0:1,0:0:0:0:
116,20,95641,1,2,0:0:0:0:
136,16,95709,1,2,0:0:0:0:
188,72,95845,1,2,0:1:0:0:
175,147,95982,6,0,L|272:156,1,71.9999978027344,0|2,1:0|0:1,0:0:0:0:
259,119,96186,1,0,0:0:0:0:
259,119,96254,2,0,P|259:163|227:195,1,71.9999978027344,0|0,0:0|0:0,0:0:0:0:
124,284,96527,2,0,B|152:324|152:324|252:348,1,143.999995605469,8|0,0:1|0:0,0:0:0:0:
328,280,96936,5,0,1:0:0:0:
226,276,97073,2,0,L|246:352,1,71.9999978027344,0|0,0:0|1:0,0:0:0:0:
347,214,97345,2,0,P|346:249|327:279,1,71.9999978027344,0|0,1:0|0:0,0:0:0:0:
226,276,97618,2,0,P|298:260|306:336,1,143.999995605469,8|0,0:1|0:0,0:0:0:0:
318,313,98027,1,0,0:0:0:0:
416,368,98164,6,0,L|504:360,1,71.9999978027344,4|2,1:0|0:1,0:0:0:0:
276,228,98573,1,0,0:0:0:0:
276,228,98709,2,0,B|236:224|236:224|216:192|216:192|120:176,1,143.999995605469,8|0,0:1|0:0,0:0:0:0:
150,181,99118,2,0,P|195:175|235:151,1,71.9999978027344,2|0,1:0|0:0,0:0:0:0:
227,55,99391,5,0,1:0:0:0:
227,55,99527,2,0,P|286:29|314:88,1,143.999995605469,2|8,1:0|0:1,0:0:0:0:
218,162,99936,2,0,P|199:193|195:229,1,71.9999978027344,0|0,0:1|0:0,0:0:0:0:
32,88,100345,5,0,1:0:0:0:
96,116,100482,2,0,L|190:103,1,71.9999978027344,2|0,0:1|0:0,0:0:0:0:
292,160,100754,1,0,0:0:0:0:
292,160,100891,2,0,P|296:120|316:84,1,71.9999978027344,10|0,0:1|0:0,0:0:0:0:
309,91,101164,5,0,0:0:0:0:
344,216,101300,2,0,L|352:296,1,71.9999978027344,2|0,1:0|0:0,0:0:0:0:
292,160,101573,5,0,1:0:0:0:
257,285,101709,2,0,L|249:365,1,71.9999978027344,0|0,1:0|0:0,0:0:0:0:
312,232,101982,5,8,0:1:0:0:
280,296,102118,1,0,0:1:0:0:
216,336,102254,1,0,0:0:0:0:
72,308,102391,1,2,0:1:0:0:
0,328,102527,5,0,1:0:0:0:
0,328,102664,2,0,L|160:340,1,143.999995605469,0|0,0:0|0:0,0:0:0:0:
200,224,103073,2,0,P|174:198|143:181,1,71.9999978027344,10|0,0:1|0:0,0:0:0:0:
143,181,103345,1,0,0:0:0:0:
112,104,103482,6,0,L|118:32,1,71.9999978027344,2|0,1:0|0:0,0:0:0:0:
143,181,103754,2,0,L|127:85,1,71.9999978027344,0|0,1:0|1:0,0:0:0:0:
201,44,104027,1,0,0:0:0:0:
201,44,104164,2,0,P|141:36|119:118,1,143.999995605469,10|0,0:1|0:0,0:0:0:0:
111,103,104573,1,2,0:1:0:0:
216,148,104709,5,0,1:0:0:0:
242,213,104845,2,0,P|234:178|216:148,1,71.9999978027344,0|0,0:0|0:0,0:0:0:0:
84,204,105118,1,0,0:0:0:0:
84,204,105254,2,0,L|172:216,1,71.9999978027344,8|0,0:1|0:0,0:0:0:0:
336,228,105527,1,0,0:0:0:0:
344,248,105664,5,0,1:0:0:0:
204,273,106209,5,0,3:0:0:0:
204,273,106277,1,0,3:0:0:0:
204,273,106345,1,0,3:0:0:0:
264,336,106482,6,0,P|276:324|288:292,1,35.9999989013672,0|0,3:0|3:0,0:0:0:0:
344,248,106618,2,0,P|320:204|296:184,1,60.0000022888184,8|0,3:1|1:0,0:0:0:0:
284,307,106891,1,4,1:0:0:0:
358,330,107027,6,0,B|450:301|450:301|430:290,1,120.000004577637,0|0,0:3|0:3,0:3:0:0:
284,307,107436,2,0,B|192:276|192:276|208:308,1,120.000004577637,8|0,0:1|0:3,0:3:0:0:
324,375,107845,2,0,P|355:346|360:327,1,60.0000022888184,0|0,1:0|0:0,0:0:0:0:
204,299,108118,5,0,1:0:0:0:
128,324,108254,1,0,1:0:0:0:
120,188,108391,1,0,0:0:0:0:
56,344,108527,1,8,0:1:0:0:
152,252,108664,2,0,L|140:184,1,60.0000022888184,0|2,0:0|0:0,0:0:0:0:
88,124,108936,5,2,0:0:0:0:
88,124,109004,1,2,0:0:0:0:
88,124,109073,1,0,1:0:0:0:
48,188,109209,6,0,L|66:311,1,120.000004577637
88,124,109618,2,0,L|75:248,1,120.000004577637,8|0,0:1|0:0,0:0:0:0:
136,300,110027,2,0,P|152:288|176:248,1,60.0000022888184,0|0,1:0|0:0,0:0:0:0:
184,168,110300,5,0,1:0:0:0:
248,204,110436,2,0,L|260:268,1,60.0000022888184,2|2,1:2|0:0,0:0:0:0:
384,108,110709,2,0,P|376:136|348:160,1,60.0000022888184,8|0,0:1|0:0,0:0:0:0:
268,136,110982,5,0,0:0:0:0:
360,220,111118,1,0,0:0:0:0:
300,120,111254,1,0,1:0:0:0:
328,240,111391,6,0,P|272:232|200:184,1,120.000004577637,0|0,0:0|0:0,0:0:0:0:
216,132,111800,2,0,P|230:169|216:252,1,120.000004577637,8|0,0:1|0:0,0:0:0:0:
268,312,112209,2,0,L|272:376,1,60.0000022888184,0|0,1:0|0:0,0:0:0:0:
424,304,112482,5,0,1:0:0:0:
348,276,112618,1,0,1:0:0:0:
488,368,112754,1,0,0:0:0:0:
496,208,112891,2,0,L|484:144,1,60.0000022888184,8|0,0:1|0:0,0:0:0:0:
399,298,113164,2,0,L|408:225,1,60.0000022888184
384,136,113436,5,0,1:0:0:0:
352,196,113573,2,0,P|357:250|399:298,1,120.000004577637
384,136,113982,2,0,P|349:155|312:236,1,120.000004577637,8|0,0:1|0:0,0:0:0:0:
312,223,114391,1,0,1:0:0:0:
224,108,114527,6,0,L|216:44,2,60.0000022888184,0|0|0,0:0|1:0|1:0,0:0:0:0:
216,256,114936,1,0,0:0:0:0:
252,196,115073,2,0,P|248:160|156:136,1,120.000004577637,8|0,0:1|0:0,0:0:0:0:
72,220,115482,1,0,0:0:0:0:
80,240,115618,1,4,1:0:0:0:
127,175,115754,6,0,L|136:40,1,120.000004577637,0|0,0:0|0:0,0:0:0:0:
80,240,116164,2,0,P|40:264|-44:232,1,120.000004577637,8|0,0:1|0:0,0:0:0:0:
100,124,116573,2,0,P|123:158|129:184,1,60.0000022888184,0|0,1:0|0:0,0:0:0:0:
136,292,116845,5,0,1:0:0:0:
176,232,116982,1,0,1:0:0:0:
184,372,117118,1,0,0:0:0:0:
264,240,117254,1,8,0:1:0:0:
312,360,117391,5,2,3:1:0:0:
312,360,117459,1,0,3:0:0:0:
312,360,117527,2,0,L|352:352,1,40,0|0,3:0|0:0,0:0:0:0:
351,352,117800,5,0,1:0:0:0:
420,208,117936,2,0,B|432:252|408:292|408:292|435:346,1,120.000004577637,0|0,0:0|0:0,0:0:0:0:
492,292,118345,2,0,P|499:264|503:232,1,60.0000022888184,8|0,0:1|0:0,0:0:0:0:
364,276,118617,1,0,0:0:0:0:
423,322,118754,2,0,L|415:390,1,60.0000022888184,0|0,1:0|0:0,0:0:0:0:
344,208,119026,5,0,1:0:0:0:
284,160,119163,2,0,P|320:128|356:124,1,60.0000022888184,0|0,1:0|0:0,0:0:0:0:
504,232,119436,2,0,L|444:224,1,60.0000022888184,8|0,0:1|0:0,0:0:0:0:
432,56,119709,6,0,B|368:44|380:-12|440:-4|408:64|408:64|392:92|348:108|408:192|440:172,1,240.000009155274,2|0,0:0|1:0,0:0:0:0:
272,232,120118,2,0,P|228:240|176:192,1,120.000004577637,0|0,0:0|0:0,0:0:0:0:
212,124,120526,2,0,L|196:208,1,60.0000022888184,8|0,0:1|0:0,0:0:0:0:
268,320,120799,1,0,0:0:0:0:
268,320,120936,2,0,P|238:356|203:368,1,60.0000022888184,0|0,1:0|0:0,0:0:0:0:
148,272,121208,5,0,1:0:0:0:
128,360,121345,2,0,L|120:292,1,60.0000022888184,0|0,1:0|0:0,0:0:0:0:
227,361,121617,2,0,P|267:374|295:369,1,60.0000022888184,8|0,0:1|0:0,0:0:0:0:
212,336,121890,5,0,0:0:0:0:
148,368,122026,1,0,0:0:0:0:
283,372,122163,1,0,1:0:0:0:
228,240,122300,6,0,P|268:248|316:312,1,120.000004577637,0|0,0:0|0:0,0:0:0:0:
400,344,122709,2,0,B|396:360|396:360|332:340|356:272,1,120.000004577637,8|0,0:1|0:0,0:0:0:0:
425,202,123117,6,0,L|440:144,1,60.0000022888184,0|0,1:0|0:0,0:0:0:0:
464,64,123390,1,0,0:0:0:0:
291,100,123526,2,0,L|232:112,1,60.0000022888184,0|0,1:0|0:0,0:0:0:0:
344,32,123800,2,0,L|404:88,1,60.0000022888184,8|0,0:1|3:0,0:0:0:0:
376,104,124004,1,0,3:0:0:0:
376,104,124072,5,0,1:0:0:0:
208,88,124208,1,0,0:0:0:0:
36,72,124345,1,4,1:0:0:0:
64,100,124482,6,0,L|72:172,1,60.0000022888184,0|0,0:0|0:0,0:0:0:0:
70,159,124891,1,10,0:0:0:0:
88,312,125164,1,0,0:0:0:0:
108,288,125300,2,0,P|96:268|36:224,1,90.0000034332277,2|2,0:0|0:0,0:0:0:0:
16,256,125845,2,0,L|55:252,1,30.0000011444092,0|8,0:0|0:0,0:0:0:0:
144,208,126118,5,2,0:0:0:0:
140,224,126254,1,0,0:0:0:0:
176,304,126391,2,0,L|168:336,1,30.0000011444092,2|0,0:0|0:0,0:0:0:0:
288,280,126800,2,0,P|268:312|244:328,1,60.0000022888184,0|10,0:0|0:0,0:0:0:0:
250,324,127209,5,0,0:0:0:0:
264,320,127345,1,0,0:0:0:0:
356,296,127482,2,0,B|388:304|388:304|404:332,1,60.0000022888184,0|0,0:0|0:0,0:0:0:0:
401,327,127891,6,0,L|396:288,1,30.0000011444092,10|0,0:0|0:0,0:0:0:0:
464,172,128300,1,0,0:0:0:0:
472,156,128436,2,0,L|468:124,1,30.0000011444092,0|0,0:0|0:0,0:0:0:0:
468,126,128845,6,0,P|428:142|412:158,1,60.0000022888184,2|0,0:0|0:0,0:0:0:0:
392,28,129254,2,0,P|365:61|359:83,1,60.0000022888184,10|2,0:0|0:0,0:0:0:0:
360,77,129664,1,2,0:0:0:0:
280,124,129936,1,0,0:0:0:0:
296,136,130073,2,0,L|288:96,1,30.0000011444092,2|0,0:0|0:0,0:0:0:0:
312,0,130345,2,0,L|306:29,1,30.0000011444092,8|2,0:0|0:0,0:0:0:0:
264,48,130550,5,2,0:0:0:0:
264,48,130618,1,2,0:0:0:0:
212,96,130754,2,0,P|172:84|148:76,1,60.0000022888184,2|0,0:0|0:0,0:0:0:0:
148,52,131095,2,0,L|128:44,1,15.0000005722046,0|0,0:0|0:0,0:0:0:0:
48,240,131436,6,0,P|92:232|112:216,1,60.0000022888184,10|0,0:0|0:0,0:0:0:0:
84,140,131845,2,0,L|156:156,1,60.0000022888184,0|0,0:0|0:0,0:0:0:0:
216,168,132254,1,8,0:0:0:0:
196,264,132527,1,8,0:0:0:0:
198,192,132664,6,0,L|222:160,1,30.0000011444092,0|2,0:0|0:0,0:0:0:0:
292,156,132936,1,2,0:0:0:0:
428,288,133209,2,0,L|440:352,1,60.0000022888184,2|0,0:0|0:0,0:0:0:0:
439,346,133618,1,10,0:0:0:0:
312,224,133891,5,0,0:0:0:0:
260,276,134027,2,0,P|316:264|340:232,1,90.0000034332277,2|2,0:0|0:0,0:0:0:0:
408,160,134709,1,8,0:0:0:0:
396,176,134845,2,0,L|360:172,1,30.0000011444092,0|0,0:0|0:0,0:0:0:0:
244,180,135118,6,0,L|180:172,1,60.0000022888184,0|2,0:0|0:0,0:0:0:0:
76,72,135664,1,0,0:0:0:0:
84,112,135800,1,10,0:0:0:0:
40,280,136073,1,2,0:0:0:0:
56,272,136209,2,0,P|80:236|80:220,1,60.0000022888184,2|0,0:0|0:0,0:0:0:0:
56,148,136618,6,0,L|48:116,1,30.0000011444092,8|0,0:0|0:0,0:0:0:0:
177,201,136891,2,0,L|185:169,1,30.0000011444092,8|0,0:0|0:0,0:0:0:0:
128,136,137164,1,2,0:0:0:0:
128,136,137300,1,2,0:0:0:0:
152,216,137436,5,2,0:0:0:0:
100,336,137573,2,0,P|136:332|160:316,1,60.0000022888184,0|0,0:0|0:0,0:0:0:0:
204,268,137982,2,0,P|228:280|236:288,1,30.0000011444092,10|0,0:0|0:0,0:0:0:0:
268,352,138254,1,0,0:0:0:0:
156,320,138391,2,0,L|228:308,1,60.0000022888184,2|2,0:0|0:0,0:0:0:0:
336,360,138800,2,0,L|396:368,1,60.0000022888184,0|8,0:0|0:0,0:0:0:0:
352,252,139209,5,2,0:0:0:0:
356,272,139345,1,0,0:0:0:0:
428,236,139482,1,0,0:0:0:0:
476,304,139618,1,2,0:0:0:0:
492,288,139754,2,0,P|492:324|472:344,1,60.0000022888184,0|0,0:0|0:0,0:0:0:0:
428,236,140164,2,0,L|424:204,1,30.0000011444092,10|0,0:0|0:0,0:0:0:0:
344,284,140436,5,0,0:0:0:0:
332,304,140573,2,0,P|332:268|352:248,1,60.0000022888184,2|0,0:0|0:0,0:0:0:0:
352,160,140982,1,8,0:0:0:0:
424,208,141118,1,0,0:0:0:0:
264,224,141254,6,0,L|205:218,1,60.0000022888184,8|0,0:0|3:0,0:0:0:0:
280,240,141459,1,0,3:0:0:0:
280,240,141527,1,0,3:0:0:0:
272,144,141664,1,8,0:1:0:0:
236,320,141800,5,4,1:0:0:0:
92,328,150527,5,2,0:0:0:0:
120,344,150664,2,0,L|208:332,2,80,2|0|0,0:0|0:0|0:0,0:0:0:0:
144,256,151345,1,0,0:0:0:0:
168,240,151482,2,0,P|176:216|184:156,1,80,2|0,0:0|0:0,0:0:0:0:
128,92,151891,5,2,0:0:0:0:
128,92,152027,1,0,0:0:0:0:
296,232,152300,1,0,0:0:0:0:
256,104,152573,6,0,P|240:64|308:48,1,120,2|0,0:0|0:0,0:0:0:0:
320,60,153118,2,0,L|372:68,1,40,0|8,0:0|0:0,0:0:0:0:
392,136,153391,2,0,L|444:144,1,40,0|0,0:0|0:0,0:0:0:0:
359,66,153664,2,0,B|344:56|344:56|336:28|352:-8,1,80,2|0,0:0|0:0,0:0:0:0:
350,0,154073,5,10,0:0:0:0:
348,212,154345,1,8,0:0:0:0:
320,136,154482,1,0,0:0:0:0:
304,148,154618,2,0,L|316:188,1,40,0|0,0:0|0:0,0:0:0:0:
431,142,154891,5,2,0:0:0:0:
440,160,155027,2,0,P|480:136|496:92,2,80,2|0|0,0:0|0:0|0:0,0:0:0:0:
200,152,155845,2,0,L|292:164,1,80,2|0,0:0|0:0,0:0:0:0:
359,132,156254,5,2,0:0:0:0:
359,132,156391,2,0,L|311:136,1,40,0|8,0:0|0:0,0:0:0:0:
200,152,156664,1,0,0:0:0:0:
248,80,156800,1,0,0:0:0:0:
296,160,156936,6,0,P|291:198|268:240,1,80,2|0,0:0|0:0,0:0:0:0:
272,234,157345,1,0,0:0:0:0:
248,240,157482,1,0,0:0:0:0:
228,116,157754,1,0,0:0:0:0:
252,156,157891,1,0,0:0:0:0:
272,112,158027,6,0,P|260:88|216:52,1,80,2|0,0:0|0:0,0:0:0:0:
152,64,158436,1,10,0:0:0:0:
72,212,158709,1,8,0:0:0:0:
100,148,158845,2,0,L|92:96,2,40,0|0|0,0:0|0:0|0:0,0:0:0:0:
148,236,159254,6,0,B|188:264|240:252|240:252|212:224,1,120,2|0,0:1|0:0,0:0:0:0:
223,235,159800,2,0,P|189:263|189:303,1,80,10|0,0:0|0:0,0:0:0:0:
186,296,160209,1,0,0:0:0:0:
296,344,160482,5,0,0:0:0:0:
304,316,160618,1,0,0:0:0:0:
328,336,160754,2,0,B|352:324|352:324|364:260,1,80,2|0,0:0|0:0,0:0:0:0:
436,188,161300,1,0,0:0:0:0:
460,208,161436,6,0,L|472:260,2,40,2|0|0,0:0|0:0|0:0,0:0:0:0:
388,140,161845,2,0,P|408:112|468:112,1,80,2|0,0:0|0:0,0:0:0:0:
352,200,162391,1,0,0:0:0:0:
352,200,162527,2,0,L|356:120,1,80,2|8,0:0|0:0,0:0:0:0:
340,88,162936,2,0,L|344:32,1,40,2|8,0:0|0:0,0:0:0:0:
276,144,163209,5,0,0:0:0:0:
276,144,163345,2,0,L|280:176,2,20,2|2|2,0:0|0:0|0:0,0:0:0:0:
256,72,163618,6,0,P|213:98|199:177,1,120,2|0,0:1|0:0,0:0:0:0:
195,162,164164,1,8,0:0:0:0:
88,52,164436,1,0,0:0:0:0:
120,60,164573,2,0,L|128:152,1,80,0|0,0:0|0:0,0:0:0:0:
136,212,164982,5,0,0:0:0:0:
136,212,165118,1,2,0:0:0:0:
192,88,165391,1,0,0:0:0:0:
284,200,165664,1,0,0:0:0:0:
284,200,165800,6,0,P|260:228|248:232,2,40,2|0|0,0:0|0:0|0:0,0:0:0:0:
200,300,166209,2,0,P|163:293|154:284,2,40,2|8|0,0:0|0:0|0:0,0:0:0:0:
68,336,166618,6,0,P|55:301|58:288,1,40,0|0,0:0|0:0,0:0:0:0:
56,299,166891,2,0,L|144:308,1,80,2|8,0:0|0:0,0:0:0:0:
162,291,167300,2,0,L|249:299,1,80,2|0,0:0|0:0,0:0:0:0:
272,284,167709,2,0,P|260:308|256:332,1,40,0|0,0:0|0:0,0:0:0:0:
364,384,167982,5,0,1:0:0:0:
356,344,168118,1,0,0:0:0:0:
444,248,168391,1,0,0:0:0:0:
424,312,168527,2,0,L|328:300,1,80,8|0,3:2|0:0,0:0:0:0:
460,184,168936,1,0,1:0:0:0:
480,120,169209,5,0,0:0:0:0:
492,80,169345,2,0,P|468:88|448:108,1,40,0|0,1:0|0:0,0:0:0:0:
396,132,169618,2,0,B|408:148|408:148|440:100|384:48,1,120,8|0,3:2|0:0,0:0:0:0:
288,20,170164,5,0,1:0:0:0:
276,60,170300,1,0,0:0:0:0:
136,84,170573,1,0,0:0:0:0:
112,148,170709,2,0,L|104:60,1,80,8|0,3:2|0:0,0:0:0:0:
208,228,171118,2,0,L|216:176,1,40,0|0,1:0|0:0,0:0:0:0:
214,188,171391,5,0,0:0:0:0:
96,280,171527,2,0,L|136:248,1,40,8|0,1:2|0:0,0:0:0:0:
244,304,171800,2,0,L|280:319,1,40,8|0,3:2|0:0,0:0:0:0:
288,232,172073,1,0,0:0:0:0:
288,232,172209,1,0,0:0:0:0:
204,108,172345,5,0,1:0:0:0:
196,124,172482,1,0,0:0:0:0:
384,236,172754,2,0,P|412:220|424:208,1,40,0|8,0:0|1:2,0:0:0:0:
320,140,173027,2,0,P|348:156|360:168,1,40,0|0,0:0|0:0,0:0:0:0:
364,264,173300,1,0,0:0:0:0:
304,112,173436,5,0,1:0:0:0:
268,240,173573,2,0,P|296:224|308:212,1,40,0|0,0:0|0:0,0:0:0:0:
436,144,173845,2,0,P|464:160|476:172,1,40,0|8,0:0|1:2,0:0:0:0:
432,293,174118,2,0,L|417:211,1,80,0|0,0:0|0:0,0:0:0:0:
353,161,174527,6,0,L|361:109,1,40,0|0,1:0|0:0,0:0:0:0:
236,104,174800,2,0,L|280:76,1,40,0|0,1:0|0:0,0:0:0:0:
364,172,175073,5,0,1:0:0:0:
370,132,175209,1,0,1:0:0:0:
244,116,175346,1,0,1:0:0:0:
277,94,175482,1,0,1:0:0:0:
288,184,175618,2,0,P|248:204|204:200,1,80,0|0,1:0|0:0,0:0:0:0:
104,120,176027,6,0,L|72:116,2,20,0|0|8,3:0|3:0|3:1,0:0:0:0:
116,112,176300,1,0,0:0:0:0:
176,148,176436,2,0,P|180:164|179:182,1,35.9999989013672,2|0,0:1|0:0,0:0:0:0:
140,239,176573,2,0,P|168:215|178:173,1,71.9999978027344,8|0,1:2|1:0,0:0:0:0:
112,36,176845,5,0,0:0:0:0:
224,48,177118,1,0,0:0:0:0:
232,64,177254,1,0,3:0:0:0:
356,72,177527,1,2,0:0:0:0:
364,88,177663,1,2,0:0:0:0:
428,112,177800,6,0,L|416:156,2,35.9999989013672,2|0|0,3:2|0:0|0:0,0:0:0:0:
444,104,178004,2,0,L|456:60,2,35.9999989013672,2|0|0,0:0|0:0|0:0,0:0:0:0:
488,164,178209,5,0,3:0:0:0:
488,164,178277,1,0,3:0:0:0:
488,164,178345,2,0,L|404:184,1,71.9999978027344,8|0,3:1|1:0,0:0:0:0:
296,248,178618,2,0,P|324:232|332:212,1,35.9999989013672,0|0,0:1|0:0,0:0:0:0:
344,162,178754,6,0,P|343:193|318:236,1,71.9999978027344,8|0,3:1|1:0,0:0:0:0:
160,320,179027,2,0,B|132:304|132:304|116:192,1,143.999995605469,2|0,0:1|0:0,0:0:0:0:
80,176,179436,2,0,P|88:216|116:240,1,71.9999978027344,10|0,0:1|0:1,0:0:0:0:
216,220,179709,1,0,0:0:0:0:
196,256,179845,2,0,B|192:208|192:208|220:172|220:172|212:96,1,143.999995605469,2|0,1:0|0:0,0:0:0:0:
214,122,180254,5,0,1:0:0:0:
152,80,180391,1,0,0:0:0:0:
132,68,180527,2,0,P|124:44|124:22,2,35.9999989013672,8|0|0,0:1|0:0|0:0,0:0:0:0:
216,48,180800,2,0,P|244:44|288:64,1,71.9999978027344,2|2,0:0|0:0,0:0:0:0:
144,152,181073,5,0,1:0:0:0:
144,152,181209,2,0,L|0:136,1,143.999995605469,0|2,0:0|0:1,0:0:0:0:
288,88,181618,2,0,L|364:96,1,71.9999978027344,8|0,0:1|0:0,0:0:0:0:
359,95,181891,1,0,0:0:0:0:
408,168,182027,2,0,P|376:220|352:236,1,71.9999978027344,2|0,1:0|0:0,0:0:0:0:
340,140,182300,5,0,0:0:0:0:
404,96,182436,2,0,B|440:104|440:104|476:136,1,71.9999978027344,2|0,1:0|0:0,0:0:0:0:
352,224,182709,2,0,L|336:272,2,35.9999989013672,8|0|0,0:1|0:0|0:0,0:0:0:0:
476,108,182982,2,0,L|524:92,2,35.9999989013672,2|0|0,0:0|0:0|0:0,0:0:0:0:
300,64,183254,5,0,1:0:0:0:
300,64,183391,2,0,L|292:152,1,71.9999978027344,0|2,0:1|0:1,0:0:0:0:
276,304,183664,1,0,0:0:0:0:
312,364,183800,2,0,P|272:303|196:275,1,143.999995605469,10|0,0:1|0:0,0:0:0:0:
144,328,184209,1,2,1:0:0:0:
276,304,184345,6,0,L|346:289,1,71.9999978027344,0|0,0:0|0:0,0:0:0:0:
140,240,184618,2,0,L|69:225,1,71.9999978027344,0|0,1:0|0:0,0:0:0:0:
272,216,184891,2,0,P|300:176|300:140,1,71.9999978027344,8|0,0:1|1:0,0:0:0:0:
292,124,185095,1,0,1:0:0:0:
264,108,185164,1,0,1:0:0:0:
192,240,185300,1,0,1:0:0:0:
192,112,185436,6,0,B|152:84|152:84|104:108|120:180,1,143.999995605469,6|0,1:0|0:0,0:0:0:0:
117,165,185845,1,0,0:0:0:0:
117,165,185982,2,0,P|108:224|32:280,1,143.999995605469,8|0,0:1|0:0,0:0:0:0:
12,168,186391,5,2,1:0:0:0:
84,192,186527,2,0,P|112:220|124:252,1,71.9999978027344,0|0,0:0|0:0,0:0:0:0:
88,360,186800,5,0,1:0:0:0:
160,336,186936,2,0,P|188:308|200:276,1,71.9999978027344,2|8,0:1|0:1,0:0:0:0:
72,296,187209,2,0,L|0:304,2,71.9999978027344,0|2|2,0:0|0:0|0:0,0:0:0:0:
148,312,187550,5,2,0:0:0:0:
156,320,187618,2,0,B|204:312|204:312|232:284|232:284|292:272,1,143.999995605469,0|2,1:0|0:1,0:0:0:0:
286,273,188027,1,0,0:0:0:0:
344,160,188164,2,0,P|360:196|360:240,1,71.9999978027344,10|0,0:1|0:0,0:0:0:0:
320,352,188436,1,0,0:0:0:0:
425,290,188573,5,2,1:0:0:0:
495,303,188709,2,0,L|411:287,1,71.9999978027344,0|0,0:0|0:0,0:0:0:0:
320,352,188982,2,0,L|236:368,1,71.9999978027344,0|0,1:0|0:0,0:0:0:0:
416,372,189254,2,0,P|472:328|484:248,1,143.999995605469,8|0,0:1|0:0,0:0:0:0:
440,152,189664,1,0,0:0:0:0:
428,144,189800,5,2,1:0:0:0:
260,148,189936,2,0,P|281:176|312:194,1,71.9999978027344,0|0,0:1|0:0,0:0:0:0:
413,184,190209,1,0,0:0:0:0:
472,92,190345,2,0,P|472:56|457:23,1,71.9999978027344,8|0,0:1|0:0,0:0:0:0:
300,76,190618,1,0,0:0:0:0:
300,76,190754,6,0,L|220:68,1,71.9999978027344,2|0,1:0|0:0,0:0:0:0:
376,68,191027,2,0,B|332:48|332:48|308:64|308:64|232:56,1,143.999995605469,0|2,0:0|0:1,0:0:0:0:
176,16,191436,2,0,P|132:4|96:80,1,143.999995605469,8|0,0:1|0:0,0:0:0:0:
95,79,191845,1,0,0:0:0:0:
152,192,191982,6,0,P|146:237|56:204,1,143.999995605469,0|0,1:0|0:0,0:0:0:0:
64,236,192391,1,0,0:0:0:0:
148,152,192527,2,0,P|196:152|224:176,1,71.9999978027344,10|0,0:1|0:0,0:0:0:0:
232,296,192800,1,0,0:0:0:0:
164,232,192936,5,2,1:0:0:0:
164,232,193073,2,0,B|240:232|204:152|296:164,1,143.999995605469,0|0,1:0|1:0,0:0:0:0:
388,88,193482,2,0,P|404:56|408:28,1,35.9999989013672,0|0,3:0|3:0,0:0:0:0:
403,56,193618,2,0,P|363:24|331:96,1,143.999995605469,8|0,3:1|0:0,0:0:0:0:
324,87,194027,1,0,3:0:0:0:
496,180,194164,5,4,1:0:0:0:
352,240,194300,2,0,L|367:169,1,71.9999978027344,0|0,0:1|0:0,0:0:0:0:
244,124,194573,1,0,0:0:0:0:
152,156,194709,2,0,P|188:164|228:148,1,71.9999978027344,10|0,0:1|0:0,0:0:0:0:
248,36,194982,1,0,0:0:0:0:
340,4,195118,2,0,P|304:-4|264:12,1,71.9999978027344,2|0,1:0|0:0,0:0:0:0:
168,72,195391,5,0,0:0:0:0:
72,32,195527,1,0,1:0:0:0:
240,232,195800,2,0,L|248:336,1,71.9999978027344,8|2,0:1|0:1,0:0:0:0:
108,360,196073,5,0,0:0:0:0:
108,360,196209,2,0,P|66:373|16:368,1,71.9999978027344,2|0,0:0|1:0,0:0:0:0:
38,373,196618,2,0,L|41:301,1,71.9999978027344,2|0,0:1|0:0,0:0:0:0:
0,208,196891,2,0,P|48:196|104:260,1,143.999995605469,10|0,0:1|0:0,0:0:0:0:
41,301,197300,2,0,P|76:332|104:336,1,71.9999978027344,2|0,1:0|0:0,0:0:0:0:
212,292,197573,5,0,1:0:0:0:
312,352,197709,1,0,1:0:0:0:
236,320,197845,2,0,P|244:284|276:252,1,71.9999978027344,0|8,0:0|0:1,0:0:0:0:
392,288,198118,1,0,0:0:0:0:
412,320,198254,2,0,L|460:332,2,35.9999989013672,2|0|0,0:1|0:0|0:0,0:0:0:0:
472,208,198527,5,0,1:0:0:0:
472,208,198664,2,0,L|464:60,1,143.999995605469,0|0,0:1|0:0,0:0:0:0:
392,44,199073,2,0,P|376:82|373:122,1,71.9999978027344,10|0,0:1|0:0,0:0:0:0:
436,144,199345,1,0,0:0:0:0:
464,64,199482,2,0,P|424:64|332:116,1,143.999995605469,2|0,1:0|1:0,0:0:0:0:
200,188,199891,5,0,1:0:0:0:
124,144,200027,1,0,0:0:0:0:
128,52,200164,1,8,0:1:0:0:
208,12,200300,1,2,0:1:0:0:
216,24,200368,1,2,0:0:0:0:
224,36,200436,1,2,0:0:0:0:
334,112,200573,6,0,L|330:152,1,35.9999989013672,2|0,0:1|0:0,0:0:0:0:
330,147,200709,2,0,B|308:132|308:132|300:80,1,71.9999978027344,0|2,1:0|0:1,0:0:0:0:
292,60,200914,1,0,0:0:0:0:
292,60,200982,2,0,P|260:68|232:104,1,71.9999978027344,0|0,0:0|0:0,0:0:0:0:
124,144,201254,2,0,P|132:176|168:204,1,71.9999978027344,8|0,0:1|0:0,0:0:0:0:
152,52,201527,5,0,0:0:0:0:
152,52,201664,2,0,L|148:136,1,71.9999978027344,0|0,1:0|0:0,0:0:0:0:
144,280,201936,1,0,1:0:0:0:
212,248,202073,2,0,P|192:220|157:200,1,71.9999978027344,0|0,1:0|0:0,0:0:0:0:
72,88,202345,6,0,L|-16:80,2,71.9999978027344,8|0|0,0:1|0:0|0:0,0:0:0:0:
160,201,202754,1,0,0:0:0:0:
64,56,202891,1,4,1:0:0:0:
64,56,203027,6,0,P|28:112|48:188,1,143.999995605469,2|0,0:1|0:0,0:0:0:0:
76,256,203436,2,0,P|68:290|42:314,1,71.9999978027344,8|0,0:1|0:0,0:0:0:0:
42,314,203709,1,0,0:0:0:0:
144,280,203845,2,0,L|228:292,1,71.9999978027344,2|0,1:0|0:0,0:0:0:0:
328,260,204118,5,0,1:0:0:0:
260,352,204254,1,2,1:0:0:0:
320,164,204527,1,8,0:1:0:0:
304,152,204664,2,0,B|288:156|288:156|268:176|264:212,1,71.9999978027344,0|0,0:1|0:0,0:0:0:0:
448,168,205073,5,0,1:0:0:0:
392,283,205209,2,0,P|357:280|328:260,1,71.9999978027344,2|0,0:1|0:0,0:0:0:0:
456,240,205482,1,0,0:0:0:0:
510,285,205618,2,0,P|483:253|447:237,1,71.9999978027344,10|0,0:1|0:0,0:0:0:0:
322,310,205891,5,0,0:0:0:0:
387,209,206027,2,0,B|407:181|407:181|435:237|385:291,1,143.999995605469,2|0,1:0|1:0,0:0:0:0:
400,368,206436,2,0,L|471:358,1,71.9999978027344,0|0,1:0|0:0,0:0:0:0:
512,160,206709,2,0,L|440:169,1,71.9999978027344,8|0,0:1|0:1,0:0:0:0:
392,282,206982,5,0,0:0:0:0:
456,239,207118,1,2,0:1:0:0:
336,144,207254,1,0,1:0:0:0:
336,144,207391,2,0,P|328:96|368:12,1,143.999995605469,0|0,0:0|0:0,0:0:0:0:
248,112,207800,2,0,L|232:216,2,71.9999978027344,10|0|0,0:1|0:0|0:0,0:0:0:0:
367,12,208209,6,0,P|336:0|296:0,1,71.9999978027344,2|0,1:0|0:0,0:0:0:0:
164,91,208482,1,0,1:0:0:0:
156,20,208618,2,0,L|168:116,1,71.9999978027344,0|0,1:0|0:0,0:0:0:0:
28,136,208891,2,0,B|84:124|104:192|188:160,1,143.999995605469,10|0,0:1|0:0,0:0:0:0:
232,116,209300,1,2,0:1:0:0:
264,264,209436,5,0,1:0:0:0:
316,216,209573,2,0,B|260:204|240:272|156:240,1,143.999995605469,0|0,0:0|0:0,0:0:0:0:
165,166,209982,2,0,P|173:122|209:90,1,71.9999978027344,8|0,0:1|0:0,0:0:0:0:
178,246,210254,1,0,0:0:0:0:
312,140,210391,5,0,1:0:0:0:
420,165,210936,5,0,3:0:0:0:
420,165,211004,1,0,3:0:0:0:
420,165,211072,1,0,3:0:0:0:
344,153,211209,6,0,P|325:148|308:137,1,35.9999989013672,0|0,3:0|3:0,0:0:0:0:
336,73,211345,2,0,L|353:130,1,60.0000022888184,8|0,3:1|1:0,0:0:0:0:
500,184,211618,1,4,1:0:0:0:
472,112,211754,6,0,P|480:76|516:52,1,80,0|0,0:0|0:0,0:0:0:0:
500,184,212163,2,0,L|412:200,1,80,8|0,0:1|0:0,0:0:0:0:
485,147,212572,2,0,P|497:171|499:192,1,40,0|0,1:0|0:0,0:0:0:0:
421,198,212845,5,0,0:0:0:0:
344,156,212982,1,0,1:0:0:0:
288,220,213118,1,0,0:0:0:0:
376,316,213254,5,8,0:1:0:0:
408,128,213391,1,0,0:0:0:0:
276,152,213527,1,2,0:0:0:0:
360,244,213664,1,2,0:0:0:0:
360,244,213732,1,2,0:0:0:0:
360,244,213800,1,0,1:0:0:0:
376,316,213936,6,0,L|392:232,1,80,0|0,0:0|0:0,0:0:0:0:
345,169,214345,2,0,P|341:205|365:249,1,80,8|0,0:1|0:0,0:0:0:0:
300,316,214754,2,0,L|252:324,1,40,0|0,1:0|0:0,0:0:0:0:
180,356,215027,1,0,0:0:0:0:
132,260,215164,5,2,1:2:0:0:
132,260,215300,1,2,0:0:0:0:
264,340,215436,2,0,P|256:358|248:376,1,40,8|0,0:1|0:0,0:0:0:0:
164,184,215708,2,0,P|179:171|195:159,1,40,0|0,0:0|0:0,0:0:0:0:
308,276,215981,1,0,1:0:0:0:
308,276,216118,6,0,P|261:272|232:252,1,80
260,72,216527,2,0,L|272:152,1,80,8|0,0:1|0:0,0:0:0:0:
332,200,216936,2,0,P|352:176|356:164,1,40,0|0,1:0|0:0,0:0:0:0:
336,68,217209,5,0,0:0:0:0:
272,8,217345,1,0,1:0:0:0:
352,40,217482,1,0,0:0:0:0:
204,72,217618,5,8,0:1:0:0:
368,12,217754,1,0,0:0:0:0:
296,80,217891,5,2,0:0:0:0:
400,88,218027,1,2,0:0:0:0:
476,12,218164,1,0,1:0:0:0:
476,12,218300,6,0,P|504:40|512:80,1,80,0|0,0:0|0:0,0:0:0:0:
436,263,218709,2,0,L|444:184,1,80,8|0,0:1|0:0,0:0:0:0:
444,184,219118,1,0,1:0:0:0:
512,78,219254,6,0,P|444:118|428:158,1,120.000004577637,0|0,0:0|1:0,0:0:0:0:
428,153,219664,1,0,0:0:0:0:
428,153,219800,2,0,P|396:184|376:192,1,60.0000022888184,8|0,0:1|3:0,0:0:0:0:
280,152,220004,1,0,3:0:0:0:
268,132,220073,1,0,1:0:0:0:
368,28,220209,1,0,1:0:0:0:
382,189,220345,6,0,L|280:200,1,90.0000034332277,4|0,1:0|0:0,0:0:0:0:
291,198,220618,2,0,P|318:184|340:164,1,60.0000022888184,0|0,0:0|0:0,0:0:0:0:
276,56,220890,2,0,P|304:64|329:80,1,60.0000022888184,8|0,0:1|0:0,0:0:0:0:
200,96,221163,2,0,P|181:102|172:108,2,30.0000011444092,0|0|0,0:0|0:0|1:0,0:0:0:0:
208,176,221436,6,0,B|152:168|172:120|96:116,1,120.000004577637,0|0,0:0|1:0,0:0:0:0:
24,28,221845,1,0,0:0:0:0:
100,0,221981,2,0,P|124:16|144:52,1,60.0000022888184,8|0,0:1|0:0,0:0:0:0:
124,204,222254,2,0,L|132:244,3,30.0000011444092,2|2|2|2,0:0|0:0|0:0|0:0,0:0:0:0:
129,233,222527,5,0,1:0:0:0:
107,117,222663,2,0,P|64:156|56:228,1,120.000004577637
129,233,223072,2,0,P|157:236|197:217,1,60.0000022888184,8|0,0:1|0:0,0:0:0:0:
108,300,223345,1,0,0:0:0:0:
236,176,223481,1,0,1:0:0:0:
236,176,223618,6,0,L|296:188,1,60.0000022888184,0|0,0:0|0:0,0:0:0:0:
186,225,223890,2,0,P|190:177|210:145,1,60.0000022888184,0|0,1:0|0:0,0:0:0:0:
232,284,224163,1,8,0:1:0:0:
348,248,224299,2,0,L|392:252,2,30.0000011444092,0|2|2,0:0|0:0|0:0,0:0:0:0:
280,104,224572,1,0,0:0:0:0:
280,104,224708,6,0,P|283:160|299:194,1,90.0000034332277,0|0,1:0|0:0,0:0:0:0:
296,190,224981,2,0,L|234:186,1,60.0000022888184,0|0,0:0|0:0,0:0:0:0:
364,88,225254,2,0,L|442:93,1,60.0000022888184,8|0,0:1|0:0,0:0:0:0:
423,92,225527,1,0,0:0:0:0:
488,216,225663,1,0,1:0:0:0:
488,216,225799,6,0,P|481:274|440:316,1,120.000004577637,0|0,0:0|1:0,0:0:0:0:
416,236,226209,2,0,L|412:300,1,60.0000022888184,0|8,0:0|0:1,0:0:0:0:
340,312,226481,1,0,0:0:0:0:
364,376,226618,1,2,0:0:0:0:
376,300,226754,1,2,0:0:0:0:
276,228,226890,5,0,1:0:0:0:
276,228,227027,2,0,P|236:264|228:336,1,120.000004577637,0|0,0:0|0:0,0:0:0:0:
212,256,227436,2,0,L|152:272,1,60.0000022888184,8|0,0:1|0:0,0:0:0:0:
225,327,227708,1,0,0:0:0:0:
224,184,227845,1,0,1:0:0:0:
108,205,227981,6,0,B|148:217|148:217|172:245|172:245|216:257,1,120.000004577637,0|0,0:0|1:0,0:0:0:0:
296,156,228390,1,0,3:0:0:0:
296,156,228458,1,0,3:0:0:0:
296,156,228527,2,0,P|332:100|320:52,1,120.000004577637,8|0,3:1|0:0,0:0:0:0:
256,12,228936,1,8,0:1:0:0:
240,16,229073,5,4,1:0:0:0:
