osu file format v14

[General]
AudioFilename: Dj CUTMAN Spark Mandrill (Mega Man X Remix).mp3
AudioLeadIn: 0
PreviewTime: 53594
Countdown: 0
SampleSet: Soft
StackLeniency: 0.7
Mode: 0
LetterboxInBreaks: 0
WidescreenStoryboard: 1

[Editor]
Bookmarks: 21428,42761,53761,74761,85428,106761,117428,138761,149428,170761,181428,197428
DistanceSpacing: 0.3
BeatDivisor: 4
GridSize: 8
TimelineZoom: 1.5

[Metadata]
Title:Spark Mandrill Acapella (Dj CUTMAN Remix)
TitleUnicode:Spark Mandrill Acapella (Dj CUTMAN Remix)
Artist:Smooth McGroove
ArtistUnicode:Smooth McGroove
Creator:ReFaller
Version:fartownik & Okorin's Extreme
Source:Mega Man X
Tags:smooth mcgrove remixed dnb zetera fartownik okorin okoratu
BeatmapID:927819
BeatmapSetID:399912

[Difficulty]
HPDrainRate:7
CircleSize:4
OverallDifficulty:9
ApproachRate:9.3
SliderMultiplier:2
SliderTickRate:1

[Events]
//Background and Video events
0,0,"megacutman.jpg",0,0
//Break Periods
//Storyboard Layer 0 (Background)
//Storyboard Layer 1 (Fail)
//Storyboard Layer 2 (Pass)
//Storyboard Layer 3 (Foreground)
//Storyboard Sound Samples

[TimingPoints]
95,333.333333333333,4,2,0,100,1,0
10761,-133.333333333333,4,2,0,100,0,0
21428,-100,4,2,0,100,0,0
28344,-80,4,2,0,100,0,0
28678,-66.6666666666667,4,2,0,100,0,0
29011,-57.1428571428571,4,2,0,100,0,0
29344,-100,4,2,0,100,0,0
39011,-100,4,2,0,100,0,0
39344,-80,4,2,0,100,0,0
39678,-66.6666666666667,4,2,0,100,0,0
40011,-100,4,2,0,100,0,0
42678,-133.333333333333,4,2,0,100,0,0
51178,-100,4,2,0,100,0,0
51678,-80,4,2,0,100,0,0
53094,-50,4,2,0,100,0,0
53261,-200,4,2,0,100,0,0
53761,-80,4,2,0,100,0,1
69344,-100,4,2,0,100,0,0
74761,-133.333333333333,4,2,0,100,0,0
85428,-100,4,2,0,100,0,0
92344,-80,4,2,0,100,0,0
92678,-66.6666666666667,4,2,0,100,0,0
93011,-57.1428571428571,4,2,0,100,0,0
93344,-100,4,2,0,100,0,0
103011,-80,4,2,0,100,0,0
103344,-66.6666666666667,4,2,0,100,0,0
103678,-57.1428571428571,4,2,0,100,0,0
104011,-100,4,2,0,100,0,0
111094,-66.6666666666667,4,2,0,80,0,0
111428,-57.1428571428571,4,2,0,80,0,0
111761,-50,4,2,0,100,0,0
111844,-50,4,3,0,70,0,0
112011,-50,4,2,0,100,0,0
112094,-100,4,2,0,100,0,0
114594,-100,4,2,0,70,0,0
114761,-100,4,2,0,100,0,0
116094,-71.4285714285714,4,2,0,100,0,0
117011,-71.4285714285714,4,2,2,90,0,0
117094,-71.4285714285714,4,2,1,80,0,0
117178,-71.4285714285714,4,2,2,70,0,0
117261,-71.4285714285714,4,2,1,50,0,0
117428,-133.333333333333,4,2,0,100,0,1
118428,-133.333333333333,4,2,0,75,0,1
118511,-133.333333333333,4,2,0,100,0,1
119094,-133.333333333333,4,2,0,75,0,1
119178,-133.333333333333,4,2,0,100,0,1
119761,-133.333333333333,4,2,0,75,0,1
119844,-133.333333333333,4,2,0,100,0,1
120428,-133.333333333333,4,2,0,75,0,1
120511,-133.333333333333,4,2,0,100,0,1
121094,-133.333333333333,4,2,0,75,0,1
121178,-133.333333333333,4,2,0,100,0,1
122428,-79.9999999999999,4,2,0,100,0,1
122761,-133.333333333333,4,2,0,100,0,1
123094,-133.333333333333,4,2,0,75,0,1
123178,-133.333333333333,4,2,0,100,0,1
123761,-133.333333333333,4,2,0,75,0,1
123844,-133.333333333333,4,2,0,100,0,1
124428,-133.333333333333,4,2,0,75,0,1
124511,-133.333333333333,4,2,0,100,0,1
125094,-133.333333333333,4,2,0,75,0,1
125178,-133.333333333333,4,2,0,100,0,1
125761,-133.333333333333,4,2,0,75,0,1
125844,-133.333333333333,4,2,0,100,0,1
126428,-133.333333333333,4,2,0,75,0,1
126511,-133.333333333333,4,2,0,100,0,1
127761,-79.9999999999999,4,2,0,100,0,1
128094,-133.333333333333,4,2,0,100,0,1
128428,-133.333333333333,4,2,0,75,0,1
128511,-133.333333333333,4,2,0,100,0,1
129094,-133.333333333333,4,2,0,75,0,1
129178,-133.333333333333,4,2,0,100,0,1
129761,-133.333333333333,4,2,0,75,0,1
129844,-133.333333333333,4,2,0,100,0,1
130428,-133.333333333333,4,2,0,75,0,1
130511,-133.333333333333,4,2,0,100,0,1
131094,-133.333333333333,4,2,0,75,0,1
131178,-133.333333333333,4,2,0,100,0,1
131761,-133.333333333333,4,2,0,75,0,1
131844,-133.333333333333,4,2,0,100,0,1
133094,-79.9999999999999,4,2,0,100,0,1
133428,-100,4,2,0,100,0,0
133761,-100,4,2,0,75,0,0
133844,-100,4,2,0,100,0,0
134428,-100,4,2,0,75,0,0
134511,-100,4,2,0,100,0,0
135094,-100,4,2,0,75,0,0
135178,-100,4,2,0,100,0,0
138761,-100,4,2,0,70,0,0
148761,-80,4,2,0,100,0,0
149094,-66.6666666666667,4,2,0,100,0,0
149428,-100,4,2,0,100,0,0
156344,-80,4,2,0,100,0,0
156678,-66.6666666666667,4,2,0,100,0,0
157011,-57.1428571428571,4,2,0,100,0,0
157428,-100,4,2,0,100,0,0
167011,-80,4,2,0,100,0,0
167344,-66.6666666666667,4,2,0,100,0,0
167678,-57.1428571428571,4,2,0,100,0,0
168011,-100,4,2,0,100,0,0
174761,-100,4,2,0,70,0,0
175761,-80,4,2,0,100,0,0
176094,-100,4,2,0,100,0,0
179261,-80,4,2,0,100,0,0
179761,-66.6666666666667,4,2,0,100,0,0
180094,-100,4,2,0,100,0,0
181428,-80,4,2,0,100,0,1
197428,-100,4,2,0,100,0,0
202761,-100,4,2,0,20,0,0

[Colours]
Combo1 : 128,128,128
Combo2 : 0,128,128
Combo3 : 0,0,255
Combo4 : 202,53,53

[HitObjects]
48,64,95,6,0,L|104:56,1,50,8|2,0:0|0:0,0:0:0:0:
192,88,261,1,2,0:0:0:0:
184,136,344,1,0,0:0:0:0:
176,184,428,2,0,L|192:288,1,100,8|0,0:0|0:0,0:0:0:0:
400,344,761,5,8,0:0:0:0:
411,295,844,1,0,0:0:0:0:
390,249,928,1,2,0:0:0:0:
344,229,1011,1,0,0:0:0:0:
296,242,1094,2,0,L|312:136,1,100,8|2,0:0|0:0,0:0:0:0:
424,48,1428,5,8,0:0:0:0:
376,56,1511,1,0,0:0:0:0:
328,64,1594,1,2,0:0:0:0:
280,72,1678,1,0,0:0:0:0:
232,80,1761,2,0,L|128:64,1,100,8|0,0:0|0:0,0:0:0:0:
32,296,2094,5,10,0:0:0:0:
66,331,2178,1,0,0:0:0:0:
114,342,2261,1,2,0:0:0:0:
161,326,2344,1,0,0:0:0:0:
193,287,2428,1,10,0:0:0:0:
207,238,2511,1,0,0:0:0:0:
190,190,2594,1,2,0:0:0:0:
153,155,2678,1,0,0:0:0:0:
104,146,2761,6,0,L|112:96,1,50,12|0,0:0|0:0,0:0:0:0:
96,16,2928,1,2,0:0:0:0:
152,24,3011,1,0,0:0:0:0:
208,32,3094,2,0,L|312:16,1,100,8|0,0:0|0:0,0:0:0:0:
464,40,3428,5,8,0:0:0:0:
489,94,3511,1,0,0:0:0:0:
471,151,3594,1,2,0:0:0:0:
419,183,3678,1,0,0:0:0:0:
360,169,3761,2,0,L|376:272,1,100,8|2,0:0|0:0,0:0:0:0:
200,344,4094,5,8,0:0:0:0:
162,310,4178,1,0,0:0:0:0:
145,263,4261,1,2,0:0:0:0:
152,213,4344,1,0,0:0:0:0:
184,174,4428,2,0,L|168:72,1,100,8|0,0:0|0:0,0:0:0:0:
168,75,4761,6,0,L|224:72,1,50,8|0,0:0|0:0,0:0:0:0:
88,160,4928,2,0,L|32:152,1,50,2|0,0:0|0:0,0:0:0:0:
184,174,5094,2,0,L|176:230,1,50,8|0,0:0|0:0,0:0:0:0:
80,72,5261,2,0,L|77:16,1,50,2|0,0:0|0:0,0:0:0:0:
184,174,5428,6,0,L|176:230,1,50,12|2,0:0|0:0,0:0:0:0:
160,312,5594,1,2,0:0:0:0:
208,304,5678,1,0,0:0:0:0:
256,296,5761,2,0,L|360:312,1,100,8|0,0:0|0:0,0:0:0:0:
456,176,6094,5,8,0:0:0:0:
423,137,6178,1,0,0:0:0:0:
374,123,6261,1,2,0:0:0:0:
326,132,6344,1,0,0:0:0:0:
288,160,6428,2,0,L|297:260,1,100,8|2,0:0|0:0,0:0:0:0:
112,328,6761,5,8,0:0:0:0:
73,296,6844,1,0,0:0:0:0:
55,248,6928,1,2,0:0:0:0:
63,198,7011,1,0,0:0:0:0:
93,158,7094,2,0,L|131:252,1,100,8|0,0:0|0:0,0:0:0:0:
192,112,7428,1,8,0:0:0:0:
221,70,7512,1,0,0:0:0:0:
267,52,7595,1,2,0:0:0:0:
313,57,7678,1,0,0:0:0:0:
352,88,7762,1,10,0:0:0:0:
361,136,7845,1,0,0:0:0:0:
342,182,7928,1,2,0:0:0:0:
303,214,8012,1,0,0:0:0:0:
255,213,8094,6,0,L|272:272,1,50,12|0,0:0|0:0,0:0:0:0:
296,352,8261,1,2,0:0:0:0:
352,344,8344,1,0,0:0:0:0:
408,336,8428,2,0,L|424:232,1,100,8|0,0:0|0:0,0:0:0:0:
440,80,8761,5,8,0:0:0:0:
384,88,8844,1,0,0:0:0:0:
328,96,8928,1,2,0:0:0:0:
272,104,9011,1,0,0:0:0:0:
216,112,9094,2,0,L|112:96,1,100,8|2,0:0|0:0,0:0:0:0:
16,280,9428,5,8,0:0:0:0:
45,320,9511,1,0,0:0:0:0:
89,341,9594,1,2,0:0:0:0:
139,342,9678,1,0,0:0:0:0:
183,319,9761,2,0,L|168:216,1,100,8|0,0:0|0:0,0:0:0:0:
168,220,10094,6,0,L|176:168,1,50,8|0,0:0|0:0,0:0:0:0:
288,72,10261,2,0,L|280:128,1,50,2|0,0:0|0:0,0:0:0:0:
160,72,10428,6,0,L|104:72,1,50,8|0,0:0|0:0,0:0:0:0:
280,224,10594,2,0,L|336:216,1,50,2|0,0:0|0:0,0:0:0:0:
432,200,10761,5,12,1:2:0:0:
440,80,10928,1,2,0:0:0:0:
440,80,11011,1,0,0:0:0:0:
440,80,11094,2,0,P|400:80|368:96,1,75.0000028610231,0|2,0:0|1:2,0:0:0:0:
144,64,11428,2,0,P|184:64|216:48,1,75.0000028610231,8|2,0:0|0:0,0:0:0:0:
296,24,11678,1,0,0:0:0:0:
296,24,11761,2,0,L|288:104,1,75.0000028610231,0|2,1:0|0:0,0:0:0:0:
216,160,12011,1,0,0:0:0:0:
216,160,12094,6,0,L|224:240,1,75.0000028610231,0|2,1:0|0:0,0:0:0:0:
168,304,12344,1,0,0:0:0:0:
168,304,12428,2,0,P|128:320|96:312,1,75.0000028610231,8|0,0:0|1:0,0:0:0:0:
264,320,12761,2,0,P|304:304|336:312,1,75.0000028610231,8|2,0:0|0:0,0:0:0:0:
416,336,13011,1,0,0:0:0:0:
416,336,13094,2,0,L|424:288,1,37.5000014305115,8|0,0:0|0:0,0:0:0:0:
368,232,13261,2,0,L|376:192,1,37.5000014305115,2|0,0:0|0:0,0:0:0:0:
336,112,13428,5,4,1:2:0:0:
112,152,13594,1,2,0:0:0:0:
112,152,13678,1,0,0:0:0:0:
112,152,13761,2,0,L|200:144,1,75.0000028610231,0|0,0:0|1:0,0:0:0:0:
272,312,14094,2,0,P|232:328|192:320,1,75.0000028610231,8|2,0:0|0:0,0:0:0:0:
128,352,14344,1,0,0:0:0:0:
128,352,14428,2,0,L|120:272,1,75.0000028610231,0|2,0:0|0:0,0:0:0:0:
88,192,14678,1,0,0:0:0:0:
88,192,14761,5,0,1:0:0:0:
264,104,14928,1,0,1:0:0:0:
56,80,15094,1,0,1:0:0:0:
224,208,15261,1,0,1:0:0:0:
168,8,15428,1,8,1:2:0:0:
344,192,15594,5,2,0:0:0:0:
344,192,15678,1,0,0:0:0:0:
344,192,15761,2,0,L|336:272,1,75.0000028610231,0|8,1:0|0:0,0:0:0:0:
328,360,16094,5,4,1:2:0:0:
216,320,16261,1,2,0:0:0:0:
216,320,16344,1,0,0:0:0:0:
216,320,16428,2,0,P|168:320|136:328,1,75.0000028610231,8|0,0:0|1:0,0:0:0:0:
24,240,16761,2,0,P|72:240|104:232,1,75.0000028610231,8|2,0:0|0:0,0:0:0:0:
160,176,17011,1,0,0:0:0:0:
160,176,17094,2,0,L|152:96,1,75.0000028610231,0|2,1:0|0:0,0:0:0:0:
208,32,17344,1,0,0:0:0:0:
208,32,17428,6,0,P|256:32|288:40,1,75.0000028610231,0|2,1:0|0:0,0:0:0:0:
368,24,17678,1,0,0:0:0:0:
368,24,17761,2,0,L|360:104,1,75.0000028610231,8|0,0:0|1:0,0:0:0:0:
240,288,18094,2,0,L|232:208,1,75.0000028610231,8|2,0:0|0:0,0:0:0:0:
144,184,18344,5,0,0:0:0:0:
144,184,18428,2,0,L|136:224,1,37.5000014305115,2|0,0:0|0:0,0:0:0:0:
336,272,18594,2,0,L|344:312,1,37.5000014305115,2|0,0:0|0:0,0:0:0:0:
448,360,18761,5,4,1:2:0:0:
416,160,18928,1,2,0:0:0:0:
416,160,19011,1,0,0:0:0:0:
416,160,19094,2,0,L|408:240,1,75.0000028610231,8|0,0:0|1:0,0:0:0:0:
184,232,19428,2,0,P|224:240|264:240,1,75.0000028610231,8|2,0:0|0:0,0:0:0:0:
224,152,19678,1,0,0:0:0:0:
224,152,19761,2,0,L|216:112,1,37.5000014305115
200,40,19928,1,2,0:0:0:0:
32,152,20094,6,0,L|48:232,1,75.0000028610231,0|2,1:0|0:0,0:0:0:0:
114,301,20344,1,0,0:0:0:0:
114,301,20428,2,0,P|147:284|184:288,1,75.0000028610231,0|2,1:0|0:0,0:0:0:0:
280,264,20678,1,0,0:0:0:0:
280,264,20761,2,0,L|264:344,1,75.0000028610231,8|2,1:2|0:0,0:0:0:0:
512,224,21094,5,2,0:0:0:0:
478,181,21178,1,0,0:0:0:0:
430,160,21261,1,2,0:0:0:0:
379,162,21344,1,0,0:0:0:0:
334,186,21428,5,12,1:2:0:0:
216,56,21594,1,2,0:0:0:0:
208,64,21678,1,0,0:0:0:0:
200,72,21761,1,2,0:0:0:0:
136,152,21928,1,0,1:0:0:0:
200,232,22094,2,0,P|216:280|200:336,1,100,8|2,0:0|0:0,0:0:0:0:
120,304,22344,1,0,0:0:0:0:
120,304,22428,2,0,P|64:304|16:328,1,100,0|2,1:0|0:0,0:0:0:0:
205,327,22678,1,0,0:0:0:0:
205,327,22761,2,0,P|261:327|309:303,1,100,0|2,1:0|0:0,0:0:0:0:
344,96,23094,5,8,0:0:0:0:
300,309,23261,1,2,0:0:0:0:
256,72,23428,1,8,0:0:0:0:
384,336,23594,1,2,0:0:0:0:
176,48,23761,1,8,0:0:0:0:
464,360,23928,1,2,0:0:0:0:
96,24,24094,6,0,L|120:224,1,200,0|2,1:0|0:0,0:0:0:0:
264,200,24594,1,0,1:0:0:0:
266,193,24678,1,0,0:0:0:0:
268,185,24761,2,0,L|256:288,1,100,8|2,0:0|0:0,0:0:0:0:
320,344,25011,1,0,0:0:0:0:
320,344,25094,2,0,P|376:352|424:344,1,100,0|2,0:0|0:0,0:0:0:0:
400,104,25428,6,0,L|392:160,1,50,0|0,1:0|0:0,0:0:0:0:
256,284,25594,2,0,L|248:228,1,50,0|0,1:0|0:0,0:0:0:0:
120,64,25761,2,0,P|88:112|112:200,1,150,0|0,1:0|0:0,0:0:0:0:
176,136,26094,2,0,P|240:136|280:144,1,100,8|2,0:0|0:0,0:0:0:0:
328,216,26344,1,0,0:0:0:0:
328,216,26428,6,0,L|320:272,1,50,8|0,0:0|0:0,0:0:0:0:
176,136,26594,2,0,L|184:80,1,50,10|0,0:0|0:0,0:0:0:0:
248,16,26761,5,4,1:2:0:0:
432,96,26928,1,2,0:0:0:0:
430,103,27011,1,0,0:0:0:0:
429,111,27094,1,2,0:0:0:0:
408,208,27261,1,0,1:0:0:0:
392,304,27428,2,0,L|288:312,1,100,8|2,0:0|0:0,0:0:0:0:
216,264,27678,1,0,0:0:0:0:
216,264,27761,2,0,P|160:256|112:280,1,100,0|2,1:0|0:0,0:0:0:0:
32,328,28011,1,0,0:0:0:0:
32,328,28094,6,0,L|40:224,1,100,2|0,0:0|0:0,0:0:0:0:
120,272,28428,2,0,L|144:144,1,125,2|0,0:0|1:0,0:0:0:0:
216,264,28761,2,0,L|264:120,1,150.000005722046,10|0,0:0|0:0,0:0:0:0:
320,272,29094,2,0,L|408:112,1,175.00000166893,2|0,0:0|0:0,0:0:0:0:
144,32,29428,6,0,P|112:72|168:192,1,200,0|2,1:0|0:0,0:0:0:0:
253,83,29928,1,2,0:0:0:0:
255,94,30011,1,0,0:0:0:0:
256,104,30094,2,0,P|312:104|360:96,1,100,8|2,0:0|0:0,0:0:0:0:
448,64,30344,1,0,0:0:0:0:
448,64,30428,2,0,L|440:168,1,100,0|2,0:0|0:0,0:0:0:0:
360,224,30678,1,0,0:0:0:0:
360,224,30761,6,0,L|368:280,1,50,0|0,1:0|0:0,0:0:0:0:
200,352,30928,2,0,L|208:296,1,50,0|0,1:0|0:0,0:0:0:0:
64,136,31094,2,0,P|40:184|80:272,1,150,0|0,1:0|0:0,0:0:0:0:
144,200,31428,2,0,P|208:192|256:184,1,100,8|0,0:0|0:0,0:0:0:0:
440,32,31761,5,2,0:0:0:0:
392,16,31844,1,0,0:0:0:0:
341,16,31928,1,2,0:0:0:0:
297,45,32011,1,0,0:0:0:0:
278,91,32094,5,8,1:2:0:0:
448,224,32261,1,2,0:0:0:0:
446,231,32344,1,0,0:0:0:0:
444,239,32428,1,2,0:0:0:0:
424,336,32594,1,0,1:0:0:0:
192,248,32761,6,0,P|128:232|208:312,1,300,8|2,0:0|0:0,0:0:0:0:
160,144,33428,2,0,P|104:152|64:168,1,100,0|2,1:0|0:0,0:0:0:0:
264,160,33761,5,8,0:0:0:0:
64,168,33928,1,2,1:2:0:0:
288,88,34094,1,8,0:0:0:0:
40,240,34261,1,2,0:0:0:0:
312,16,34428,1,8,0:0:0:0:
16,312,34594,1,2,0:0:0:0:
144,64,34761,6,0,L|160:264,1,200,0|2,1:0|0:0,0:0:0:0:
304,320,35261,1,2,1:2:0:0:
307,311,35344,1,0,0:0:0:0:
310,302,35428,2,0,P|363:289|412:300,1,100,8|2,0:0|0:0,0:0:0:0:
488,336,35678,1,0,0:0:0:0:
488,336,35761,2,0,L|480:232,1,100,0|10,0:0|1:2,0:0:0:0:
384,104,36094,6,0,L|328:112,1,50,0|0,1:0|0:0,0:0:0:0:
264,256,36261,2,0,L|208:248,1,50,0|0,1:0|0:0,0:0:0:0:
150,124,36428,2,0,P|92:80|24:104,1,150,0|0,1:2|0:0,0:0:0:0:
80,176,36761,2,0,P|72:232|80:280,1,100,8|2,0:0|0:0,0:0:0:0:
296,344,37094,5,10,0:0:0:0:
334,311,37178,1,0,0:0:0:0:
352,264,37261,1,10,0:0:0:0:
350,213,37344,1,0,0:0:0:0:
321,171,37428,5,6,1:2:0:0:
152,256,37594,1,2,0:0:0:0:
149,247,37678,1,0,0:0:0:0:
147,239,37761,1,2,0:0:0:0:
120,144,37928,1,0,0:0:0:0:
280,16,38094,6,0,P|352:48|232:96,1,300,8|2,0:0|0:0,0:0:0:0:
456,40,38761,2,0,P|456:96|448:144,1,100,0|2,1:0|0:0,0:0:0:0:
424,280,39094,6,0,L|312:288,1,100,8|0,0:0|1:0,0:0:0:0:
80,224,39428,6,0,L|208:240,1,125,8|2,0:0|0:0,0:0:0:0:
456,320,39761,6,0,L|304:304,1,150.000005722046,8|2,0:0|0:0,0:0:0:0:
40,240,40094,6,0,P|96:296|216:256,1,200,0|2,1:0|0:0,0:0:0:0:
312,128,40594,1,0,0:0:0:0:
310,120,40678,1,0,0:0:0:0:
308,112,40761,2,0,P|260:136|212:128,1,100,8|2,0:0|0:0,0:0:0:0:
392,72,41094,5,0,0:0:0:0:
112,72,41261,2,0,L|120:184,1,100,2|0,0:0|1:0,0:0:0:0:
128,304,41594,5,0,1:0:0:0:
328,376,41761,1,0,1:0:0:0:
472,256,41928,1,0,1:0:0:0:
448,72,42094,1,8,1:2:0:0:
264,24,42261,1,0,1:0:0:0:
120,112,42428,2,0,L|112:160,4,25,0|0|0|0|0,1:0|1:0|1:0|1:0|1:0,0:0:0:0:
120,112,42761,6,0,L|128:208,1,75.0000028610231,4|2,1:2|0:0,0:0:0:0:
136,280,43094,1,2,0:0:0:0:
216,248,43261,1,0,0:0:0:0:
384,272,43428,5,2,0:0:0:0:
312,120,43594,1,0,0:0:0:0:
320,104,43761,1,2,0:0:0:0:
376,288,43928,1,2,0:0:0:0:
432,176,44094,5,2,1:2:0:0:
432,176,44261,1,0,0:0:0:0:
264,232,44428,1,2,0:0:0:0:
264,232,44594,1,0,0:0:0:0:
160,208,44761,1,2,0:0:0:0:
160,208,44928,1,0,0:0:0:0:
120,288,45094,1,2,0:0:0:0:
64,96,45261,1,0,0:0:0:0:
64,96,45344,1,0,0:0:0:0:
64,96,45428,6,0,L|216:104,1,150.000005722046,2|0,1:2|0:0,0:0:0:0:
376,168,45928,1,2,0:0:0:0:
376,168,46094,2,0,L|296:176,1,75.0000028610231,0|0,1:0|0:0,0:0:0:0:
464,192,46428,2,0,P|464:160|448:112,1,75.0000028610231
208,192,46761,5,0,1:0:0:0:
208,192,46928,2,0,P|208:224|224:272,1,75.0000028610231,2|0,0:0|0:0,0:0:0:0:
352,344,47261,1,2,0:0:0:0:
360,328,47344,1,0,0:0:0:0:
368,312,47428,1,0,1:0:0:0:
440,168,47594,1,2,0:0:0:0:
432,136,47677,1,0,0:0:0:0:
424,104,47761,2,0,P|376:136|312:120,1,112.500004291535,2|0,0:0|0:0,0:0:0:0:
256,80,48094,6,0,L|248:160,1,75.0000028610231,4|2,0:0|0:0,0:0:0:0:
192,216,48344,1,0,0:0:0:0:
192,216,48428,2,0,P|144:216|112:232,1,75.0000028610231,2|2,0:0|0:0,0:0:0:0:
272,240,48761,2,0,P|320:240|352:224,1,75.0000028610231,2|2,0:0|0:0,0:0:0:0:
384,144,49094,1,2,0:0:0:0:
328,72,49261,1,0,0:0:0:0:
120,80,49428,5,2,1:2:0:0:
88,232,49594,1,0,0:0:0:0:
72,248,49761,1,2,0:0:0:0:
136,64,49928,5,2,0:0:0:0:
136,64,50011,1,0,0:0:0:0:
136,64,50094,1,2,0:0:0:0:
344,104,50261,1,0,0:0:0:0:
120,80,50428,1,2,0:0:0:0:
360,88,50594,5,2,0:0:0:0:
360,88,50678,1,0,0:0:0:0:
360,88,50761,2,0,L|352:168,1,75.0000028610231,2|0,1:1|0:0,0:0:0:0:
344,272,51094,1,0,0:0:0:0:
256,112,51261,6,0,L|245:215,1,100,2|0,1:0|0:0,0:0:0:0:
232,320,51594,1,0,0:0:0:0:
144,136,51761,6,0,L|129:263,1,125,2|0,1:0|0:0,0:0:0:0:
112,360,52094,6,0,L|80:368,7,31.25,0|0|0|0|0|0|0|0,1:0|0:0|0:0|0:0|0:0|0:0|0:0|0:0,0:0:0:0:
40,288,52428,6,0,L|72:296,7,31.25,0|0|0|0|0|0|0|0,1:0|0:0|0:0|0:0|0:0|0:0|0:0|0:0,0:0:0:0:
96,208,52761,6,0,L|64:216,7,31.25,0|0|0|0|0|0|0|0,1:0|0:0|0:0|0:0|0:0|0:0|0:0|0:0,0:0:0:0:
32,128,53094,6,0,L|88:136,3,50,0|0|0|0,1:0|1:0|1:0|1:0,0:0:0:0:
32,128,53261,6,0,P|40:88|48:64,1,50,0|0,1:0|0:0,0:0:0:0:
432,88,53761,5,12,1:0:0:0:
464,232,53928,2,0,P|416:296|240:256,1,250,0|0,1:0|1:0,0:0:0:0:
248,272,54344,1,0,0:0:0:0:
240,256,54428,5,10,1:2:0:0:
236,193,54511,1,0,0:0:0:0:
262,136,54594,1,2,0:0:0:0:
318,107,54678,1,0,0:0:0:0:
376,112,54761,5,2,1:2:0:0:
144,104,54928,1,2,0:0:0:0:
456,160,55094,1,8,1:2:0:0:
56,56,55261,2,0,L|80:320,1,250,0|0,1:0|1:0,0:0:0:0:
304,336,55761,2,0,P|328:280|288:232,1,125,8|2,1:2|0:0,0:0:0:0:
208,256,56011,1,0,0:0:0:0:
208,256,56094,6,0,L|224:64,1,187.5,0|0,1:0|0:0,0:0:0:0:
176,8,56428,1,8,0:0:0:0:
336,200,56594,2,0,L|400:192,1,62.5,2|0,1:2|0:0,0:0:0:0:
440,104,56761,5,10,0:0:0:0:
385,74,56844,1,0,0:0:0:0:
322,74,56928,1,2,1:2:0:0:
270,108,57011,1,0,0:0:0:0:
235,159,57094,1,10,1:2:0:0:
232,221,57178,1,0,0:0:0:0:
250,280,57261,1,2,0:0:0:0:
299,317,57344,1,0,0:0:0:0:
360,330,57428,5,10,1:0:0:0:
264,24,57594,1,0,1:0:0:0:
432,336,57761,1,10,1:0:0:0:
192,32,57928,1,0,1:0:0:0:
504,344,58094,1,10,1:0:0:0:
120,48,58261,1,0,1:0:0:0:
416,168,58428,2,0,L|288:184,1,125,10|0,1:0|1:0,0:0:0:0:
56,304,58761,6,0,P|120:352|224:312,1,187.5,4|0,1:0|0:0,0:0:0:0:
240,248,59094,1,8,1:0:0:0:
374,69,59261,2,0,P|301:35|164:152,1,250,0|0,1:0|1:0,0:0:0:0:
164,135,59677,1,0,0:0:0:0:
165,153,59761,5,10,1:2:0:0:
190,210,59844,1,0,0:0:0:0:
240,248,59927,1,2,0:0:0:0:
303,247,60011,1,0,0:0:0:0:
352,216,60094,5,2,1:2:0:0:
176,312,60261,1,2,0:0:0:0:
328,136,60428,1,8,1:2:0:0:
224,384,60594,2,0,L|-32:360,1,250,0|0,1:0|1:0,0:0:0:0:
48,216,61094,2,0,P|112:240|168:224,1,125,8|2,1:2|0:0,0:0:0:0:
256,256,61344,1,0,0:0:0:0:
256,256,61427,6,0,L|240:64,1,187.5,0|0,1:0|0:0,0:0:0:0:
272,0,61761,1,8,1:2:0:0:
56,64,61928,6,0,L|62:128,1,62.5,0|0,1:0|0:0,0:0:0:0:
80,224,62094,1,2,0:0:0:0:
119,272,62178,1,0,0:0:0:0:
180,283,62261,1,2,1:2:0:0:
241,270,62344,1,0,0:0:0:0:
285,225,62428,1,10,1:2:0:0:
301,164,62511,1,0,0:0:0:0:
292,102,62594,1,2,2:0:0:0:
252,52,62678,1,0,0:0:0:0:
191,35,62761,5,2,1:0:0:0:
224,352,62928,1,0,1:0:0:0:
264,48,63094,1,10,1:0:0:0:
152,360,63261,1,0,1:0:0:0:
336,64,63428,1,2,1:0:0:0:
80,368,63594,1,0,1:0:0:0:
280,208,63761,2,0,L|152:200,1,125,8|2,1:2|0:0,0:0:0:0:
155,200,64428,5,8,1:0:0:0:
392,328,64594,2,0,P|454:226|402:118,1,250,0|0,1:0|1:0,0:0:0:0:
392,112,65010,1,0,0:0:0:0:
376,112,65094,5,10,1:2:0:0:
322,142,65177,1,0,0:0:0:0:
260,151,65260,1,2,0:0:0:0:
201,128,65344,1,0,0:0:0:0:
163,78,65428,6,0,L|176:202,1,125,0|0,1:0|1:0,0:0:0:0:
192,328,65761,1,8,1:2:0:0:
344,32,65928,2,0,L|320:288,1,250,0|0,1:0|1:0,0:0:0:0:
480,176,66428,1,8,1:2:0:0:
88,104,66594,1,2,0:0:0:0:
88,104,66678,1,0,0:0:0:0:
88,104,66761,6,0,P|144:160|248:128,1,187.5,0|0,1:0|0:0,0:0:0:0:
264,64,67094,1,8,1:2:0:0:
448,288,67261,2,0,L|384:280,1,62.5,2|0,0:0|0:0,0:0:0:0:
320,336,67428,5,2,1:2:0:0:
261,313,67511,1,0,0:0:0:0:
232,257,67594,1,2,0:0:0:0:
239,194,67678,1,0,0:0:0:0:
289,156,67761,1,10,1:2:0:0:
350,162,67844,1,0,0:0:0:0:
409,142,67928,1,2,0:0:0:0:
421,81,68011,1,0,0:0:0:0:
392,32,68094,5,2,1:0:0:0:
64,232,68261,1,0,1:0:0:0:
384,104,68428,1,10,1:0:0:0:
56,160,68594,1,0,1:0:0:0:
376,176,68761,1,2,1:0:0:0:
48,88,68928,1,0,1:0:0:0:
224,272,69094,2,0,L|232:144,1,125,8|2,1:0|0:0,0:0:0:0:
312,320,69428,6,0,P|248:368|136:328,1,200,0|2,1:0|0:0,0:0:0:0:
40,240,69928,1,0,1:0:0:0:
48,200,70011,1,0,0:0:0:0:
56,160,70094,6,0,P|120:208|232:168,1,200,8|2,1:0|0:0,0:0:0:0:
360,104,70594,1,0,1:0:0:0:
352,64,70677,1,0,0:0:0:0:
344,24,70760,6,0,P|280:72|168:32,1,200,8|2,1:0|0:0,0:0:0:0:
64,16,71261,2,0,L|72:80,1,50,0|0,1:0|0:0,0:0:0:0:
88,152,71428,1,10,1:2:0:0:
102,188,71511,1,0,0:0:0:0:
125,220,71594,1,2,0:0:0:0:
161,246,71678,1,0,0:0:0:0:
201,265,71761,1,2,0:0:0:0:
250,268,71844,1,0,0:0:0:0:
299,257,71928,2,0,L|296:312,1,50,2|0,0:0|0:0,0:0:0:0:
440,176,72261,5,2,1:0:0:0:
56,184,72428,1,0,1:0:0:0:
344,40,72594,1,0,1:0:0:0:
160,344,72761,1,2,1:0:0:0:
160,40,72928,1,0,1:0:0:0:
352,344,73094,1,0,1:0:0:0:
256,192,73261,5,6,1:0:0:0:
256,192,73344,12,4,74761,0:0:0:0:
80,104,74928,5,0,0:0:0:0:
80,104,75094,2,0,P|120:104|160:96,1,75.0000028610231,2|0,0:0|0:0,0:0:0:0:
312,64,75428,1,8,0:0:0:0:
319,138,75594,2,0,L|311:58,1,75.0000028610231,2|0,0:0|0:0,0:0:0:0:
216,184,75928,2,0,L|224:264,1,75.0000028610231,2|0,0:0|1:0,0:0:0:0:
223,258,76428,6,0,P|264:272|312:272,1,75.0000028610231,8|0,0:0|1:0,0:0:0:0:
448,248,76761,2,0,L|440:288,1,37.5000014305115,2|0,0:0|0:0,0:0:0:0:
376,376,76928,2,0,L|368:328,1,37.5000014305115,2|0,0:0|0:0,0:0:0:0:
295,273,77094,5,2,0:0:0:0:
260,296,77178,1,0,0:0:0:0:
220,307,77261,1,2,0:0:0:0:
179,303,77344,1,0,0:0:0:0:
141,284,77428,5,0,1:0:0:0:
93,216,77594,1,0,0:0:0:0:
128,144,77761,2,0,P|136:112|128:72,1,75.0000028610231,2|0,0:0|0:0,0:0:0:0:
261,96,78094,1,8,0:0:0:0:
336,104,78261,2,0,L|256:96,1,75.0000028610231,2|0,0:0|0:0,0:0:0:0:
216,216,78594,2,0,L|296:208,1,75.0000028610231,2|0,0:0|1:0,0:0:0:0:
290,208,79094,2,0,P|282:240|290:280,1,75.0000028610231,8|0,0:0|1:0,0:0:0:0:
184,344,79428,2,0,L|176:304,1,37.5000014305115,2|0,0:0|0:0,0:0:0:0:
72,256,79594,2,0,L|80:216,1,37.5000014305115,2|0,0:0|0:0,0:0:0:0:
104,96,79761,5,2,0:0:0:0:
136,120,79844,1,0,0:0:0:0:
177,123,79928,1,2,0:0:0:0:
215,109,80011,1,0,0:0:0:0:
240,77,80094,5,6,1:2:0:0:
288,8,80261,1,0,0:0:0:0:
360,56,80428,2,0,P|368:96|368:136,1,75.0000028610231,2|0,0:0|0:0,0:0:0:0:
264,208,80761,1,8,0:0:0:0:
256,282,80928,2,0,L|264:202,1,75.0000028610231,2|0,0:0|0:0,0:0:0:0:
128,88,81261,2,0,L|136:168,1,75.0000028610231,2|0,0:0|1:0,0:0:0:0:
135,162,81761,2,0,P|95:170|55:170,1,75.0000028610231,10|0,0:0|1:0,0:0:0:0:
32,312,82094,2,0,L|96:320,1,37.5000014305115,8|0,0:0|0:0,0:0:0:0:
200,248,82261,2,0,L|152:256,1,37.5000014305115,2|0,0:0|0:0,0:0:0:0:
60,170,82428,5,10,0:0:0:0:
44,131,82511,1,0,0:0:0:0:
49,90,82594,1,10,0:0:0:0:
68,53,82678,1,0,0:0:0:0:
98,26,82761,5,2,1:2:0:0:
138,17,82844,1,2,0:0:0:0:
179,18,82928,1,2,0:0:0:0:
218,30,83011,1,2,0:0:0:0:
254,49,83094,1,2,0:0:0:0:
295,53,83178,1,2,0:0:0:0:
335,48,83261,1,2,0:0:0:0:
373,33,83344,1,2,0:0:0:0:
405,7,83428,5,10,0:0:0:0:
391,45,83511,1,2,0:0:0:0:
386,85,83594,1,2,0:0:0:0:
395,125,83678,1,2,0:0:0:0:
409,163,83761,1,2,0:0:0:0:
419,202,83844,1,2,0:0:0:0:
415,243,83928,1,10,0:0:0:0:
402,281,84011,1,2,0:0:0:0:
379,315,84094,6,0,L|336:328,3,37.5000014305115,0|0|0|0,1:0|0:0|0:0|0:0,0:0:0:0:
288,264,84428,2,0,L|245:251,3,37.5000014305115,8|0|0|0,0:2|0:0|0:0|0:0,0:0:0:0:
208,344,84761,6,0,L|160:352,1,37.5000014305115,2|0,1:2|0:0,0:0:0:0:
144,232,84928,2,0,L|96:224,1,37.5000014305115,2|0,0:0|0:0,0:0:0:0:
40,112,85094,5,2,0:0:0:0:
60,67,85178,1,0,0:0:0:0:
99,39,85261,1,0,1:0:0:0:
147,34,85344,1,0,1:0:0:0:
194,45,85428,6,0,L|182:162,1,100,6|0,1:2|0:0,0:0:0:0:
183,144,85678,1,2,0:0:0:0:
183,144,85761,1,10,1:2:0:0:
356,22,85928,1,0,1:0:0:0:
356,22,86261,1,0,1:0:0:0:
192,152,86428,2,0,P|111:130|116:36,1,150,10|2,1:2|0:0,0:0:0:0:
112,29,86761,6,0,L|235:42,1,100,0|0,1:0|0:0,0:0:0:0:
254,260,87094,1,10,1:2:0:0:
293,67,87261,1,0,1:0:0:0:
336,288,87427,1,2,0:0:0:0:
211,39,87594,1,0,1:0:0:0:
418,316,87761,1,10,1:2:0:0:
129,11,87928,1,2,0:0:0:0:
438,227,88094,6,0,P|445:143|343:107,1,200,2|8,1:2|1:2,0:0:0:0:
177,195,88594,2,0,L|377:180,1,200,2|0,1:2|1:0,0:0:0:0:
164,79,89094,1,8,1:2:0:0:
177,300,89261,5,2,0:0:0:0:
67,175,89428,1,2,1:2:0:0:
67,175,89511,1,2,0:0:0:0:
67,175,89594,1,2,0:0:0:0:
265,303,89761,2,0,L|261:377,1,50,8|0,1:2|0:0,0:0:0:0:
76,282,89928,2,0,L|95:70,1,200,0|0,1:0|1:0,0:0:0:0:
280,187,90428,1,10,1:2:0:0:
231,191,90511,1,0,0:0:0:0:
193,161,90594,1,2,0:0:0:0:
188,112,90677,1,2,0:0:0:0:
218,74,90761,6,0,L|340:83,1,100,6|0,1:2|0:0,0:0:0:0:
318,81,91011,1,2,0:0:0:0:
318,81,91094,1,10,1:2:0:0:
192,290,91261,1,0,1:0:0:0:
192,290,91594,1,0,1:0:0:0:
325,88,91761,2,0,P|364:49|464:91,1,150,10|2,1:2|0:0,0:0:0:0:
463,114,92094,6,0,P|456:160|465:256,1,100,0|0,1:0|0:0,0:0:0:0:
325,88,92428,2,0,P|321:157|335:241,1,125,10|0,1:2|1:0,0:0:0:0:
195,44,92761,2,0,P|186:127|198:228,1,150.000005722046,2|0,0:0|1:0,0:0:0:0:
56,6,93094,2,0,P|42:92|49:207,1,175.00000166893,10|2,1:2|0:0,0:0:0:0:
180,381,93428,6,0,B|172:336|172:336|205:283|205:283|190:192,1,200,2|8,1:2|1:2,0:0:0:0:
327,70,93928,2,0,L|319:192,1,100,2|0,1:2|0:0,0:0:0:0:
162,59,94261,1,0,1:0:0:0:
162,59,94344,1,2,0:0:0:0:
162,59,94428,2,0,P|112:47|53:89,1,100,8|2,1:2|0:0,0:0:0:0:
127,151,94678,1,0,0:0:0:0:
127,151,94761,6,0,L|243:136,1,100,0|2,1:0|0:0,0:0:0:0:
213,176,95011,1,2,0:0:0:0:
198,218,95094,1,8,1:2:0:0:
65,62,95261,2,0,P|110:42|158:55,1,100,0|0,1:0|0:0,0:0:0:0:
287,309,95594,1,0,1:0:0:0:
213,176,95761,1,10,1:2:0:0:
214,126,95844,1,0,0:0:0:0:
244,88,95928,1,2,0:0:0:0:
291,75,96011,1,2,0:0:0:0:
337,94,96094,6,0,L|328:215,1,100,6|0,1:2|0:0,0:0:0:0:
329,193,96344,1,2,0:0:0:0:
329,193,96428,1,10,1:2:0:0:
176,55,96594,2,0,L|41:35,1,100,0|2,1:0|0:0,0:0:0:0:
248,6,96928,1,0,1:2:0:0:
336,201,97094,2,0,P|324:265|238:317,1,150,10|2,1:2|0:0,0:0:0:0:
211,327,97428,6,0,P|221:252|216:192,1,100,0|0,1:0|0:0,0:0:0:0:
99,112,97761,1,10,1:2:0:0:
302,193,97928,1,0,1:0:0:0:
58,200,98094,1,2,0:0:0:0:
343,105,98261,1,0,1:0:0:0:
17,288,98428,1,10,1:2:0:0:
384,17,98595,1,2,0:0:0:0:
107,311,98761,6,0,L|97:84,1,200,2|8,1:2|1:2,0:0:0:0:
342,117,99261,2,0,P|337:198|222:157,1,200,2|0,1:2|1:0,0:0:0:0:
418,22,99761,1,8,1:2:0:0:
392,268,99928,5,2,0:0:0:0:
248,96,100094,1,2,1:2:0:0:
248,96,100178,1,2,0:0:0:0:
248,96,100261,1,2,0:0:0:0:
486,155,100428,2,0,L|475:217,1,50,8|0,1:2|0:0,0:0:0:0:
248,96,100594,2,0,P|299:50|405:128,1,200,0|0,1:0|1:0,0:0:0:0:
132,230,101094,1,2,1:2:0:0:
165,193,101177,1,0,0:0:0:0:
173,144,101260,1,2,0:0:0:0:
154,99,101343,1,2,0:0:0:0:
114,70,101428,6,0,L|1:79,1,100,6|0,1:2|0:0,0:0:0:0:
14,77,101678,1,2,0:0:0:0:
14,77,101761,1,10,1:2:0:0:
263,29,101928,2,0,L|384:20,1,100,0|2,1:0|0:0,0:0:0:0:
172,13,102261,1,0,1:0:0:0:
283,190,102428,2,0,P|299:256|267:353,1,150,10|2,1:2|0:0,0:0:0:0:
226,338,102761,6,0,P|168:315|115:317,1,100,0|0,1:0|0:0,0:0:0:0:
368,242,103094,6,0,P|440:213|506:215,1,125,10|0,1:2|1:0,0:0:0:0:
149,159,103428,6,0,P|62:124|-17:127,1,150.000005722046,2|0,0:0|1:0,0:0:0:0:
345,63,103761,6,0,P|446:22|539:26,1,175.00000166893,10|2,1:2|0:0,0:0:0:0:
226,338,104094,6,0,B|218:283|218:283|253:227|253:227|243:136,1,200,2|8,1:2|1:2,0:0:0:0:
453,202,104594,2,0,L|445:314,1,100,2|0,1:2|0:0,0:0:0:0:
345,63,104928,1,2,1:2:0:0:
345,63,105094,1,10,1:2:0:0:
472,230,105261,6,0,L|464:342,1,100,2|0,0:0|1:0,0:0:0:0:
276,169,105594,1,0,0:0:0:0:
323,152,105678,1,2,0:0:0:0:
369,135,105761,1,10,1:2:0:0:
195,315,105928,1,0,1:0:0:0:
159,91,106094,1,0,0:0:0:0:
204,70,106178,1,2,0:0:0:0:
253,78,106261,1,2,1:2:0:0:
280,119,106344,1,2,0:0:0:0:
276,169,106428,1,10,1:2:0:0:
59,140,106594,1,2,0:0:0:0:
78,93,106678,1,2,0:0:0:0:
97,47,106761,5,6,1:2:0:0:
97,272,106928,1,2,0:0:0:0:
97,272,107094,2,0,L|82:352,1,50,10|2,1:2|0:0,0:0:0:0:
186,177,107261,1,0,1:0:0:0:
186,177,107428,2,0,L|201:257,1,50,2|2,0:0|0:0,0:0:0:0:
84,95,107594,1,0,1:0:0:0:
84,95,107761,2,0,L|69:175,1,50,10|0,1:2|0:0,0:0:0:0:
210,49,107928,2,0,L|200:0,1,50,2|0,0:0|0:0,0:0:0:0:
186,177,108094,6,0,P|261:187|300:184,1,100,2|0,1:2|0:0,0:0:0:0:
366,133,108344,1,2,0:0:0:0:
366,133,108428,2,0,L|358:26,1,100,10|0,1:2|1:0,0:0:0:0:
365,235,108762,2,0,L|357:342,1,100,2|0,0:2|1:0,0:0:0:0:
455,278,109011,1,2,0:0:0:0:
459,282,109094,2,0,P|471:222|458:168,1,100,10|0,1:2|0:0,0:0:0:0:
362,37,109428,6,0,B|245:0|277:99|173:54,1,200,2|8,1:2|1:2,3:0:0:0:
331,155,109928,2,0,B|375:258|275:226|314:347,1,200,2|0,1:2|1:0,0:3:0:0:
264,195,110344,1,0,0:0:0:0:
264,195,110428,2,0,P|211:173|146:207,1,100,10|0,1:2|0:0,0:0:0:0:
79,223,110678,1,0,0:0:0:0:
79,223,110761,6,0,L|76:99,1,100,0|2,1:0|0:0,0:0:0:0:
413,199,111094,6,0,L|409:348,1,150.000005722046,8|0,1:2|1:0,0:0:0:0:
264,195,111344,1,2,0:0:0:0:
264,195,111428,6,0,L|258:-23,1,175.00000166893,8|0,1:2|1:0,0:0:0:0:
448,64,111678,1,2,0:0:0:0:
448,64,111761,6,2,L|440:363,1,300,10|2,1:2|0:0,3:0:0:0:
364,277,112094,6,0,P|297:245|243:253,1,100,2|0,1:2|0:0,0:0:0:0:
363,354,112428,1,10,1:2:0:0:
299,152,112594,2,0,L|366:141,1,50,0|2,1:0|0:0,0:0:0:0:
206,56,112761,1,0,0:0:0:0:
206,56,112844,1,0,0:0:0:0:
206,56,112928,2,0,L|224:133,1,50,2|2,1:2|0:0,0:0:0:0:
94,152,113094,1,8,1:2:0:0:
94,152,113261,2,0,L|76:229,1,50,2|0,0:0|0:0,0:0:0:0:
67,43,113428,5,2,1:2:0:0:
188,199,113594,1,0,0:0:0:0:
102,4,113761,1,10,1:2:0:0:
157,240,113928,1,0,1:0:0:0:
306,57,114094,2,0,P|366:41|427:74,1,100,2|0,0:2|1:0,0:0:0:0:
359,141,114344,1,2,0:0:0:0:
359,141,114428,2,0,B|341:189|341:189|346:264,1,100,8|2,1:2|0:1,0:0:0:0:
119,91,114761,5,2,1:0:0:0:
269,163,114928,1,0,1:0:0:0:
175,321,115094,1,8,1:2:0:0:
81,23,115261,5,2,1:0:0:0:
231,95,115428,1,0,1:0:0:0:
137,253,115594,1,8,1:2:0:0:
0,0,115761,5,2,1:0:0:0:
150,72,115928,1,0,1:0:0:0:
21,247,116094,6,0,L|52:61,1,139.999995727539,10|0,1:2|1:0,0:0:0:0:
285,27,116428,2,0,L|254:213,1,139.999995727539,10|0,1:2|1:0,0:0:0:0:
261,165,116928,6,2,B|277:125|277:125|352:121|352:121|267:353,1,349.999989318848,10|0,1:2|0:0,0:3:0:0:
203,321,117428,6,0,L|110:315,1,75.0000028610231,6|0,1:2|0:0,0:0:0:0:
377,287,117761,1,2,0:0:0:0:
277,362,117928,1,0,1:0:0:0:
344,175,118094,2,0,L|370:95,1,75.0000028610231,8|0,1:2|0:0,0:0:0:0:
139,130,118428,1,2,1:0:0:0:
179,150,118511,1,0,0:0:0:0:
190,193,118594,1,0,0:0:0:0:
174,235,118678,1,0,0:0:0:0:
134,255,118761,6,0,P|118:217|82:198,1,75.0000028610231,0|0,1:0|0:0,0:0:0:0:
272,162,119094,1,2,0:1:0:0:
180,323,119261,1,0,1:0:0:0:
270,82,119428,2,0,P|323:68|365:88,1,75.0000028610231,8|0,1:2|0:0,0:0:0:0:
386,332,119761,1,2,0:1:0:0:
341,333,119844,1,0,0:0:0:0:
308,301,119928,1,2,0:0:0:0:
300,256,120011,1,0,0:0:0:0:
321,216,120094,6,0,L|413:228,1,75.0000028610231,2|0,1:2|0:0,0:0:0:0:
286,29,120428,1,2,0:1:0:0:
255,62,120511,1,0,0:0:0:0:
214,80,120594,1,2,1:2:0:0:
168,76,120678,1,0,0:0:0:0:
130,50,120761,1,10,1:2:0:0:
85,47,120844,1,0,0:0:0:0:
42,62,120928,1,2,0:0:0:0:
15,97,121011,1,0,0:0:0:0:
8,141,121094,1,2,0:1:0:0:
26,182,121178,1,0,0:0:0:0:
60,210,121261,1,2,0:0:0:0:
79,250,121344,1,0,0:0:0:0:
75,295,121428,5,2,1:0:0:0:
190,96,121594,1,0,1:0:0:0:
146,336,121761,1,2,1:0:0:0:
119,55,121927,1,0,1:0:0:0:
217,377,122094,1,10,1:0:0:0:
48,14,122260,1,0,1:0:0:0:
296,381,122428,2,0,L|312:257,1,125,2|10,1:0|1:2,0:0:0:0:
174,76,122761,6,0,L|164:151,1,75.0000028610231,6|0,1:2|0:0,0:0:0:0:
48,14,123094,1,2,0:1:0:0:
88,210,123261,1,0,1:0:0:0:
265,84,123428,2,0,P|322:77|362:86,1,75.0000028610231,8|0,1:2|0:0,0:0:0:0:
463,247,123761,1,2,1:0:0:0:
418,255,123844,1,0,0:0:0:0:
378,232,123928,1,2,0:0:0:0:
333,226,124011,1,0,0:0:0:0:
291,243,124094,6,0,L|286:346,1,75.0000028610231,2|0,1:2|0:0,0:0:0:0:
384,144,124428,1,2,0:1:0:0:
204,292,124594,1,0,1:2:0:0:
194,62,124761,2,0,P|218:114|212:164,1,75.0000028610231,8|0,1:2|0:0,0:0:0:0:
41,223,125094,1,2,0:1:0:0:
29,179,125178,1,0,0:0:0:0:
52,140,125261,1,2,0:0:0:0:
95,130,125344,1,0,0:0:0:0:
133,154,125428,6,0,L|124:250,1,75.0000028610231,2|0,1:2|0:0,0:0:0:0:
53,28,125761,1,2,0:1:0:0:
94,44,125844,1,0,0:0:0:0:
139,44,125928,1,2,1:2:0:0:
183,35,126011,1,0,0:0:0:0:
224,17,126094,1,10,1:2:0:0:
269,19,126178,1,0,0:0:0:0:
309,37,126261,1,2,0:0:0:0:
331,75,126344,1,0,0:0:0:0:
335,120,126428,1,2,0:1:0:0:
318,161,126511,1,0,0:0:0:0:
290,196,126594,1,2,0:0:0:0:
245,205,126678,1,0,0:0:0:0:
200,198,126761,5,2,1:0:0:0:
445,207,126928,1,0,1:0:0:0:
218,286,127094,1,2,1:0:0:0:
427,119,127262,1,0,1:0:0:0:
236,374,127428,1,10,1:0:0:0:
409,31,127595,1,0,1:0:0:0:
333,384,127761,2,0,L|341:221,1,125,2|10,1:0|1:2,0:0:0:0:
167,83,128094,6,0,L|174:175,1,75.0000028610231,6|0,1:2|0:0,0:0:0:0:
181,289,128428,1,2,0:1:0:0:
267,85,128594,1,0,1:0:0:0:
87,225,128761,2,0,P|43:247|-5:235,1,75.0000028610231,8|0,1:2|0:0,0:0:0:0:
267,85,129094,1,2,1:0:0:0:
269,130,129178,1,0,0:0:0:0:
292,168,129261,1,2,0:0:0:0:
328,194,129344,1,0,0:0:0:0:
372,202,129428,6,0,L|404:114,1,75.0000028610231,2|0,1:2|0:0,0:0:0:0:
325,28,129761,1,2,0:1:0:0:
360,291,129928,1,0,1:0:0:0:
466,77,130094,2,0,P|414:48|384:48,1,75.0000028610231,8|0,1:2|0:0,0:0:0:0:
143,343,130428,1,2,0:1:0:0:
182,322,130511,1,0,0:0:0:0:
190,277,130594,1,2,0:0:0:0:
169,236,130678,1,0,0:0:0:0:
124,232,130761,6,0,P|77:246|35:239,1,75.0000028610231,2|0,1:2|0:0,0:0:0:0:
256,42,131094,1,2,0:1:0:0:
287,74,131178,1,0,0:0:0:0:
295,117,131261,1,2,1:2:0:0:
289,161,131344,1,0,0:0:0:0:
271,202,131428,1,10,1:2:0:0:
257,244,131511,1,0,0:0:0:0:
265,288,131594,1,2,0:0:0:0:
290,325,131678,1,0,0:0:0:0:
330,344,131761,1,2,0:1:0:0:
374,337,131844,1,0,0:0:0:0:
410,309,131928,1,2,0:0:0:0:
425,267,132011,1,0,0:0:0:0:
414,223,132094,5,2,1:0:0:0:
195,198,132261,1,0,1:0:0:0:
438,133,132428,1,2,1:0:0:0:
171,288,132594,1,0,1:0:0:0:
462,43,132761,1,10,1:0:0:0:
147,378,132928,1,0,1:0:0:0:
278,73,133094,2,0,L|287:215,1,125,2|10,1:0|1:2,1:0:0:0:
66,333,133428,6,0,L|92:116,1,200,6|2,1:2|0:1,0:0:0:0:
148,365,133928,1,2,1:2:0:0:
148,365,134011,1,0,0:0:0:0:
148,365,134094,2,0,L|174:148,1,200,8|2,1:2|1:0,0:0:0:0:
66,333,134594,1,2,0:0:0:0:
66,333,134678,1,0,0:0:0:0:
66,333,134761,6,0,L|92:116,1,200,2|2,1:2|0:1,0:0:0:0:
291,93,135261,2,0,L|302:158,1,50,0|0,1:0|0:0,0:0:0:0:
276,284,135428,1,10,1:2:0:0:
282,224,135511,1,0,0:0:0:0:
323,180,135594,1,2,0:0:0:0:
380,161,135678,1,0,0:0:0:0:
438,172,135761,1,10,1:2:0:0:
478,215,135844,1,0,0:0:0:0:
486,274,135928,2,0,L|469:355,1,50,2|0,0:0|0:0,0:0:0:0:
105,89,136261,5,2,1:0:0:0:
407,295,136428,1,0,1:0:0:0:
105,295,136594,1,0,1:0:0:0:
408,88,136761,1,2,1:0:0:0:
256,352,136928,1,0,1:0:0:0:
256,32,137094,1,0,1:0:0:0:
256,192,137261,5,6,1:0:0:0:
256,192,137344,12,4,138761,0:0:0:0:
197,222,138928,5,0,0:0:0:0:
197,222,139094,1,10,0:2:0:0:
229,52,139261,2,0,P|271:38|340:58,1,100,2|0,1:2|0:0,0:0:0:0:
309,147,139594,2,2,L|326:44,1,100,2|8,1:2|0:2,0:0:0:0:
369,248,139928,2,2,L|349:358,1,100,2|0,0:0|1:0,0:0:0:0:
351,346,140428,6,0,P|298:317|238:324,1,100,10|0,0:2|1:0,0:0:0:0:
123,335,140761,2,0,L|109:384,1,50,2|0,0:0|0:0,0:0:0:0:
109,278,140928,2,0,L|85:354,1,50,0|0,1:2|0:0,0:0:0:0:
195,225,141094,2,0,L|209:274,1,50,10|0,0:0|0:0,0:0:0:0:
209,168,141261,2,0,L|233:244,1,50,2|2,0:0|0:0,0:0:0:0:
117,158,141428,5,2,1:2:0:0:
204,84,141594,1,0,0:0:0:0:
36,105,141761,1,10,0:2:0:0:
162,15,141928,2,0,P|219:7|275:18,1,100,2|0,1:2|0:0,0:0:0:0:
272,111,142261,2,2,P|274:55|256:3,1,100,2|8,1:2|0:0,0:0:0:0:
241,232,142594,2,2,P|239:288|257:340,1,100,2|0,0:0|1:0,0:0:0:0:
251,329,143094,6,2,B|294:315|294:315|391:328,1,100,8|0,0:0|1:0,0:0:0:0:
174,262,143428,2,0,L|115:286,1,50,2|0,0:0|0:0,0:0:0:0:
245,154,143594,2,0,L|299:132,1,50,0|0,1:2|0:0,0:0:0:0:
103,195,143761,2,0,L|44:219,1,50,10|0,0:0|0:0,0:0:0:0:
174,87,143927,2,0,L|228:65,1,50,2|2,0:0|0:0,0:0:0:0:
292,233,144094,5,2,1:2:0:0:
177,170,144261,1,0,0:0:0:0:
236,324,144428,1,10,0:0:0:0:
340,102,144594,2,0,P|411:94|466:109,1,100,2|0,1:2|0:0,0:0:0:0:
457,198,144928,2,4,P|452:148|439:99,1,100,2|8,1:2|0:0,0:0:0:0:
252,247,145261,2,4,P|247:296|234:345,1,100,2|0,0:0|1:0,0:0:0:0:
234,345,145761,6,4,B|190:323|190:323|125:333,1,100,10|0,0:0|1:0,0:0:0:0:
24,185,146094,2,0,L|46:115,1,50,2|0,0:0|0:0,0:0:0:0:
105,10,146261,2,0,L|116:87,1,50,0|0,1:2|0:0,0:0:0:0:
119,223,146428,2,0,L|141:153,1,50,10|0,0:0|0:0,0:0:0:0:
200,48,146594,2,0,L|211:125,1,50,2|2,0:0|0:0,0:0:0:0:
234,233,146761,5,2,1:2:0:0:
319,119,146928,1,0,0:0:0:0:
334,280,147094,1,10,0:0:0:0:
486,206,147261,2,0,P|460:149|407:136,1,100,2|0,1:2|0:0,0:0:0:0:
421,236,147594,2,4,L|429:137,1,100,2|0,1:2|0:0,0:0:0:0:
288,27,147928,1,2,0:0:0:0:
310,191,148094,5,0,1:0:0:0:
288,27,148428,1,0,1:0:0:0:
143,300,148761,6,0,P|87:319|1:298,1,125,8|0,1:2|0:0,0:0:0:0:
310,191,149094,2,0,P|382:189|487:252,1,150.000005722046,10|2,1:2|0:0,0:0:0:0:
281,278,149344,1,2,0:0:0:0:
281,278,149428,6,0,P|286:194|268:93,1,150,6|0,1:2|0:0,0:0:0:0:
252,85,149761,1,10,1:2:0:0:
184,274,149928,2,0,P|138:318|58:314,1,100,0|0,1:0|0:0,0:0:0:0:
167,194,150178,1,2,0:0:0:0:
167,194,150261,2,0,P|197:193|245:209,1,50,0|0,1:0|0:0,0:0:0:0:
64,251,150428,2,2,L|79:66,1,150,10|2,1:2|0:0,0:3:0:0:
99,57,150761,2,0,P|50:69|-26:62,1,100,0|0,1:0|0:0,0:0:0:0:
252,15,151094,5,10,1:2:0:0:
224,288,151261,1,0,1:0:0:0:
342,52,151428,1,2,0:0:0:0:
134,251,151595,1,0,1:0:0:0:
433,89,151761,1,10,1:2:0:0:
43,214,151928,1,0,0:0:0:0:
408,184,152094,6,0,B|429:231|429:231|435:349,1,150,6|0,1:2|0:0,0:0:0:0:
458,361,152428,2,0,P|485:347|531:347,1,50,10|0,1:2|0:0,0:0:0:0:
302,276,152594,2,0,P|235:295|166:276,1,100,2|0,1:2|0:0,0:0:0:0:
105,111,152928,1,0,1:0:0:0:
105,111,153011,1,0,0:0:0:0:
105,111,153094,2,0,L|174:102,1,50,8|0,1:2|0:0,0:0:0:0:
65,287,153261,2,0,L|51:362,1,50,2|0,0:0|0:0,0:0:0:0:
23,195,153428,5,2,1:2:0:0:
27,180,153511,1,2,0:0:0:0:
30,165,153594,1,2,0:0:0:0:
161,308,153761,1,8,1:2:0:0:
130,52,153928,2,0,P|75:25|13:40,1,100,0|2,1:0|0:0,0:0:0:0:
131,140,154178,1,0,0:0:0:0:
131,140,154261,2,0,P|158:123|203:122,1,50,0|0,1:0|0:0,0:0:0:0:
373,138,154428,1,10,1:2:0:0:
373,187,154511,1,0,0:0:0:0:
352,232,154594,1,2,0:0:0:0:
315,267,154678,1,0,0:0:0:0:
266,278,154761,6,0,B|258:222|258:222|265:152,1,100,4|2,1:2|0:0,0:0:0:0:
270,129,155011,1,0,0:0:0:0:
275,137,155094,1,10,1:2:0:0:
148,255,155261,2,0,L|164:370,1,100,0|0,1:0|0:0,0:0:0:0:
168,100,155594,2,0,L|183:156,1,50,2|0,1:2|0:0,0:0:0:0:
261,284,155761,2,0,L|275:223,1,50,8|0,1:2|0:0,0:0:0:0:
385,176,155928,2,2,L|400:232,1,50,2|0,0:0|0:0,0:3:0:0:
234,277,156094,6,0,L|263:146,1,100,2|0,1:2|0:0,0:0:0:0:
138,261,156428,2,0,L|158:403,1,125,10|0,1:2|1:0,0:0:0:0:
101,149,156761,2,0,L|137:-15,1,150.000005722046,2|0,0:2|1:0,0:0:0:0:
5,133,157095,2,0,L|33:337,1,175.00000166893,10|0,1:2|0:0,0:0:0:0:
247,96,157428,6,0,P|318:81|378:122,1,150,6|0,1:2|0:0,0:0:0:0:
404,166,157761,2,0,L|395:243,1,50,10|0,1:2|0:0,0:0:0:0:
184,136,157928,2,0,L|201:-8,1,100,2|0,1:2|0:0,0:0:0:0:
254,179,158178,1,0,0:0:0:0:
254,179,158261,2,0,L|246:252,1,50,2|0,1:2|0:0,0:0:0:0:
317,54,158428,1,8,1:2:0:0:
299,308,158594,2,0,L|291:381,1,50,2|0,0:0|0:0,0:0:0:0:
404,166,158761,6,0,P|454:153|512:180,2,100,12|0|2,1:3|0:0|0:0,0:0:0:0:
404,166,159428,1,2,0:0:0:0:
431,83,159594,1,2,0:0:0:0:
312,174,159761,1,2,0:0:0:0:
276,192,159844,1,0,0:0:0:0:
236,198,159928,1,2,0:0:0:0:
196,194,160011,1,0,0:0:0:0:
160,176,160094,6,0,L|174:67,1,100,6|0,1:2|0:0,0:0:0:0:
201,48,160344,1,0,0:0:0:0:
206,56,160428,1,8,1:2:0:0:
79,223,160594,2,0,P|83:280|47:341,1,100,0|0,1:0|0:0,0:0:0:0:
2,217,160844,1,2,0:0:0:0:
2,217,160928,2,0,P|22:170|43:152,1,50,2|0,1:2|0:0,0:0:0:0:
196,194,161094,2,2,L|175:349,1,150,8|2,1:2|0:0,0:3:0:0:
210,365,161428,2,0,P|254:345|310:351,1,100,0|0,1:2|0:0,0:0:0:0:
345,158,161761,5,8,0:0:0:0:
144,200,161928,1,2,1:2:0:0:
369,86,162094,1,0,0:0:0:0:
120,272,162261,1,2,1:2:0:0:
393,14,162428,1,8,1:2:0:0:
96,344,162594,1,2,0:0:0:0:
243,56,162761,6,0,P|258:121|228:223,1,150,6|0,1:2|0:0,0:0:0:0:
206,232,163094,2,0,P|176:217|129:211,1,50,10|0,1:2|0:0,0:0:0:0:
342,123,163261,2,0,P|391:112|466:147,1,100,0|0,1:0|0:0,0:0:0:0:
267,314,163594,1,0,1:0:0:0:
267,314,163678,1,0,0:0:0:0:
267,314,163761,2,0,L|199:320,1,50,8|0,1:2|0:0,0:0:0:0:
381,200,163928,2,0,L|385:268,1,50,2|0,0:0|0:0,0:0:0:0:
259,168,164094,5,2,1:2:0:0:
263,153,164177,1,2,0:0:0:0:
266,138,164260,1,2,0:0:0:0:
128,269,164428,1,8,1:2:0:0:
159,42,164594,2,0,P|175:78|153:163,1,100,0|0,1:0|0:0,0:0:0:0:
51,263,164928,2,0,P|31:252|-6:243,1,50,0|0,1:0|0:0,0:0:0:0:
179,212,165094,1,10,1:2:0:0:
212,234,165178,1,0,0:0:0:0:
251,241,165261,1,2,0:0:0:0:
289,232,165344,1,2,0:0:0:0:
322,209,165428,6,0,L|314:92,1,100,6|0,1:2|0:0,0:0:0:0:
297,73,165678,1,2,0:0:0:0:
302,81,165762,1,8,1:2:0:0:
419,264,165928,2,0,L|411:379,1,100,0|0,1:0|0:0,0:0:0:0:
398,192,166178,1,0,0:0:0:0:
398,192,166261,2,0,P|435:190|462:204,1,50,2|0,1:2|0:0,0:0:0:0:
297,290,166428,2,0,P|243:302|203:293,1,50,10|0,1:2|0:0,0:0:0:0:
141,119,166594,2,2,P|149:161|154:210,1,50,2|0,0:0|0:0,0:1:0:0:
125,272,166761,6,0,P|181:237|248:253,1,100,0|0,1:0|0:0,0:0:0:0:
447,187,167094,6,0,P|391:152|324:168,1,125,10|0,1:2|1:0,0:0:0:0:
53,348,167428,6,2,P|115:308|190:326,1,150.000005722046,2|0,0:0|1:0,0:1:0:0:
400,107,167761,6,0,P|326:61|238:82,1,175.00000166893,10|0,1:2|0:0,0:0:0:0:
301,344,168094,6,0,B|293:298|293:298|313:263|313:263|300:177,1,150,6|0,1:2|0:0,0:0:0:0:
285,161,168428,2,0,L|222:173,1,50,8|0,1:2|0:0,0:0:0:0:
416,203,168594,2,0,B|432:236|432:236|419:321,1,100,0|0,1:0|0:0,0:0:0:0:
207,258,168928,1,2,1:2:0:0:
373,119,169094,1,8,1:2:0:0:
318,299,169261,1,2,0:0:0:0:
144,140,169428,5,0,1:0:0:0:
189,120,169511,1,0,0:0:0:0:
238,125,169594,1,2,0:0:0:0:
284,145,169678,1,2,0:0:0:0:
305,189,169761,1,8,1:2:0:0:
261,31,169928,1,0,1:0:0:0:
211,228,170094,2,0,L|197:285,1,50,2|0,0:0|0:0,0:0:0:0:
63,138,170261,2,0,L|53:62,1,50,2|0,1:2|0:0,0:0:0:0:
188,61,170428,1,8,1:2:0:0:
109,252,170594,1,2,0:0:0:0:
393,117,170761,5,6,1:2:0:0:
303,214,170928,1,0,0:0:0:0:
424,246,171094,1,2,0:0:0:0:
288,101,171261,1,0,1:0:0:0:
205,283,171428,1,10,1:2:0:0:
155,24,171594,1,0,0:0:0:0:
232,201,171761,1,2,1:2:0:0:
241,6,171928,1,2,0:0:0:0:
58,196,172094,5,2,1:2:0:0:
58,196,172261,1,0,0:0:0:0:
257,110,172428,1,2,0:0:0:0:
257,110,172594,1,0,1:2:0:0:
251,315,172761,1,10,1:2:0:0:
251,315,172928,1,0,0:0:0:0:
433,174,173094,1,2,0:0:0:0:
414,220,173178,1,0,0:0:0:0:
417,269,173261,1,0,0:0:0:0:
436,315,173344,1,0,0:0:0:0:
476,347,173428,6,0,L|506:136,1,200,2|0,1:2|0:0,0:0:0:0:
294,28,173928,1,2,1:2:0:0:
294,28,174094,2,0,L|303:159,1,100,8|0,1:2|0:0,0:0:0:0:
168,304,174428,2,0,L|188:189,1,100,2|0,0:0|0:0,0:0:0:0:
27,37,174761,6,0,L|34:100,1,50,0|0,1:2|0:0,0:0:0:0:
44,159,174928,1,2,1:2:0:0:
175,20,175094,1,8,1:2:0:0:
185,205,175261,1,2,1:2:0:0:
189,254,175344,1,0,0:0:0:0:
192,304,175428,1,8,1:2:0:0:
328,75,175594,1,2,1:2:0:0:
325,135,175678,1,0,0:0:0:0:
321,194,175761,6,0,P|359:179|452:195,1,125,0|8,1:0|1:2,0:0:0:0:
228,54,176094,6,0,P|221:124|91:171,1,200,6|0,1:2|0:0,0:0:0:0:
130,70,176594,1,0,1:0:0:0:
217,255,176761,2,0,P|234:317|220:383,1,100,8|2,1:2|0:0,0:0:0:0:
100,304,177094,1,2,1:2:0:0:
114,178,177261,1,2,0:0:0:0:
375,222,177428,5,2,1:2:0:0:
336,342,177594,1,0,0:0:0:0:
288,141,177761,1,2,0:0:0:0:
445,289,177928,1,0,1:2:0:0:
265,2,178094,1,10,1:2:0:0:
270,252,178261,1,0,0:0:0:0:
410,115,178428,1,2,0:0:0:0:
137,144,178594,1,2,0:0:0:0:
137,144,178678,1,0,0:0:0:0:
137,144,178761,6,0,L|145:285,1,100,2|0,1:0|0:0,0:0:0:0:
58,56,179094,1,2,0:0:0:0:
254,127,179261,6,0,L|261:277,1,125,2|8,1:0|1:2,0:0:0:0:
175,39,179594,1,2,0:0:0:0:
374,115,179761,6,0,L|382:266,1,150.000005722046,2|2,1:0|0:0,0:0:0:0:
245,354,180094,6,0,P|196:325|133:329,1,100,0|0,1:0|0:0,0:0:0:0:
471,186,180428,1,0,1:0:0:0:
428,349,180594,1,2,0:3:0:0:
276,30,180761,1,8,1:0:0:0:
276,30,181428,6,0,P|320:71|303:158,1,125,6|0,1:2|0:0,0:0:0:0:
224,185,181678,1,0,0:0:0:0:
209,194,181761,2,0,L|126:176,1,62.5,10|0,1:0|0:0,0:0:0:0:
0,114,181928,2,0,L|288:101,1,250,0|0,1:0|1:0,0:0:0:0:
264,114,182344,1,0,0:0:0:0:
274,130,182428,5,8,1:0:0:0:
286,190,182511,1,0,0:0:0:0:
257,245,182594,1,2,0:0:0:0:
205,280,182678,1,0,0:0:0:0:
142,277,182761,5,2,1:0:0:0:
351,127,182928,1,2,0:0:0:0:
274,318,183094,2,0,L|269:399,1,62.5,8|0,1:0|0:0,0:0:0:0:
182,176,183261,2,0,P|121:110|32:236,1,250,0|0,1:0|1:0,0:0:0:0:
258,78,183761,2,0,P|315:64|373:102,1,125,8|2,1:0|0:0,0:0:0:0:
417,205,184011,1,0,0:0:0:0:
417,205,184094,6,0,B|394:137|394:137|418:-4,1,187.5,2|0,1:0|0:0,0:0:0:0:
487,3,184428,1,8,1:0:0:0:
344,240,184594,2,0,L|369:317,1,62.5,2|0,1:2|0:0,0:0:0:0:
275,119,184761,1,2,0:0:0:0:
224,83,184844,1,0,0:0:0:0:
163,76,184927,1,2,1:2:0:0:
106,101,185011,1,0,0:0:0:0:
69,150,185094,1,8,1:0:0:0:
61,211,185177,1,0,0:0:0:0:
84,268,185261,1,2,0:0:0:0:
133,307,185344,1,2,0:0:0:0:
194,316,185427,5,10,1:0:0:0:
154,7,185594,1,0,1:0:0:0:
271,294,185761,1,10,1:0:0:0:
77,29,185927,1,0,1:0:0:0:
348,272,186094,1,10,1:0:0:0:
0,51,186261,1,0,1:0:0:0:
393,126,186428,2,0,L|241:135,1,125,10|2,1:0|1:2,0:0:0:0:
415,59,186678,1,0,0:0:0:0:
415,59,186761,6,0,B|393:123|393:123|423:280,1,187.5,6|0,1:2|0:0,0:0:0:0:
446,358,187094,2,0,L|494:313,1,62.5,10|0,1:0|0:0,0:0:0:0:
299,214,187261,2,0,P|328:320|193:349,1,250,0|0,1:0|1:0,0:0:0:0:
202,353,187678,1,0,0:0:0:0:
193,336,187761,5,8,1:0:0:0:
228,286,187844,1,0,0:0:0:0:
221,225,187927,1,2,0:2:0:0:
176,184,188011,1,0,0:0:0:0:
115,182,188094,5,2,1:0:0:0:
100,353,188261,1,2,0:0:0:0:
246,141,188428,2,0,L|340:141,1,62.5,8|0,1:0|0:0,0:0:0:0:
141,27,188594,2,0,L|148:281,1,250,0|0,1:0|1:0,0:0:0:0:
233,67,189094,2,0,P|305:38|378:73,1,125,8|2,1:0|0:0,0:0:0:0:
445,139,189344,1,0,0:0:0:0:
445,139,189428,6,0,P|385:118|499:58,1,250,2|8,1:0|1:0,0:0:0:0:
446,276,189928,2,0,L|428:361,1,62.5,2|0,1:2|0:0,0:0:0:0:
352,185,190094,1,2,0:0:0:0:
300,150,190177,1,0,0:0:0:0:
239,153,190260,1,2,1:2:0:0:
191,192,190344,1,0,0:0:0:0:
176,251,190427,1,8,1:0:0:0:
124,285,190511,1,0,0:0:0:0:
63,282,190594,1,2,0:0:0:0:
15,243,190678,1,2,0:0:0:0:
0,184,190761,5,2,1:0:0:0:
295,224,190928,1,0,1:0:0:0:
35,104,191094,1,10,1:0:0:0:
260,304,191261,1,0,1:0:0:0:
70,24,191428,1,2,1:0:0:0:
225,384,191594,1,0,1:0:0:0:
193,21,191761,2,0,L|176:169,1,125,10|2,1:0|0:0,1:0:0:0:
182,149,192344,5,0,1:0:0:0:
182,149,192428,2,0,L|253:142,1,62.5,14|0,1:2|0:0,0:0:0:0:
496,269,192594,2,0,L|222:253,1,250,0|0,1:0|1:0,0:0:0:0:
249,235,193011,1,0,0:0:0:0:
262,222,193094,5,8,1:0:0:0:
280,163,193177,1,0,0:0:0:0:
257,106,193260,1,2,0:0:0:0:
204,77,193344,1,0,0:0:0:0:
144,88,193428,6,0,P|151:165|142:251,1,125,2|2,1:0|0:0,0:0:0:0:
127,354,193761,2,0,L|46:368,1,62.5,8|0,1:0|0:0,0:0:0:0:
255,103,193928,2,0,P|261:201|249:374,1,250,0|0,1:0|1:0,0:0:0:0:
129,30,194428,2,0,P|45:6|-21:51,1,125,8|2,1:0|0:0,0:0:0:0:
67,108,194678,1,0,0:0:0:0:
67,108,194761,6,0,L|286:101,1,187.5,2|0,1:0|0:0,0:0:0:0:
331,52,195094,1,8,1:0:0:0:
118,255,195261,2,0,L|103:340,1,62.5,2|0,1:2|0:0,0:0:0:0:
285,189,195428,1,2,0:0:0:0:
346,189,195511,1,0,0:0:0:0:
395,225,195594,1,2,1:2:0:0:
414,284,195678,1,0,0:0:0:0:
394,342,195761,1,8,1:0:0:0:
343,377,195844,1,0,0:0:0:0:
282,376,195928,1,2,0:0:0:0:
233,338,196011,1,2,0:0:0:0:
216,279,196094,5,2,1:0:0:0:
178,47,196261,1,0,1:0:0:0:
138,295,196428,1,10,1:0:0:0:
256,31,196594,1,0,1:0:0:0:
60,311,196761,1,2,1:0:0:0:
334,15,196928,1,0,1:0:0:0:
256,353,197094,1,10,1:0:0:0:
256,31,197261,1,0,1:0:0:0:
256,193,197428,6,0,P|211:232|103:164,1,200,4|0,1:2|0:0,0:0:0:0:
340,99,197928,1,2,0:0:0:0:
387,83,198011,1,0,0:0:0:0:
433,65,198094,6,0,L|430:308,1,200,10|0,1:2|0:0,0:0:0:0:
175,58,198594,1,2,0:0:0:0:
222,42,198677,1,0,0:0:0:0:
268,24,198760,6,0,L|265:267,1,200,2|0,1:2|0:0,0:0:0:0:
18,41,199261,2,0,L|73:22,1,50,2|0,1:2|0:0,0:0:0:0:
151,101,199428,1,10,1:2:0:0:
167,147,199511,1,0,0:0:0:0:
166,196,199594,1,2,0:0:0:0:
144,241,199678,1,0,0:0:0:0:
104,271,199761,1,10,1:2:0:0:
88,318,199844,1,0,0:0:0:0:
111,362,199928,2,0,L|177:363,1,50,2|0,0:0|0:0,0:0:0:0:
436,192,200261,5,2,1:0:0:0:
346,36,200427,1,0,1:0:0:0:
166,36,200594,1,0,1:0:0:0:
76,191,200761,1,2,1:0:0:0:
166,347,200927,1,0,1:0:0:0:
346,347,201094,1,0,1:0:0:0:
256,192,201261,5,6,1:0:0:0:
256,192,201344,12,4,202761,0:3:0:0:
