osu file format v14

[General]
AudioFilename: Dj CUTMAN Spark Mandrill (Mega Man X Remix).mp3
AudioLeadIn: 0
PreviewTime: 53594
Countdown: 0
SampleSet: Soft
StackLeniency: 0.7
Mode: 0
LetterboxInBreaks: 0
WidescreenStoryboard: 0

[Editor]
Bookmarks: 21428,42761,53761,74761,85428,106761,117428,138761,149428,170761,181428,197428
DistanceSpacing: 1.2
BeatDivisor: 2
GridSize: 4
TimelineZoom: 1.3

[Metadata]
Title:Spark Mandrill Acapella (Dj CUTMAN Remix)
TitleUnicode:Spark Mandrill Acapella (Dj CUTMAN Remix)
Artist:Smooth McGroove
ArtistUnicode:Smooth McGroove
Creator:ReFaller
Version:Hard
Source:Mega Man X
Tags:smooth mcgrove remixed dnb zetera fartownik okorin okoratu
BeatmapID:872010
BeatmapSetID:399912

[Difficulty]
HPDrainRate:4.5
CircleSize:4
OverallDifficulty:5
ApproachRate:7.5
SliderMultiplier:1.4
SliderTickRate:1

[Events]
//Background and Video events
0,0,"megacutman.jpg",0,0
//Break Periods
2,74961,81936
2,138961,147269
//Storyboard Layer 0 (Background)
//Storyboard Layer 1 (Fail)
//Storyboard Layer 2 (Pass)
//Storyboard Layer 3 (Foreground)
//Storyboard Sound Samples

[TimingPoints]
95,333.333333333333,4,2,0,100,1,0
21428,-111.111111111111,4,2,0,100,0,0
53761,-100,4,1,1,100,0,1
63928,-100,4,2,0,100,0,0
64428,-100,4,1,1,100,0,1
69428,-111.111111111111,4,2,0,100,0,0
85428,-100,4,1,1,100,0,0
117428,-111.111111111111,4,2,0,100,0,0
149011,-111.111111111111,4,1,1,100,0,0
149428,-100,4,1,1,100,0,0
158761,-200,4,2,0,100,0,0
160094,-100,4,1,1,100,0,0
170761,-111.111111111111,4,2,0,100,0,0
181428,-100,4,1,1,100,0,1
191928,-100,4,2,0,100,0,0
192428,-100,4,1,1,100,0,1
197428,-111.111111111111,4,2,0,100,0,0
202678,-111.111111111111,4,2,0,5,0,0

[Colours]
Combo1 : 128,128,128
Combo2 : 0,128,128
Combo3 : 0,0,255
Combo4 : 202,53,53

[HitObjects]
256,192,19428,12,0,21094,0:0:0:0:
88,172,21428,6,0,P|128:224|120:288,1,125.999996154785,4|0,3:2|0:0,0:0:0:0:
56,316,21928,1,0,3:0:0:0:
123,281,22094,2,0,P|187:270|248:268,1,125.999996154785,8|0,0:0|3:0,0:0:0:0:
392,321,22761,5,0,3:0:0:0:
248,268,23094,1,0,0:0:0:0:
301,124,23428,1,8,0:0:0:0:
445,177,23761,1,0,0:0:0:0:
392,321,24094,6,0,L|256:329,1,125.999996154785,0|0,3:0|0:0,0:0:0:0:
200,365,24594,1,0,3:0:0:0:
266,328,24761,2,0,P|262:236|188:184,1,188.999994232178,8|0,0:0|0:0,0:0:0:0:
116,208,25428,6,0,P|80:216|36:208,2,62.9999980773926,0|0|0,3:0|3:0|3:0,0:0:0:0:
396,208,26094,2,0,P|432:216|476:208,2,62.9999980773926,8|0|0,0:0|0:0|0:0,0:0:0:0:
356,144,26594,1,8,0:0:0:0:
432,140,26761,6,0,P|404:84|344:68,1,125.999996154785,0|0,3:0|0:0,0:0:0:0:
256,152,27261,1,0,3:0:0:0:
165,67,27428,2,0,P|106:84|80:140,1,125.999996154785,8|0,0:0|0:0,0:0:0:0:
139,247,28428,6,0,P|135:278|116:304,1,62.9999980773926,0|0,0:0|3:0,0:0:0:0:
188,192,28761,2,0,L|316:192,1,125.999996154785,8|0,0:0|0:0,0:0:0:0:
248,328,29428,6,0,P|184:344|124:340,1,125.999996154785,0|0,3:0|0:0,0:0:0:0:
56,308,29928,1,0,0:0:0:0:
116,264,30094,1,8,0:0:0:0:
120,260,30261,2,0,P|140:200|112:148,1,125.999996154785,0|8,0:0|0:0,0:0:0:0:
64,208,30761,5,0,3:0:0:0:
188,296,31094,1,0,3:0:0:0:
202,144,31428,1,8,0:0:0:0:
78,56,31761,1,0,0:0:0:0:
76,60,31928,1,0,0:0:0:0:
72,64,32094,6,0,B|52:152|52:152|56:200,1,125.999996154785,2|0,3:2|0:0,0:0:0:0:
104,244,32594,1,0,3:0:0:0:
176,220,32761,2,0,B|196:190|196:190|223:104,1,125.999996154785,10|0,0:0|0:0,0:0:0:0:
72,64,33428,1,2,3:2:0:0:
223,104,33761,6,0,P|256:120|292:120,1,62.9999980773926,0|0,0:0|3:0,0:0:0:0:
336,68,34094,2,0,P|357:132|327:184,1,125.999996154785,10|0,0:0|0:0,0:0:0:0:
176,316,34761,6,0,P|154:251|184:199,1,125.999996154785,2|0,3:2|0:0,0:0:0:0:
244,160,35261,1,0,3:0:0:0:
252,236,35428,2,0,P|307:262|432:232,1,188.999994232178,10|8,0:0|0:0,0:0:0:0:
484,184,36094,6,0,P|500:212|500:256,2,62.9999980773926,2|0|0,3:2|3:0|3:0,0:0:0:0:
128,128,36761,2,0,P|128:95|150:57,2,62.9999980773926,10|0|8,0:0|0:0|0:0,0:0:0:0:
140,204,37261,1,8,0:0:0:0:
168,276,37428,6,0,B|212:276|212:276|248:292|248:292|296:292,1,125.999996154785,2|0,3:2|0:0,0:0:0:0:
392,180,38094,2,0,P|497:214|436:308,1,251.999992309571,10|2,0:0|3:2,0:0:0:0:
320,208,39094,6,0,P|314:177|324:147,1,62.9999980773926,0|0,0:0|3:0,0:0:0:0:
379,257,39428,2,0,P|323:284|265:264,1,125.999996154785,10|0,0:0|0:0,0:0:0:0:
268,112,40094,6,0,P|204:108|160:152,1,125.999996154785,2|0,3:2|0:0,0:0:0:0:
120,212,40594,1,0,0:0:0:0:
84,144,40761,2,0,P|44:194|56:255,1,125.999996154785,10|0,0:0|0:0,0:0:0:0:
120,212,41261,1,8,0:0:0:0:
256,192,41428,12,4,42761,3:2:0:0:
256,348,44094,5,0,3:0:0:0:
256,319,45428,5,0,3:0:0:0:
256,290,46094,5,0,3:0:0:0:
256,262,46761,5,0,3:0:0:0:
256,233,47428,5,0,3:0:0:0:
256,204,48094,5,4,3:2:0:0:
256,176,49428,5,0,3:0:0:0:
256,147,50761,5,0,3:0:0:0:
256,118,52428,5,0,3:0:0:0:
256,90,52762,1,0,3:0:0:0:
256,61,53094,2,0,L|255:-4,1,62.9999980773926,0|0,3:0|0:0,0:0:0:0:
496,80,53761,6,2,L|484:224,1,140,14|2,0:0|0:0,0:0:0:0:
448,296,54261,1,0,0:0:0:0:
372,328,54428,2,0,L|300:336,1,70,10|0,0:0|0:0,0:0:0:0:
220,316,54761,2,2,P|178:264|208:200,1,140,2|10,0:0|0:0,0:0:0:0:
280,172,55261,2,2,P|305:110|208:32,1,210,2|10,0:0|0:0,0:0:0:0:
56,104,56094,6,2,P|40:168|56:240,1,140,2|10,0:0|0:0,0:0:0:0:
124,288,56594,2,0,P|186:263|192:193,1,140,2|2,0:0|0:0,0:0:0:0:
132,140,57094,2,0,L|148:68,1,70,8|0,0:0|0:0,0:0:0:0:
328,32,57428,6,0,L|400:40,1,70,2|0,0:0|0:0,0:0:0:0:
356,112,57761,2,0,L|401:168,1,70,10|0,0:0|0:0,0:0:0:0:
320,188,58094,2,0,L|311:260,1,70,2|0,0:0|0:0,0:0:0:0:
240,216,58428,2,0,L|183:261,1,70,10|0,0:0|0:0,0:0:0:0:
164,176,58761,1,4,0:0:0:0:
312,257,59094,6,2,L|452:280,1,140,10|2,0:0|0:0,0:0:0:0:
508,220,59594,1,0,0:0:0:0:
488,140,59761,2,0,P|476:104|484:68,1,70,10|0,0:0|0:0,0:0:0:0:
427,199,60094,2,2,P|397:137|395:68,1,140,2|10,0:0|0:0,0:0:0:0:
323,28,60594,2,2,P|316:132|351:230,1,210,2|10,0:0|0:0,0:0:0:0:
232,348,61428,6,2,B|164:364|164:316|96:356,1,140,2|10,0:0|0:0,0:0:0:0:
16,380,61928,2,0,P|35:331|3:252,1,140,2|2,0:0|0:0,0:0:0:0:
4,168,62428,2,0,L|28:96,1,70,8|0,0:0|0:0,0:0:0:0:
100,60,62761,6,0,P|136:48|168:48,1,70,2|0,0:0|0:0,0:0:0:0:
300,95,63094,2,0,P|266:104|231:103,1,70,10|0,0:0|0:0,0:0:0:0:
99,172,63427,2,0,P|133:161|168:160,1,70,2|0,0:0|0:0,0:0:0:0:
311,190,63761,2,0,P|278:201|243:200,1,70,10|0,0:0|0:0,0:0:0:0:
256,352,64428,6,2,L|394:331,1,140,14|2,0:0|0:0,0:0:0:0:
476,348,64928,1,0,0:0:0:0:
448,268,65094,2,0,L|460:200,1,70,10|0,0:0|0:0,0:0:0:0:
384,80,65428,6,2,L|380:220,1,140,2|10,0:0|0:0,0:0:0:0:
277,317,65928,2,2,L|282:107,1,210,2|10,0:0|0:0,0:0:0:0:
116,116,66761,6,2,P|100:180|116:252,1,140,2|10,0:0|0:0,0:0:0:0:
184,300,67261,2,0,P|246:275|252:205,1,140,2|2,0:0|0:0,0:0:0:0:
192,152,67761,2,0,L|208:80,1,70,8|0,0:0|0:0,0:0:0:0:
292,76,68094,6,0,P|316:108|329:138,1,70,2|0,0:0|0:0,0:0:0:0:
413,124,68428,2,0,P|407:163|396:194,1,70,10|0,0:0|0:0,0:0:0:0:
465,240,68761,2,0,P|434:264|404:277,1,70,2|0,0:0|0:0,0:0:0:0:
421,360,69094,2,0,P|383:354|352:343,1,70,10|0,0:0|0:0,0:0:0:0:
301,276,69428,6,0,L|277:144,1,125.999996154785,2|0,3:2|0:0,0:0:0:0:
189,124,69928,5,0,3:0:0:0:
189,124,70094,2,0,L|212:248,1,125.999996154785,10|0,0:0|0:0,0:0:0:0:
137,304,70594,5,0,0:0:0:0:
137,304,70761,2,0,L|115:181,1,125.999996154785,2|0,3:2|0:0,0:0:0:0:
41,124,71261,5,0,3:0:0:0:
41,124,71428,2,0,L|25:56,1,62.9999980773926,10|0,0:0|0:0,0:0:0:0:
115,67,71761,2,0,L|99:-1,1,62.9999980773926,10|0,0:0|0:0,0:0:0:0:
245,132,72261,6,0,P|249:164|250:195,2,62.9999980773926,2|2|2,3:2|0:0|3:2,0:0:0:0:
341,208,72761,2,0,P|329:237|313:264,2,62.9999980773926,2|2|2,0:0|3:2|0:0,0:0:0:0:
361,116,73261,1,2,3:2:0:0:
289,28,73428,1,4,0:0:0:0:
256,192,73594,12,4,74761,0:0:0:0:
256,192,82761,12,8,84761,0:0:0:0:
316,240,85428,6,0,P|264:192|264:124,1,140,6|8,0:0|0:0,0:0:0:0:
340,160,85928,1,0,0:0:0:0:
316,240,86094,2,0,L|176:260,1,140,0|8,0:0|0:0,0:0:0:0:
56,144,86761,1,0,0:0:0:0:
177,259,87094,6,0,P|184:292|176:326,1,70,10|0,0:0|0:0,0:0:0:0:
112,204,87428,2,0,P|97:136|114:63,1,140,2|10,0:0|0:0,0:0:0:0:
400,68,88094,6,2,P|414:136|400:204,1,140,2|10,0:0|0:0,0:0:0:0:
336,260,88594,2,0,P|332:295|342:328,1,70,2|0,0:0|0:0,0:0:0:0:
417,286,88928,2,0,P|440:313|469:330,1,70,0|10,0:0|0:0,0:0:0:0:
320,176,89428,6,0,P|256:156|188:176,1,140,2|8,0:0|0:0,0:0:0:0:
132,240,89928,2,0,P|100:252|60:256,1,70
12,324,90261,2,0,P|44:336|84:340,1,70,0|10,0:0|0:0,0:0:0:0:
160,320,90594,1,0,0:0:0:0:
260,184,90761,5,4,2:0:0:0:
260,184,91094,2,0,P|260:144|248:116,1,70,8|0,0:0|0:0,0:0:0:0:
184,60,91428,2,0,P|252:84|316:64,1,140,0|8,0:0|0:0,0:0:0:0:
472,4,92094,1,0,0:0:0:0:
440,168,92428,6,0,L|452:244,1,70,10|0,0:0|0:0,0:0:0:0:
416,312,92761,2,0,P|344:320|276:344,1,140,2|10,0:0|0:0,0:0:0:0:
28,190,93428,6,2,P|97:197|164:220,1,140,2|10,0:0|0:0,0:0:0:0:
216,288,93928,1,2,0:0:0:0:
252,212,94094,2,0,P|257:172|248:140,1,70,0|2,0:0|0:0,0:0:0:0:
184,84,94428,1,10,0:0:0:0:
249,143,94594,6,0,L|393:131,1,140,2|2,0:0|0:0,0:0:0:0:
469,159,95094,2,0,P|477:235|473:299,2,140,8|0|10,0:0|0:0|0:0,0:0:0:0:
353,43,96094,6,0,P|289:55|253:115,1,140,6|8,0:0|0:0,0:0:0:0:
245,199,96594,1,0,0:0:0:0:
237,283,96761,2,0,P|203:342|136:355,1,140,0|8,0:0|0:0,0:0:0:0:
68,212,97428,6,0,L|56:140,1,70,0|2,0:0|0:0,0:0:0:0:
132,108,97761,2,0,P|80:64|12:72,2,140,10|2|10,0:0|0:0|0:0,0:0:0:0:
380,108,98761,6,0,P|432:64|500:72,1,140,2|10,0:0|0:0,0:0:0:0:
455,142,99261,2,0,L|444:212,1,70,2|0,0:0|0:0,0:0:0:0:
364,192,99594,2,0,L|352:261,1,70,0|0,0:0|0:0,0:0:0:0:
272,241,99928,1,2,0:0:0:0:
220,176,100094,6,0,P|188:236|216:304,2,140,2|8|0,0:0|0:0|0:0,0:0:0:0:
360,80,101094,1,10,0:0:0:0:
360,80,101261,1,2,0:0:0:0:
360,80,101428,6,0,P|357:143|300:192,1,140,2|8,0:0|0:0,0:0:0:0:
220,176,101928,1,0,0:0:0:0:
160,120,102094,2,0,B|116:100|116:100|72:104|72:104|20:88,1,140,0|8,0:0|0:0,0:0:0:0:
184,28,102761,6,0,B|229:41|229:41|273:37|273:37|317:57,1,140,0|10,0:0|0:0,0:0:0:0:
464,140,103428,1,2,0:0:0:0:
304,192,103761,1,10,0:0:0:0:
448,280,104094,6,0,P|400:324|324:336,1,140,2|10,0:0|0:0,0:0:0:0:
256,296,104594,1,2,0:0:0:0:
344,152,104928,2,0,L|416:144,2,70,2|10|2,0:0|0:0|0:0,0:0:0:0:
260,160,105428,5,0,0:0:0:0:
96,200,105761,2,0,L|68:136,1,70,8|0,0:0|0:0,0:0:0:0:
196,24,106261,2,0,L|206:93,1,70,0|8,0:0|0:0,0:0:0:0:
256,260,106761,5,4,0:0:0:0:
256,260,106928,2,0,L|240:332,1,70,2|10,0:0|0:0,0:0:0:0:
92,244,107428,2,0,L|107:175,1,70,2|2,0:0|0:0,0:0:0:0:
124,92,107761,1,8,0:0:0:0:
292,44,108094,6,0,L|328:112,1,70,2|0,0:0|0:0,0:0:0:0:
408,92,108428,2,0,L|385:165,1,70,10|0,0:0|0:0,0:0:0:0:
456,208,108761,2,0,L|388:244,1,70,2|0,0:0|0:0,0:0:0:0:
404,324,109094,2,0,L|330:301,1,70,10|0,0:0|0:0,0:0:0:0:
312,224,109428,6,2,P|312:148|320:76,1,140,2|10,0:0|0:0,0:0:0:0:
200,160,109928,2,0,P|200:236|192:308,1,140,2|0,0:0|0:0,0:0:0:0:
164,376,110428,1,10,0:0:0:0:
116,216,110761,5,0,0:0:0:0:
204,36,111094,1,8,0:0:0:0:
384,124,111428,1,10,0:0:0:0:
296,304,111761,1,10,0:0:0:0:
106,369,112094,6,0,P|74:313|90:241,1,140,2|8,0:0|0:0,0:0:0:0:
156,192,112594,1,0,0:0:0:0:
304,116,112928,2,0,L|376:112,2,70,2|10|2,0:0|0:0|0:0,0:0:0:0:
240,60,113428,6,0,P|205:66|172:80,1,70,2|0,0:0|0:0,0:0:0:0:
108,28,113761,2,0,P|96:60|91:96,1,70,10|0,0:0|0:0,0:0:0:0:
12,128,114094,2,0,P|34:154|63:176,1,70,2|0,0:0|0:0,0:0:0:0:
144,160,114428,1,10,0:0:0:0:
276,56,114761,6,0,L|348:48,2,70,2|2|8,0:0|0:0|0:0,0:0:0:0:
320,128,115261,2,0,L|392:120,2,70,2|2|8,0:0|0:0|0:0,0:0:0:0:
364,200,115761,6,0,L|436:192,1,70,2|2,0:0|0:0,0:0:0:0:
320,128,116094,2,0,L|389:120,1,70,8|0,0:0|0:0,0:0:0:0:
276,56,116428,2,0,L|345:48,1,70,10|0,0:0|0:0,0:0:0:0:
280,204,116928,5,10,0:0:0:0:
16,120,117428,5,4,3:2:0:0:
152,248,117761,2,0,L|136:380,1,125.999996154785,2|8,0:0|0:0,0:0:0:0:
20,204,118428,5,2,3:2:0:0:
28,204,118594,1,0,0:0:0:0:
36,204,118761,2,0,P|88:168|104:108,1,125.999996154785,2|0,3:2|0:0,0:0:0:0:
112,36,119261,2,0,P|148:88|264:88,1,188.999994232178,2|0,3:2|0:0,0:0:0:0:
412,48,120094,6,0,P|360:84|344:144,1,125.999996154785,2|0,3:2|0:0,0:0:0:0:
400,348,120761,2,0,P|364:296|304:280,1,125.999996154785,10|0,0:2|0:0,0:0:0:0:
168,344,121428,6,0,P|135:343|104:332,1,62.9999980773926,2|0,3:2|3:0,0:0:0:0:
148,268,121761,2,0,P|124:244|111:214,1,62.9999980773926,2|0,3:2|3:0,0:0:0:0:
188,200,122094,2,0,P|188:167|200:136,1,62.9999980773926,10|0,3:2|0:0,0:0:0:0:
264,180,122428,2,0,P|287:156|317:143,1,62.9999980773926,10|8,3:2|0:0,0:0:0:0:
332,220,122761,5,4,3:2:0:0:
164,56,123094,2,0,P|116:101|112:164,1,125.999996154785,2|8,0:0|0:0,0:0:0:0:
196,284,123761,5,2,3:2:0:0:
196,284,123928,1,0,0:0:0:0:
196,284,124094,2,0,P|252:256|312:280,1,125.999996154785,2|0,3:2|0:0,0:0:0:0:
256,332,124594,2,0,L|256:144,1,188.999994232178,2|0,3:2|0:0,0:0:0:0:
360,32,125428,5,2,3:2:0:0:
472,228,125761,1,0,0:0:0:0:
256,143,126094,1,10,0:2:0:0:
368,339,126427,1,0,0:0:0:0:
152,254,126761,6,0,L|112:200,1,62.9999980773926,2|0,3:2|3:0,0:0:0:0:
194,88,127094,2,0,L|248:48,1,62.9999980773926,2|0,3:2|3:0,0:0:0:0:
360,130,127428,1,10,3:2:0:0:
152,254,127761,6,0,L|112:200,1,62.9999980773926,10|8,3:2|0:0,0:0:0:0:
194,88,128094,5,4,3:2:0:0:
332,28,128428,2,0,P|333:97|348:152,1,125.999996154785,2|8,0:0|0:0,0:0:0:0:
436,320,129094,5,2,3:2:0:0:
428,316,129261,1,0,0:0:0:0:
420,312,129428,2,0,P|353:295|296:295,1,125.999996154785,2|0,3:2|0:0,0:0:0:0:
256,360,129928,2,0,P|224:276|292:220,1,188.999994232178,2|0,3:2|0:0,0:0:0:0:
432,268,130761,6,0,P|407:205|436:156,1,125.999996154785,2|0,3:2|0:0,0:0:0:0:
332,44,131428,2,0,P|358:98|334:154,1,125.999996154785,10|0,0:2|0:0,0:0:0:0:
177,154,132094,6,0,P|160:128|156:96,1,62.9999980773926,2|0,3:2|3:0,0:0:0:0:
232,100,132428,2,0,P|246:71|271:51,1,62.9999980773926,2|0,3:2|3:0,0:0:0:0:
308,120,132761,2,0,P|339:117|369:130,1,62.9999980773926,10|0,3:2|0:0,0:0:0:0:
328,196,133094,2,0,P|345:222|349:254,1,62.9999980773926,10|8,3:2|0:0,0:0:0:0:
304,312,133428,6,0,L|174:346,1,125.999996154785,6|0,3:2|0:0,0:0:0:0:
118,274,133928,5,0,3:0:0:0:
118,274,134094,2,0,L|240:242,1,125.999996154785,10|0,0:0|3:2,0:0:0:0:
264,148,134594,5,0,0:0:0:0:
259,150,134761,2,0,L|138:182,1,125.999996154785,2|0,3:2|0:0,0:0:0:0:
48,148,135261,5,0,3:0:0:0:
48,148,135428,2,0,L|32:79,1,62.9999980773926,10|0,0:0|0:0,0:0:0:0:
122,91,135761,2,0,L|105:23,1,62.9999980773926,10|0,0:0|0:0,0:0:0:0:
259,150,136261,6,0,L|248:216,2,62.9999980773926,2|2|2,0:0|0:0|0:0,0:0:0:0:
376,100,136761,2,0,L|387:166,2,62.9999980773926,2|2|2,0:0|0:0|0:0,0:0:0:0:
276,24,137261,1,2,0:0:0:0:
256,192,137428,12,4,138761,1:0:0:0:
256,192,148094,12,8,149094,1:0:0:0:
72,312,149428,6,0,P|36:240|60:188,1,140,6|8,0:0|0:0,0:0:0:0:
124,140,149928,1,0,0:0:0:0:
200,172,150094,2,0,P|234:189|276:192,1,70,0|0,0:0|0:0,0:0:0:0:
348,172,150428,1,8,0:0:0:0:
272,20,150761,1,0,0:0:0:0:
200,172,151094,5,10,0:0:0:0:
200,256,151261,2,0,L|212:340,1,70,0|2,0:0|0:0,0:0:0:0:
280,280,151594,2,0,L|292:364,1,70,0|10,0:0|0:0,0:0:0:0:
456,216,152094,6,2,P|412:164|424:96,1,140,6|10,0:0|0:0,0:0:0:0:
288,24,152594,2,2,P|331:75|320:142,1,140
264,204,153094,1,8,0:0:0:0:
180,204,153261,1,2,0:0:0:0:
136,132,153428,2,0,P|128:96|134:61,1,70,2|2,0:0|0:0,0:0:0:0:
64,16,153761,2,0,P|47:94|55:154,1,140,8|0,0:0|0:0,0:0:0:0:
156,288,154428,1,10,0:0:0:0:
255,156,154761,6,0,P|238:90|177:60,1,140,6|8,0:0|0:0,0:0:0:0:
176,144,155261,1,0,0:0:0:0:
204,224,155428,2,0,P|272:240|329:199,1,140,0|8,0:0|0:0,0:0:0:0:
384,48,156094,1,0,0:0:0:0:
228,108,156428,6,0,P|192:116|156:108,1,70,10|0,0:0|0:0,0:0:0:0:
96,52,156761,2,0,P|76:120|108:176,1,140,2|10,0:0|0:0,0:0:0:0:
416,332,157428,6,2,P|436:264|404:208,1,140,6|10,0:0|0:0,0:0:0:0:
315,47,157928,2,2,P|294:112|328:172,1,140
336,256,158428,2,0,P|306:273|264:280,1,70,10|0,0:0|0:0,0:0:0:0:
192,248,158761,6,2,B|172:190|172:151|172:151|158:151|158:151|148:104|158:50,1,210,2|2,0:1|0:1,0:1:0:0:
160,44,160094,6,0,L|307:29,1,140,6|8,0:0|0:0,0:0:0:0:
380,60,160594,1,0,0:0:0:0:
380,60,160761,2,0,P|381:127|416:192,1,140,0|8,0:0|0:0,0:0:0:0:
132,324,161428,6,0,P|131:290|113:257,1,70,0|2,0:0|0:0,0:0:0:0:
72,188,161761,2,0,P|73:120|108:56,2,140,10|2|10,0:0|0:0|0:0,0:0:0:0:
208,288,162761,6,2,B|246:301|272:301|272:301|272:310|272:310|303:317|339:310,1,140,6|10,0:0|0:0,0:0:0:0:
508,256,163261,2,2,B|469:242|443:242|443:242|443:233|443:233|412:226|379:232,1,140
296,232,163761,1,8,0:0:0:0:
292,228,163928,1,2,0:0:0:0:
288,224,164094,6,0,P|264:160|276:92,2,140,2|8|0,0:0|0:0|0:0,0:0:0:0:
436,144,165094,1,10,0:0:0:0:
276,91,165428,6,0,L|132:83,1,140,6|8,0:0|0:0,0:0:0:0:
76,24,165928,1,0,0:0:0:0:
136,83,166094,2,0,P|124:160|76:192,2,140,0|8|0,0:0|0:0|0:0,0:0:0:0:
40,272,167094,6,0,P|116:268|172:232,2,140,10|2|10,0:0|0:0|0:0,0:0:0:0:
136,83,168094,6,2,P|195:47|265:46,1,140,6|10,0:0|0:0,0:0:0:0:
276,128,168594,2,2,P|336:92|344:16,1,140
265,46,169094,1,10,0:0:0:0:
196,96,169261,1,2,0:0:0:0:
208,180,169428,6,0,P|224:248|256:312,1,140,0|8,0:0|0:0,0:0:0:0:
394,157,170094,2,0,P|378:89|346:25,1,140,0|8,0:0|0:0,0:0:0:0:
196,28,170761,5,4,3:2:0:0:
192,32,170928,1,2,0:0:0:0:
188,36,171094,2,0,P|138:65|60:80,1,125.999996154785,0|10,0:0|0:0,0:0:0:0:
36,148,171594,2,0,P|97:160|152:191,1,125.999996154785,0|2,0:0|0:0,0:0:0:0:
184,260,172094,5,2,3:2:0:0:
60,348,172428,1,2,0:0:0:0:
152,191,172761,1,10,0:0:0:0:
28,279,173095,1,2,0:0:0:0:
120,122,173428,6,0,P|168:82|228:62,1,125.999996154785,2|0,3:2|0:0,0:0:0:0:
304,64,173928,1,2,3:2:0:0:
380,76,174094,2,0,P|438:97|485:139,1,125.999996154785,8|2,0:0|0:0,0:0:0:0:
500,212,174594,1,0,0:0:0:0:
484,288,174761,6,0,L|460:360,1,62.9999980773926,0|2,3:0|3:2,0:0:0:0:
423,240,175094,2,0,L|404:300,1,62.9999980773926,8|2,3:2|3:2,0:0:0:0:
363,192,175428,2,0,L|344:252,1,62.9999980773926,10|0,3:2|0:0,0:0:0:0:
303,144,175761,2,0,L|284:204,1,62.9999980773926,2|8,3:2|0:0,0:0:0:0:
243,96,176094,6,0,P|296:68|360:92,2,125.999996154785,6|0|8,3:2|0:0|0:0,0:0:0:0:
204,160,176928,2,0,P|171:169|134:162,1,62.9999980773926,2|2,0:0|3:2,0:0:0:0:
168,92,177261,1,2,0:0:0:0:
280,164,177428,6,0,P|296:191|304:224,1,62.9999980773926,2|0,3:2|0:0,0:0:0:0:
296,296,177761,2,0,P|280:324|256:346,1,62.9999980773926,2|0,0:0|3:0,0:0:0:0:
184,332,178094,2,0,B|124:308|124:344|60:328,1,125.999996154785,10|2,0:0|0:0,0:0:0:0:
16,264,178594,1,0,0:0:0:0:
28,188,178761,6,0,L|56:128,1,62.9999980773926,2|2,3:2|0:0,0:0:0:0:
88,64,179094,1,0,0:0:0:0:
104,188,179261,6,0,L|132:128,1,62.9999980773926,2|10,3:2|0:0,0:0:0:0:
164,64,179594,1,0,0:0:0:0:
180,188,179761,6,0,L|208:128,1,62.9999980773926,2|2,0:0|0:0,0:0:0:0:
240,64,180094,5,0,3:0:0:0:
248,56,180428,1,8,0:0:0:0:
256,48,180761,1,8,0:0:0:0:
424,184,181428,6,0,P|376:232|384:304,1,140,4|10,0:0|0:0,0:0:0:0:
448,348,181928,1,0,0:0:0:0:
381,299,182094,2,0,P|346:287|297:287,1,70,0|0,0:0|0:0,0:0:0:0:
232,312,182428,2,0,P|197:323|148:324,1,70,10|0,0:0|0:0,0:0:0:0:
80,312,182761,2,2,B|54:301|31:262|31:262|49:226|81:200,1,140,2|10,0:0|0:0,0:0:0:0:
241,67,183261,2,2,B|280:83|315:142|315:142|287:196|252:224,1,210,2|10,0:0|0:0,0:0:0:0:
117,119,184094,6,2,P|168:78|245:67,1,140,2|10,0:0|0:0,0:0:0:0:
379,115,184594,1,2,0:0:0:0:
379,115,184761,2,0,L|309:115,1,70,0|2,0:0|0:0,0:0:0:0:
183,175,185094,2,0,L|253:175,1,70,8|0,0:0|0:0,0:0:0:0:
336,196,185428,6,0,P|348:232|348:264,1,70,2|0,0:0|0:0,0:0:0:0:
252,272,185761,2,0,P|219:282|184:281,1,70,10|0,0:0|0:0,0:0:0:0:
176,188,186094,2,0,P|166:154|164:119,1,70,2|0,0:0|0:0,0:0:0:0:
260,112,186428,2,0,P|292:100|327:102,1,70,10|0,0:0|0:0,0:0:0:0:
348,263,186761,1,4,0:0:0:0:
428,24,187094,6,2,P|460:80|472:156,1,140,10|2,0:0|0:0,0:0:0:0:
456,236,187594,1,0,0:0:0:0:
412,308,187761,2,0,P|407:343|424:376,1,70,10|0,0:0|0:0,0:0:0:0:
368,232,188094,2,2,P|301:212|224:204,1,140,2|10,0:0|0:0,0:0:0:0:
76,304,188594,2,2,P|169:349|273:366,1,210,2|10,0:0|0:0,0:0:0:0:
368,228,189428,6,2,P|392:152|360:96,1,140,2|10,0:0|0:0,0:0:0:0:
308,164,189928,2,0,P|252:204|184:188,1,140,2|2,0:0|0:0,0:0:0:0:
236,120,190428,2,0,L|212:48,1,70,8|0,0:0|0:0,0:0:0:0:
132,76,190761,6,0,L|71:124,1,70,2|0,0:0|0:0,0:0:0:0:
153,157,191094,2,0,L|145:233,1,70,10|0,0:0|0:0,0:0:0:0:
226,199,191428,2,0,L|274:258,1,70,2|0,0:0|0:0,0:0:0:0:
312,179,191761,2,0,L|389:186,1,70,10|0,0:0|0:0,0:0:0:0:
256,352,192428,6,2,P|186:328|118:331,1,140,14|2,0:0|0:0,0:0:0:0:
36,348,192928,1,0,0:0:0:0:
60,268,193094,2,0,L|48:200,1,70,10|0,0:0|0:0,0:0:0:0:
124,80,193428,6,2,L|264:64,1,140,2|10,0:0|0:0,0:0:0:0:
413,153,193928,2,2,L|204:176,1,210,2|10,0:0|0:0,0:0:0:0:
180,344,194761,6,2,B|248:360|248:312|316:352,1,140,2|10,0:0|0:0,0:0:0:0:
396,376,195261,2,0,P|376:327|408:248,1,140,2|2,0:0|0:0,0:0:0:0:
408,164,195761,2,0,L|384:92,1,70,8|0,0:0|0:0,0:0:0:0:
312,56,196094,6,0,L|233:65,1,70,2|0,0:0|0:0,0:0:0:0:
108,100,196428,2,0,P|142:104|176:116,1,70,10|0,0:0|0:0,0:0:0:0:
315,148,196761,2,0,P|281:152|248:164,1,70,2|0,0:0|0:0,0:0:0:0:
102,191,197094,2,0,L|172:200,1,70,10|0,0:0|0:0,0:0:0:0:
320,356,197428,6,0,L|196:371,1,125.999996154785,6|0,3:2|0:0,0:0:0:0:
124,291,197928,5,0,0:0:0:0:
124,291,198094,2,0,L|249:277,1,125.999996154785,10|0,0:0|0:0,0:0:0:0:
301,181,198594,5,0,0:0:0:0:
301,181,198761,2,0,L|177:196,1,125.999996154785,2|0,3:2|0:0,0:0:0:0:
80,192,199261,5,0,3:0:0:0:
80,192,199428,2,0,L|43:142,1,62.9999980773926,10|0,0:0|0:0,0:0:0:0:
129,116,199761,2,0,L|138:55,1,62.9999980773926,10|0,0:0|0:0,0:0:0:0:
327,232,200261,5,2,0:0:0:0:
186,232,200428,1,2,0:0:0:0:
256,110,200594,1,2,0:0:0:0:
257,273,200761,5,2,0:0:0:0:
327,151,200928,1,2,0:0:0:0:
186,151,201094,1,2,0:0:0:0:
256,192,201261,5,2,0:0:0:0:
256,192,201428,12,0,202761,0:0:0:0:
