osu file format v14

[General]
AudioFilename: SmokyThrill77 - Snowdin halation.mp3
AudioLeadIn: 0
PreviewTime: 0
Countdown: 0
SampleSet: Soft
StackLeniency: 0.3
Mode: 0
LetterboxInBreaks: 0
EpilepsyWarning: 1
WidescreenStoryboard: 1

[Editor]
Bookmarks: 34,94450
DistanceSpacing: 1.3
BeatDivisor: 8
GridSize: 4
TimelineZoom: 1.5

[Metadata]
Title:Snowdin halation
TitleUnicode:Snowdin halation
Artist:SmokyThrill77
ArtistUnicode:SmokyThrill77
Creator:Gero
Version:Hard
Source:
Tags:iYiyo Cosmolade A_r_M_i_N TheShadowOfDark Merry Christmas Xmas X-mas White Snow Santa Claus Chiptune Radiation Soundtrack 8-Bit toby fox UNDERTALE Snowdin Town vs. Snow Halation Mashup µ's u's ミューズ ラブライブ! School idol project Love Live! 2期 2nd Season 9th Episode SilviaGunner GilvaSunner PC Master Rips Video Game Music OST Instrumental Anime Japanese
BeatmapID:1483484
BeatmapSetID:700790

[Difficulty]
HPDrainRate:5
CircleSize:4
OverallDifficulty:6
ApproachRate:6.5
SliderMultiplier:1.4
SliderTickRate:2

[Events]
//Background and Video events
0,0,"BG.jpg",0,0
//Break Periods
//Storyboard Layer 0 (Background)
//Storyboard Layer 1 (Fail)
//Storyboard Layer 2 (Pass)
//Storyboard Layer 3 (Foreground)
//Storyboard Layer 4 (Overlay)
//Storyboard Sound Samples

[TimingPoints]
34,594.059405940594,4,2,1,30,1,0
8053,638.297872340426,4,2,1,30,1,0
8690,594.059405940594,4,2,1,30,1,0
9023,594.059405940594,4,2,1,30,1,0
9707,600,4,2,1,30,1,0
11192,594.059405940594,4,2,1,30,1,0
12083,594.059405940594,4,2,1,30,1,0
13548,594.059405940594,4,2,1,30,1,0
14429,600,4,2,1,30,1,0
16496,594.059405940594,4,2,1,30,1,0
16793,594.059405940594,4,2,1,30,1,0
19156,588.235294117647,4,2,1,50,1,0
19156,-83.3333333333333,4,2,1,50,0,0
37979,-83.3333333333333,4,2,1,55,0,0
56803,-83.3333333333333,4,2,1,60,0,1
70626,-83.3333333333333,4,2,1,40,0,1
73273,-83.3333333333333,4,2,1,70,0,1
75626,-83.3333333333333,4,2,1,60,0,1
85038,-83.3333333333333,4,2,1,50,0,0
92097,-83.3333333333333,4,2,1,50,0,0
92685,-83.3333333333333,4,2,1,40,0,0
93273,-83.3333333333333,4,2,1,30,0,0
93861,-83.3333333333333,4,2,1,20,0,0
94450,-83.3333333333333,4,2,2,10,0,0

[Colours]
Combo1 : 66,198,89
Combo2 : 84,180,207
Combo3 : 185,160,115
Combo4 : 241,48,48
SliderBorder : 255,255,255
SliderTrackOverride : 100,100,100

[HitObjects]
354,119,34,6,0,P|387:129|420:119,1,70,2|0,0:0|0:0,0:0:0:0:
289,55,628,2,0,P|256:45|223:55,1,70,2|0,0:0|0:0,0:0:0:0:
158,119,1222,2,0,B|158:180|158:180|162:188|162:188|166:200|166:200|166:257,1,140,2|0,0:0|0:0,0:0:0:0:
256,308,2113,5,2,0:0:0:0:
256,308,2261,1,0,0:0:0:0:
256,308,2410,2,0,B|256:378,2,70,2|2|0,0:0|0:0|0:0,0:0:0:0:
346,257,3301,2,0,B|346:200|346:200|350:188|350:188|354:180|354:180|354:119,1,140,2|0,0:0|0:0,0:0:0:0:
418,54,4192,1,2,0:0:0:0:
418,54,4786,5,2,0:0:0:0:
354,119,5083,1,0,0:0:0:0:
418,184,5380,2,0,L|468:232,1,70,2|0,0:0|0:0,0:0:0:0:
404,297,5974,2,0,B|388:329|352:341|352:341|316:329|300:297,1,140,2|0,0:0|0:0,0:0:0:0:
256,216,6865,5,2,0:0:0:0:
256,216,7014,1,0,0:0:0:0:
256,216,7162,2,0,B|220:216|220:216|196:240,1,70,2|2,0:0|0:0,0:0:0:0:
120,192,7756,1,0,0:0:0:0:
44,143,8053,2,0,B|61:109|95:97|95:97|107:63|140:46,1,140,2|2,0:0|0:0,0:0:0:0:
226,28,9023,1,2,0:0:0:0:
226,28,9707,6,0,B|244:28|256:43|256:43|268:28|286:28,1,70,2|2,0:0|0:0,0:0:0:0:
371,46,10307,1,2,0:0:0:0:
457,28,10607,1,2,0:0:0:0:
457,28,10757,1,0,0:0:0:0:
457,28,10907,2,0,L|504:75,1,66.6,2|0,0:0|0:0,0:0:0:0:
439,139,11489,1,2,0:0:0:0:
374,203,11786,6,0,B|357:207|357:207|340:203,2,35,2|0|2,0:0|0:0|0:0,0:0:0:0:
439,267,12380,2,0,B|456:263|456:263|473:267,2,35,2|0|2,0:0|0:0|0:0,0:0:0:0:
374,331,12974,2,0,L|242:299,1,135.5,2|2,0:0|0:0,0:0:0:0:
177,363,13845,1,2,0:0:0:0:
177,363,14429,6,0,L|108:346,1,70,2|2,0:0|0:0,0:0:0:0:
30,299,15029,1,2,0:0:0:0:
109,251,15329,1,2,0:0:0:0:
109,251,15479,1,2,0:0:0:0:
109,251,15629,2,0,P|141:192|109:133,1,140
30,85,16496,5,2,0:0:0:0:
30,85,16644,1,2,0:0:0:0:
30,85,16793,1,0,0:0:0:0:
109,37,17090,2,0,L|109:72,2,35,0|2|2,0:0|0:0|0:0,0:0:0:0:
189,85,17684,5,0,0:0:0:0:
189,85,17832,1,2,0:0:0:0:
188,84,17981,2,0,P|217:105|232:136,1,70,0|0,0:0|0:0,0:0:0:0:
279,136,18426,2,0,P|294:105|323:84,1,70,2|2,0:0|0:0,0:0:0:0:
322,84,19156,5,2,0:0:0:0:
403,37,19450,1,0,0:0:0:0:
403,37,19597,1,2,0:0:0:0:
403,37,19744,1,0,0:0:0:0:
484,84,20038,1,2,0:0:0:0:
484,84,20185,1,2,0:0:0:0:
484,84,20332,2,0,P|495:124|484:164,1,83.9999974365235,2|2,0:0|0:0,0:0:0:0:
403,211,20920,2,0,B|397:231|397:231|403:251,2,41.9999987182618,2|2|2,0:0|0:0|0:0,0:0:0:0:
323,165,21508,5,2,0:0:0:0:
243,211,21803,1,0,0:0:0:0:
243,211,21950,1,2,0:0:0:0:
243,211,22097,1,0,0:0:0:0:
163,165,22391,2,0,L|155:123,2,41.9999987182618,2|2|2,0:0|0:0|0:0,0:0:0:0:
83,211,22979,1,2,0:0:0:0:
163,257,23273,2,0,L|155:298,2,41.9999987182618,2|2|0,0:0|0:0|0:0,0:0:0:0:
243,211,23861,6,0,P|283:200|323:211,1,83.9999974365235,2|0,0:0|0:0,0:0:0:0:
352,248,24303,2,0,P|392:259|432:248,1,83.9999974365235,2|2,0:0|0:0,0:0:0:0:
392,164,24891,2,0,B|373:104|373:104|392:44,1,125.999996154785,2|2,0:0|0:0,0:0:0:0:
434,24,25479,2,0,L|350:24,1,83.9999974365235,2|2,0:0|0:0,0:0:0:0:
256,60,26067,5,2,0:0:0:0:
256,60,26214,2,0,L|168:60,2,83.9999974365235,2|2|2,0:0|0:0|0:0,0:0:0:0:
350,96,27097,2,0,B|350:180|350:180|313:255,1,167.999994873047,2|2,0:0|0:0,0:0:0:0:
256,328,27979,1,2,0:0:0:0:
256,328,28126,1,0,0:0:0:0:
256,328,28273,1,2,0:0:0:0:
199,255,28567,5,2,0:0:0:0:
256,182,28861,1,0,0:0:0:0:
256,182,29008,1,2,0:0:0:0:
256,182,29156,1,0,0:0:0:0:
313,255,29450,1,2,0:0:0:0:
313,255,29597,1,2,0:0:0:0:
313,255,29744,2,0,B|350:180,1,83.9999974365235,2|2,0:0|0:0,0:0:0:0:
415,114,30332,2,0,B|396:76,2,41.9999987182618,2|2|2,0:0|0:0|0:0,0:0:0:0:
480,180,30920,5,2,0:0:0:0:
415,246,31214,1,2,0:0:0:0:
350,179,31508,1,2,0:0:0:0:
415,113,31803,2,0,B|433:75,2,41.9999987182618,2|2|2,0:0|0:0|0:0,0:0:0:0:
350,179,32391,1,2,0:0:0:0:
285,113,32686,2,0,B|266:75,2,41.9999987182618,2|0|0,0:0|0:0|0:0,0:0:0:0:
220,179,33273,6,0,B|257:254,1,83.9999974365235,2|0,0:0|0:0,0:0:0:0:
224,286,33714,2,0,B|184:299|184:299|144:286,1,83.9999974365235,2|2,0:0|0:0,0:0:0:0:
78,351,34303,1,2,0:0:0:0:
78,351,34450,1,2,0:0:0:0:
12,286,34744,1,2,0:0:0:0:
11,286,34891,2,0,B|41:256|41:256|78:237,1,83.9999974365235,2|2,0:0|0:0,0:0:0:0:
77,146,35479,5,2,0:0:0:0:
77,146,35626,1,2,0:0:0:0:
160,192,35920,1,2,0:0:0:0:
77,237,36214,1,2,0:0:0:0:
160,192,36508,2,0,B|223:224|223:224|232:224|232:224|228:231|228:231|237:231|237:231|300:263,1,167.999994873047,2|2,0:0|0:0,0:0:0:0:
434,230,37391,2,0,L|360:192,1,83.9999974365235,2|2,0:0|0:0,0:0:0:0:
300,120,37979,5,2,0:0:0:0:
359,48,38273,1,2,0:0:0:0:
300,120,38567,2,0,L|225:81,1,83.9999974365235,2|2,0:0|0:0,0:0:0:0:
184,60,39008,2,0,B|148:60|128:36|128:36|108:60|72:60,1,125.999996154785,2|2,0:0|0:0,0:0:0:0:
128,132,39744,2,0,B|134:152|134:152|128:172,2,41.9999987182618,2|2|2,0:0|0:0|0:0,0:0:0:0:
72,250,40332,6,0,B|63:291|63:291|72:332,1,83.9999974365235,2|2,0:0|0:0,0:0:0:0:
153,291,40920,2,0,B|194:282|194:282|235:291,1,83.9999974365235,2|2,0:0|0:0,0:0:0:0:
267,258,41361,2,0,B|308:267|308:267|349:258,1,83.9999974365235,2|2,0:0|0:0,0:0:0:0:
381,225,41803,1,2,0:0:0:0:
436,300,42097,2,0,B|430:320|430:320|436:340,2,41.9999987182618,2|2|2,0:0|0:0|0:0,0:0:0:0:
491,225,42685,5,2,0:0:0:0:
436,150,42979,1,2,0:0:0:0:
381,225,43273,1,2,0:0:0:0:
436,300,43567,1,2,0:0:0:0:
381,375,43861,1,2,0:0:0:0:
326,300,44155,1,2,0:0:0:0:
326,300,44303,2,0,B|296:256|248:256|248:256|215:256,1,125.999996154785,2|2,0:0|0:0,0:0:0:0:
21,159,45038,5,2,0:0:0:0:
76,234,45332,1,2,0:0:0:0:
131,159,45626,1,2,0:0:0:0:
76,84,45920,1,2,0:0:0:0:
131,9,46214,1,2,0:0:0:0:
186,84,46508,1,2,0:0:0:0:
186,84,46656,2,0,B|216:128|264:128|264:128|296:128,1,125.999996154785,2|2,0:0|0:0,0:0:0:0:
491,225,47391,5,2,0:0:0:0:
436,300,47685,1,2,0:0:0:0:
381,225,47979,1,2,0:0:0:0:
326,300,48273,1,2,0:0:0:0:
326,300,48420,1,2,0:0:0:0:
326,300,48567,2,0,P|286:311|246:300,1,83.9999974365235,2|2,0:0|0:0,0:0:0:0:
213,332,49008,2,0,L|286:229,1,125.999996154785,2|2,0:0|0:0,0:0:0:0:
491,159,49744,5,2,0:0:0:0:
436,84,50038,1,2,0:0:0:0:
381,159,50332,1,2,0:0:0:0:
326,84,50626,1,2,0:0:0:0:
326,84,50773,1,2,0:0:0:0:
326,84,50920,2,0,P|286:73|246:84,1,83.9999974365235,2|2,0:0|0:0,0:0:0:0:
213,52,51361,2,0,L|286:155,1,125.999996154785,2|2,0:0|0:0,0:0:0:0:
491,225,52097,6,0,L|442:293,1,83.9999974365235,2|2,0:0|0:0,0:0:0:0:
381,225,52685,2,0,L|332:293,1,83.9999974365235,2|2,0:0|0:0,0:0:0:0:
299,260,53126,2,0,L|250:328,1,83.9999974365235,2|2,0:0|0:0,0:0:0:0:
189,260,53714,2,0,L|140:328,1,83.9999974365235,2|2,0:0|0:0,0:0:0:0:
79,260,54303,5,2,0:0:0:0:
79,260,54450,1,2,0:0:0:0:
16,192,54744,1,2,0:0:0:0:
79,124,55038,1,2,0:0:0:0:
142,192,55332,1,2,0:0:0:0:
205,124,55626,6,0,B|222:99|256:90|256:90|290:99|307:124,2,125.999996154785,4|4|2,0:0|0:0|0:0,0:0:0:0:
142,192,56803,6,0,P|192:257|208:339,1,167.999994873047,4|10,3:0|0:0,0:0:0:0:
303,339,57685,2,0,P|319:257|369:192,1,167.999994873047,4|10,3:0|0:0,0:0:0:0:
296,136,58567,2,0,B|256:124|256:124|216:136,1,83.9999974365235,4|10,3:0|0:0,0:0:0:0:
256,220,59155,6,0,L|328:68,1,167.999994873047,4|8,3:0|0:0,0:0:0:0:
256,12,60038,2,0,B|203:12|203:12|147:12|107:67,1,167.999994873047,4|8,3:0|0:0,0:0:0:0:
59,238,60920,1,4,3:0:0:0:
59,146,61214,1,10,0:0:0:0:
107,316,61508,6,0,B|147:372|203:372|203:372|256:372,1,167.999994873047,4|10,3:0|0:0,0:0:0:0:
328,315,62391,2,0,L|256:164,1,167.999994873047,4|10,3:0|0:0,0:0:0:0:
216,248,63273,2,0,B|256:260|256:260|296:248,1,83.9999974365235,4|10,3:0|0:0,0:0:0:0:
314,230,63714,1,2,0:0:0:0:
331,212,63861,5,4,3:0:0:0:
388,140,64155,1,0,0:0:0:0:
331,68,64450,2,0,B|272:68|272:68|264:64|264:64|205:64,1,125.999996154785,10|0,0:0|0:0,0:0:0:0:
179,24,65038,2,0,P|190:64|179:104,1,83.9999974365235,2|10,0:0|0:0,0:0:0:0:
156,144,65479,1,2,0:0:0:0:
76,192,65773,1,2,0:0:0:0:
156,240,66067,5,0,0:0:0:0:
156,240,66214,2,0,B|240:240|240:240|299:299,1,167.999994873047,4|10,3:0|0:0,0:0:0:0:
364,364,67097,2,0,B|395:332|441:339|441:339|434:293|465:262,1,167.999994873047,4|10,3:0|0:0,0:0:0:0:
376,152,67979,2,0,P|365:192|376:232,1,83.9999974365235,4|10,3:0|0:0,0:0:0:0:
465,121,68567,6,0,B|434:90|441:44|441:44|395:51|364:20,1,167.999994873047,4|8,3:0|0:0,0:0:0:0:
299,85,69450,2,0,B|240:144|240:144|156:144,1,167.999994873047,4|8,3:0|0:0,0:0:0:0:
76,192,70331,1,4,3:0:0:0:
156,240,70625,5,10,0:0:0:0:
156,240,70773,1,2,0:0:0:0:
156,240,70920,2,0,P|189:265|207:302,1,83.9999974365235,2|2,0:0|0:0,0:0:0:0:
355,240,71508,2,0,P|322:265|304:302,1,83.9999974365235,2|2,0:0|0:0,0:0:0:0:
164,129,72097,2,0,P|197:154|216:192,1,83.9999974365235,2|2,0:0|0:0,0:0:0:0:
347,129,72685,2,0,P|314:154|296:192,1,83.9999974365235,2|2,0:0|0:0,0:0:0:0:
156,240,73273,5,2,0:0:0:0:
303,302,73567,1,2,0:0:0:0:
209,302,73861,1,2,0:0:0:0:
356,240,74156,1,2,0:0:0:0:
356,240,74744,5,2,0:0:0:0:
209,178,75038,1,2,0:0:0:0:
303,178,75332,1,2,0:0:0:0:
156,240,75626,6,0,B|117:226|105:178|105:178|117:130|156:116,1,167.999994873047,4|10,3:0|0:0,0:0:0:0:
209,40,76508,2,0,B|244:62|256:107|256:107|268:62|303:40,1,167.999994873047,4|10,3:0|0:0,0:0:0:0:
355,115,77391,1,4,3:0:0:0:
407,40,77685,1,10,0:0:0:0:
458,115,77979,6,0,P|487:192|458:269,1,167.999994873047,4|10,3:0|0:0,0:0:0:0:
355,269,78861,2,0,P|326:192|355:115,1,167.999994873047,4|10,3:0|0:0,0:0:0:0:
407,192,79744,1,4,3:0:0:0:
458,115,80038,1,8,0:0:0:0:
407,40,80332,1,4,3:0:0:0:
355,115,80626,6,0,L|333:151,2,41.9999987182618,2|2|10,0:0|0:0|0:0,0:0:0:0:
256,151,81214,2,0,L|256:193,2,41.9999987182618,4|2|0,3:0|0:0|0:0,0:0:0:0:
157,115,81803,2,0,L|178:151,2,41.9999987182618,8|2|4,0:0|0:0|3:0,0:0:0:0:
256,79,82391,1,8,0:0:0:0:
355,115,82685,6,0,B|388:192|388:192|355:269,1,167.999994873047,4|10,3:0|0:0,0:0:0:0:
292,336,83567,2,0,B|272:344|256:357|256:357|240:344|220:336,1,83.9999974365235,4|0,3:0|0:0,0:0:0:0:
157,269,84155,1,10,0:0:0:0:
157,269,84303,1,2,0:0:0:0:
157,269,84450,1,0,0:0:0:0:
219,202,84744,5,8,0:0:0:0:
219,202,84891,1,2,0:0:0:0:
219,201,85038,2,0,B|219:128|293:128|293:58,1,167.999994873047,4|8,3:0|0:0,0:0:0:0:
219,58,85920,2,0,B|219:128|293:128|292:201,1,167.999994873047,4|10,3:0|0:0,0:0:0:0:
355,269,86803,1,4,3:0:0:0:
292,336,87097,1,8,0:0:0:0:
355,269,87391,6,0,L|473:150,1,167.999994873047,4|8,3:0|0:0,0:0:0:0:
410,83,88273,2,0,B|398:39|358:21|358:21|318:39|306:83,1,167.999994873047,4|8,3:0|0:0,0:0:0:0:
256,160,89155,1,4,3:0:0:0:
206,83,89450,5,2,0:0:0:0:
206,83,89597,1,2,0:0:0:0:
206,83,89744,2,0,L|158:14,1,83.9999974365235,2|0,0:0|0:0,0:0:0:0:
305,83,90332,2,0,L|354:14,1,83.9999974365235,0|2,0:0|0:0,0:0:0:0:
172,160,90920,2,0,L|123:90,1,83.9999974365235
340,160,91508,2,0,L|389:90,1,83.9999974365235,2|0,0:0|0:0,0:0:0:0:
256,24,92097,5,2,0:0:0:0:
256,192,92244,12,0,94450,0:0:0:0:
