osu file format v14

[General]
AudioFilename: audio.mp3
AudioLeadIn: 0
PreviewTime: 50706
Countdown: 0
SampleSet: Soft
StackLeniency: 0.4
Mode: 0
LetterboxInBreaks: 0
WidescreenStoryboard: 1

[Editor]
DistanceSpacing: 1.5
BeatDivisor: 4
GridSize: 32
TimelineZoom: 1.6

[Metadata]
Title:Congrathalations! (Cut Ver.)
TitleUnicode:Congrathalations! (Cut Ver.)
Artist:SmokyThrill77
ArtistUnicode:SmokyThrill77
Creator:Smoke
Version:Hard
Source:ラブライブ! School idol project
Tags:love live! µ's u's pewdiepie's tuber simulator roomieofficial boyinaband japanese english jrock j-rock rock rip cover t-series snow halation torriru browiec siivagunner giivasunner congratulations christmas xmas x-mas edit short version novelty bitch lasagna
BeatmapID:3229768
BeatmapSetID:1581689

[Difficulty]
HPDrainRate:4.6
CircleSize:3.5
OverallDifficulty:6.5
ApproachRate:7.5
SliderMultiplier:1.4
SliderTickRate:1

[Events]
//Background and Video events
0,0,"honoka t-series.jpg",0,0
//Break Periods
//Storyboard Layer 0 (Background)
//Storyboard Layer 1 (Fail)
//Storyboard Layer 2 (Pass)
//Storyboard Layer 3 (Foreground)
//Storyboard Layer 4 (Overlay)
//Storyboard Sound Samples

[TimingPoints]
157,346.820809248555,4,2,1,55,1,0
157,-125,4,2,1,55,0,0
12642,-117.647058823529,4,2,1,60,0,0
22353,-111.111111111111,4,2,1,65,0,0
23740,-105.263157894737,4,2,1,70,0,0
34839,-111.111111111111,4,2,1,75,0,0
40388,-99.9999999999999,4,2,1,70,0,0
48711,-95.2380952380952,4,2,1,75,0,0
51486,-90.9090909090909,4,2,1,80,0,1
54174,-90.9090909090909,4,2,1,5,0,1
54261,-90.9090909090909,4,2,1,80,0,1
55561,-90.9090909090909,4,2,1,5,0,1
55648,-90.9090909090909,4,2,1,80,0,1
62584,-111.111111111111,4,2,1,70,0,0
70821,-111.111111111111,4,2,1,5,0,0
70908,-100,4,2,1,75,0,0
82006,-86.9565217391304,4,2,1,85,0,1
91717,-100,4,2,1,70,0,0
93451,-666.666666666667,4,2,1,70,0,0
93798,-666.666666666667,4,2,1,68,0,0
94145,-666.666666666667,4,2,1,65,0,0
94492,-666.666666666667,4,2,1,63,0,0
94839,-666.666666666667,4,2,1,60,0,0
95185,-666.666666666667,4,2,1,57,0,0
95532,-666.666666666667,4,2,1,55,0,0
95879,-666.666666666667,4,2,1,52,0,0
96226,-666.666666666667,4,2,1,50,0,0
96573,-666.666666666667,4,2,1,47,0,0
96920,-666.666666666667,4,2,1,45,0,0
97266,-666.666666666667,4,2,1,42,0,0
97613,-666.666666666667,4,2,1,40,0,0
97960,-666.666666666667,4,2,1,37,0,0
98307,-666.666666666667,4,2,1,35,0,0
98654,-666.666666666667,4,2,1,32,0,0
99000,-666.666666666667,4,2,1,30,0,0
99347,-666.666666666667,4,2,1,27,0,0
99694,-666.666666666667,4,2,1,25,0,0
100041,-666.666666666667,4,2,1,23,0,0
100388,-666.666666666667,4,2,1,21,0,0
100735,-666.666666666667,4,2,1,19,0,0
101081,-666.666666666667,4,2,1,17,0,0
101428,-666.666666666667,4,2,1,15,0,0
101775,-666.666666666667,4,2,1,13,0,0
102122,-666.666666666667,4,2,1,10,0,0
102469,-666.666666666667,4,2,1,7,0,0
102815,-666.666666666667,4,2,1,5,0,0

[Colours]
Combo1 : 27,184,31
Combo2 : 243,91,27
Combo3 : 88,233,63
Combo4 : 234,0,0

[HitObjects]
459,310,157,6,0,P|432:295|390:298,1,56,2|2,0:0|0:0,0:0:0:0:
337,337,503,2,0,P|310:352|263:351,1,56,2|2,0:0|0:0,0:0:0:0:
218,305,850,2,0,P|232:248|247:173,1,112,2|2,0:0|0:0,0:0:0:0:
306,140,1370,1,2,0:0:0:0:
306,140,1544,2,0,P|334:143|369:173,2,56,2|2|2,0:0|0:0|0:0,0:0:0:0:
259,69,2064,2,0,B|194:75|221:100|141:109,1,112,2|2,0:0|0:0,0:0:0:0:
92,50,2584,2,0,P|55:54|26:80,1,56,2|2,0:0|0:0,0:0:0:0:
6,141,2931,6,0,B|30:189|30:189|5:252,1,112,2|2,0:0|0:0,0:0:0:0:
60,309,3451,2,0,P|134:262|270:304,1,224,2|0,0:0|0:0,0:0:0:0:
319,353,4318,2,0,P|353:345|394:339,1,56,2|0,0:0|0:0,0:0:0:0:
421,272,4665,2,0,P|413:237|407:197,1,56,2|2,0:0|0:0,0:0:0:0:
470,159,5012,2,0,P|482:99|500:26,1,112,2|0,0:0|0:0,0:0:0:0:
332,0,5706,6,0,B|274:11|297:36|213:50,1,112,2|2,0:0|0:0,0:0:0:0:
153,14,6226,2,0,P|182:63|176:137,1,112,2|2,0:0|0:0,0:0:0:0:
237,180,6746,2,0,P|227:212|219:249,1,56,2|2,0:0|0:0,0:0:0:0:
295,275,7093,2,0,P|246:289|171:313,1,112,2|2,0:0|0:0,0:0:0:0:
138,375,7613,1,2,0:0:0:0:
6,270,7960,2,0,P|21:217|38:149,1,112,2|0,0:0|0:0,0:0:0:0:
10,81,8480,2,0,B|64:68|64:68|69:73|69:73|133:60,1,112,2|0,0:0|0:0,0:0:0:0:
187,15,9000,1,2,0:0:0:0:
187,15,9174,2,0,P|216:22|251:29,1,56,2|2,0:0|0:0,0:0:0:0:
285,99,9521,2,0,P|314:92|349:85,1,56,2|2,0:0|0:0,0:0:0:0:
405,137,9867,5,2,0:0:0:0:
256,192,10041,12,2,11255,0:0:0:0:
479,84,12642,6,0,P|414:98|348:118,1,119.000002269745,2|2,0:0|0:0,0:0:0:0:
294,169,13162,2,0,P|266:161|216:150,1,59.5000011348725,0|2,0:0|0:0,0:0:0:0:
185,86,13509,1,2,0:0:0:0:
185,86,13683,2,0,P|155:95|131:128,1,59.5000011348725,2|2,0:0|0:0,0:0:0:0:
57,157,14029,2,0,P|75:214|91:279,1,119.000002269745,2|2,0:0|0:0,0:0:0:0:
54,354,14550,2,0,P|113:318|168:338,1,119.000002269745,0|2,0:0|0:0,0:0:0:0:
234,375,15070,1,2,0:0:0:0:
409,253,15417,6,0,B|390:309|390:309|396:313|396:313|374:382,1,119.000002269745,2|2,0:0|0:0,0:0:0:0:
301,319,15937,2,0,P|286:261|264:192,1,119.000002269745,2|2,0:0|0:0,0:0:0:0:
194,153,16457,2,0,P|193:126|215:88,1,59.5000011348725,2|2,0:0|0:0,0:0:0:0:
276,41,16804,2,0,P|307:52|340:62,1,59.5000011348725,2|0,0:0|0:0,0:0:0:0:
396,122,17151,2,0,P|452:104|516:90,1,119.000002269745,2|2,0:0|0:0,0:0:0:0:
480,266,17844,2,0,P|452:257|413:248,1,59.5000011348725,2|2,0:0|0:0,0:0:0:0:
349,301,18191,6,0,B|286:317|307:335|225:354,1,119.000002269745,2|2,0:0|0:0,0:0:0:0:
162,308,18711,1,2,0:0:0:0:
162,308,18885,2,0,P|102:303|45:346,1,119.000002269745,2|0,0:0|0:0,0:0:0:0:
1,260,19405,1,2,0:0:0:0:
60,193,19578,2,0,L|45:114,1,59.5000011348725,2|2,0:0|0:0,0:0:0:0:
27,47,19925,1,2,0:0:0:0:
108,9,20099,1,2,0:0:0:0:
246,121,20446,2,0,B|308:104|287:86|369:67,1,119.000002269745,2|2,0:0|0:0,0:0:0:0:
425,18,20966,6,0,P|390:82|441:187,1,178.500003404617,2|2,0:0|0:0,0:0:0:0:
497,235,21659,2,0,P|485:268|477:298,1,59.5000011348725,2|2,0:0|0:0,0:0:0:0:
403,351,22006,2,0,P|391:318|383:288,1,59.5000011348725,2|2,0:0|0:0,0:0:0:0:
307,229,22353,5,10,3:2:0:0:
249,311,22526,1,10,3:2:0:0:
22,109,23047,5,10,3:2:0:0:
80,191,23220,1,10,3:2:0:0:
160,131,23393,2,0,P|179:137|199:143,3,31.4999990386963,10|8|8|8,0:0|0:0|0:0|0:0,0:0:0:0:
222,182,23740,6,0,P|258:172|306:162,1,66.4999982242585,4|2,3:1|0:0,0:0:0:0:
345,84,24087,2,0,P|381:94|429:104,1,66.4999982242585,2|2,3:2|0:0,0:0:0:0:
482,176,24434,1,2,3:2:0:0:
482,176,24607,1,2,0:0:0:0:
413,248,24781,2,0,B|342:278|380:291|294:324,1,132.999996448517,2|2,3:2|3:2,0:0:0:0:
214,366,25301,1,2,0:0:0:0:
139,299,25474,2,0,P|112:282|61:281,1,66.4999982242585,2|2,3:2|0:0,0:0:0:0:
13,201,25821,2,0,P|45:196|73:179,1,66.4999982242585,2|2,3:2|0:0,0:0:0:0:
134,100,26168,2,0,P|122:66|109:31,1,66.4999982242585,2|2,3:2|0:0,0:0:0:0:
223,0,26515,6,0,P|236:32|245:62,2,66.4999982242585,2|2|2,3:2|0:0|3:2,0:0:0:0:
352,60,27035,2,0,P|339:92|329:122,2,66.4999982242585,2|2|2,0:0|3:2|0:0,0:0:0:0:
440,13,27555,2,0,P|466:32|486:69,1,66.4999982242585,2|2,3:2|0:0,0:0:0:0:
431,148,27902,1,2,3:2:0:0:
431,148,28076,2,0,P|418:180|408:210,1,66.4999982242585,2|2,0:0|3:2,0:0:0:0:
490,265,28422,2,0,P|425:262|362:314,1,132.999996448517,2|0,0:0|0:0,0:0:0:0:
297,367,28943,1,2,3:2:0:0:
221,302,29116,1,8,0:0:0:0:
129,342,29289,6,0,P|105:314|102:265,1,66.4999982242585,2|2,3:2|0:0,0:0:0:0:
16,229,29636,2,0,P|28:194|69:167,1,66.4999982242585,2|2,3:2|0:0,0:0:0:0:
50,74,29983,2,0,P|87:56|170:103,1,132.999996448517,2|2,3:2|3:2,0:0:0:0:
207,182,30503,1,2,0:0:0:0:
246,273,30677,2,0,P|280:264|319:258,1,66.4999982242585,2|2,3:2|0:0,0:0:0:0:
395,311,31024,2,0,P|404:277|418:240,1,66.4999982242585,2|2,3:2|0:0,0:0:0:0:
499,194,31370,1,2,3:2:0:0:
499,194,31544,1,2,0:0:0:0:
440,113,31717,2,0,P|430:79|416:42,1,66.4999982242585,2|0,3:2|0:0,0:0:0:0:
299,4,32064,6,0,P|277:32|274:75,2,66.4999982242585,2|2|2,3:2|0:0|3:2,0:0:0:0:
185,102,32584,2,0,B|110:118|139:139|62:155,1,132.999996448517,2|2,0:0|0:0,0:0:0:0:
10,238,33104,2,0,P|46:247|95:263,1,66.4999982242585,2|2,3:2|0:0,0:0:0:0:
114,346,33451,2,0,P|139:319|178:284,1,66.4999982242585,6|2,3:2|0:0,0:0:0:0:
260,308,33798,2,0,P|249:272|239:221,1,66.4999982242585,6|2,3:2|0:0,0:0:0:0:
312,171,34145,1,6,3:2:0:0:
391,230,34318,1,10,0:0:0:0:
488,199,34492,1,8,3:3:0:0:
488,199,34665,1,8,3:3:0:0:
391,230,34839,6,0,P|404:162|419:93,1,125.999996154785,4|2,3:1|0:0,0:0:0:0:
346,42,35359,1,2,3:2:0:0:
264,90,35532,2,0,P|231:98|180:113,1,62.9999980773926,10|2,0:0|0:0,0:0:0:0:
153,186,35879,2,0,P|161:219|176:270,1,62.9999980773926,2|2,0:0|3:2,0:0:0:0:
253,290,36226,2,0,P|197:290|137:345,1,125.999996154785,2|2,0:0|3:2,0:0:0:0:
60,377,36746,1,2,0:0:0:0:
2,301,36920,2,0,P|12:269|25:220,1,62.9999980773926,10|2,0:0|3:2,0:0:0:0:
99,189,37266,1,6,3:2:0:0:
17,18,37613,6,0,B|91:30|61:55|141:69,1,125.999996154785,4|2,3:1|0:0,0:0:0:0:
200,131,38133,1,2,3:2:0:0:
288,96,38307,2,0,P|323:97|351:117,1,62.9999980773926,10|2,0:0|0:0,0:0:0:0:
436,82,38654,2,0,P|452:112|449:147,1,62.9999980773926,2|2,0:0|3:2,0:0:0:0:
395,216,39000,2,0,P|378:246|381:281,1,62.9999980773926,6|10,0:0|0:0,0:0:0:0:
437,348,39347,2,0,P|408:354|363:368,1,62.9999980773926,2|2,0:0|3:2,0:0:0:0:
287,384,39694,1,10,0:0:0:0:
287,384,39867,1,2,0:0:0:0:
263,292,40041,1,2,3:2:0:0:
65,372,40388,6,0,B|94:321|94:321|69:239,1,140,6|10,3:2|0:0,0:0:0:0:
1,172,40908,1,2,0:0:0:0:
48,79,41081,1,2,3:2:0:0:
48,79,41255,1,2,3:2:0:0:
116,158,41428,2,0,P|150:146|189:137,1,70,10|0,0:0|0:0,0:0:0:0:
263,41,41775,6,0,P|297:39|345:68,1,70,6|2,3:2|0:0,0:0:0:0:
417,116,42122,1,10,0:0:0:0:
417,116,42295,2,0,P|403:149|390:191,1,70,2|2,3:2|0:0,0:0:0:0:
299,230,42642,1,2,3:2:0:0:
363,312,42815,2,0,P|377:345|390:387,1,70,10|0,0:0|0:0,0:0:0:0:
483,288,43162,6,0,P|517:240|491:154,1,140,6|10,3:2|0:0,0:0:0:0:
418,98,43683,2,0,P|383:110|335:124,1,70,2|2,0:0|3:2,0:0:0:0:
274,191,44029,1,2,3:2:0:0:
334,277,44203,2,0,P|300:287|267:298,1,70,10|2,0:0|0:0,0:0:0:0:
183,361,44550,6,0,P|156:332|148:292,1,70,6|2,3:2|0:0,0:0:0:0:
54,255,44896,2,0,P|81:226|89:186,1,70,10|2,0:0|3:2,0:0:0:0:
36,120,45243,1,2,0:0:0:0:
36,120,45417,1,2,3:2:0:0:
95,42,45590,1,10,0:0:0:0:
241,172,45937,6,0,B|322:158|292:133|377:116,1,140,6|10,3:2|0:0,0:0:0:0:
443,53,46457,1,2,0:0:0:0:
443,53,46630,2,0,P|462:82|467:124,1,70,2|0,3:2|3:2,0:0:0:0:
508,205,46977,2,0,P|489:234|484:276,1,70,10|2,0:0|0:0,0:0:0:0:
409,332,47324,2,0,P|379:324|341:316,1,70,6|2,3:2|0:0,0:0:0:0:
258,262,47671,1,10,0:0:0:0:
258,262,47844,2,0,P|228:270|190:278,1,70,2|2,3:2|0:0,0:0:0:0:
112,338,48191,1,0,3:2:0:0:
40,260,48365,1,10,0:0:0:0:
42,253,48451,1,8,0:0:0:0:
44,246,48538,1,0,3:2:0:0:
115,162,48711,6,0,B|94:131|94:131|105:86,1,73.4999977569581,10|2,0:0|3:2,0:0:0:0:
224,141,49058,2,0,B|203:110|203:110|214:65,1,73.4999977569581,10|2,0:0|3:2,0:0:0:0:
331,124,49405,2,0,B|310:93|310:93|321:48,1,73.4999977569581,10|2,0:0|3:2,0:0:0:0:
428,170,49752,2,0,P|417:207|407:242,1,73.4999977569581,10|2,0:0|3:2,0:0:0:0:
337,361,50099,1,10,3:2:0:0:
466,327,50272,1,10,3:2:0:0:
466,327,50792,2,0,L|411:342,3,36.749998878479,2|2|2|2,0:0|0:0|3:2|0:0,0:0:0:0:
391,297,51139,1,10,0:0:0:0:
466,215,51313,1,2,3:2:0:0:
466,215,51399,1,2,3:2:0:0:
466,215,51486,6,0,P|465:172|442:131,1,77.0000023498536,4|0,3:1|0:0,0:0:0:0:
360,82,51833,2,0,P|324:97|286:97,1,77.0000023498536,10|0,0:0|0:0,0:0:0:0:
205,33,52180,1,2,3:2:0:0:
205,33,52353,1,2,3:2:0:0:
121,100,52526,2,0,P|135:141|146:180,1,77.0000023498536,10|2,0:0|0:0,0:0:0:0:
38,259,52873,6,0,B|75:250|75:250|124:281,1,77.0000023498536,6|0,3:2|0:0,0:0:0:0:
173,363,53220,1,10,0:0:0:0:
173,363,53393,2,0,B|210:372|210:372|242:351,1,77.0000023498536,0|2,3:2|0:0,0:0:0:0:
305,262,53740,1,2,3:2:0:0:
399,315,53914,2,0,P|407:278|435:193,1,115.50000352478,10|0,0:0|0:0,0:0:0:0:
473,171,54261,6,0,B|389:143|429:121|323:88,1,154.000004699707,6|10,3:2|0:0,0:0:0:0:
247,148,54781,1,2,0:0:0:0:
185,59,54954,2,0,P|144:58|103:84,1,77.0000023498536,2|0,3:2|3:2,0:0:0:0:
30,144,55301,2,0,B|57:181|57:181|34:255,1,115.50000352478,10|0,0:0|0:0,0:0:0:0:
15,297,55648,6,0,P|53:298|91:331,1,77.0000023498536,6|0,3:2|0:0,0:0:0:0:
176,376,55995,2,0,P|214:375|252:342,1,77.0000023498536,10|0,0:0|3:2,0:0:0:0:
281,313,56255,1,0,3:2:0:0:
281,313,56341,1,10,3:2:0:0:
212,229,56515,1,10,0:0:0:0:
289,153,56688,2,0,P|328:164|367:172,1,77.0000023498536,10|2,0:0|3:2,0:0:0:0:
511,207,57035,6,0,P|485:178|477:123,1,77.0000023498536,4|0,3:1|0:0,0:0:0:0:
463,34,57382,2,0,P|431:55|393:60,1,77.0000023498536,10|0,0:0|0:0,0:0:0:0:
303,11,57729,1,2,3:2:0:0:
303,11,57902,1,2,3:2:0:0:
220,80,58076,2,0,P|233:119|246:164,1,77.0000023498536,10|2,0:0|0:0,0:0:0:0:
362,220,58422,6,0,P|349:259|336:304,1,77.0000023498536,6|0,3:2|0:0,0:0:0:0:
246,346,58769,1,10,0:0:0:0:
246,346,58943,2,0,B|212:325|212:325|167:338,1,77.0000023498536,0|2,3:2|0:0,0:0:0:0:
77,377,59289,1,2,3:2:0:0:
7,294,59463,2,0,P|17:259|31:207,1,77.0000023498536,10|2,0:0|0:0,0:0:0:0:
138,141,59810,6,0,P|116:110|118:45,1,77.0000023498536,6|2,3:2|0:0,0:0:0:0:
212,34,60157,2,0,P|234:65|232:130,1,77.0000023498536,10|2,0:0|0:0,0:0:0:0:
324,177,60503,1,2,3:2:0:0:
324,177,60677,1,2,3:2:0:0:
260,263,60850,1,10,0:0:0:0:
322,351,61024,1,2,0:0:0:0:
424,319,61197,6,0,P|432:284|445:240,1,77.0000023498536,6|0,3:2|3:2,0:0:0:0:
510,166,61544,1,10,0:0:0:0:
443,81,61717,2,0,P|406:79|361:105,1,77.0000023498536,6|2,3:2|0:0,0:0:0:0:
295,173,62064,1,2,3:2:0:0:
202,118,62237,1,8,0:0:0:0:
112,172,62411,1,8,0:0:0:0:
112,172,62498,1,8,0:0:0:0:
112,172,62584,6,0,P|94:246|76:317,1,125.999996154785,4|0,3:1|0:0,0:0:0:0:
158,359,63104,1,2,3:2:0:0:
158,359,63278,2,0,P|188:348|223:339,1,62.9999980773926,8|0,0:0|0:0,0:0:0:0:
274,264,63625,2,0,P|234:223|243:150,1,125.999996154785,2|2,0:0|3:2,0:0:0:0:
311,97,64145,1,8,0:0:0:0:
311,97,64318,2,0,P|346:107|381:116,1,62.9999980773926,2|0,0:0|3:2,0:0:0:0:
449,57,64665,1,10,0:0:0:0:
449,57,64839,2,0,P|458:87|471:125,1,62.9999980773926,2|0,0:0|3:2,0:0:0:0:
503,214,65185,1,2,0:0:0:0:
503,214,65272,1,2,0:0:0:0:
503,214,65359,6,0,B|396:247|474:293|347:336,1,188.999994232178,4|0,3:1|3:2,0:0:0:0:
280,375,66052,1,8,0:0:0:0:
280,375,66399,2,0,P|271:343|261:313,1,62.9999980773926,2|0,0:0|3:2,0:0:0:0:
192,250,66746,2,0,P|203:217|213:179,1,62.9999980773926,2|10,3:2|0:0,0:0:0:0:
292,141,67093,2,0,P|281:108|271:70,1,62.9999980773926,2|0,0:0|3:2,0:0:0:0:
199,22,67440,1,10,0:0:0:0:
199,22,67613,2,0,B|143:35|143:35|141:43|141:43|69:60,1,125.999996154785,2|2,3:2|0:0,0:0:0:0:
23,131,68133,6,0,B|24:173|57:185|57:185|45:212|65:249,1,125.999996154785,4|0,3:1|0:0,0:0:0:0:
23,328,68654,1,2,3:2:0:0:
109,366,68827,2,0,L|188:344,1,62.9999980773926,8|0,0:0|3:2,0:0:0:0:
241,286,69174,1,10,0:0:0:0:
241,286,69261,1,8,0:0:0:0:
241,286,69347,1,8,0:0:0:0:
334,351,69521,5,10,3:2:0:0:
384,250,69694,1,8,3:2:0:0:
388,254,70388,1,2,3:2:0:0:
388,254,70561,2,0,B|361:212|361:212|382:152,1,94.499997116089,8|0,0:0|0:0,0:0:0:0:
340,130,70908,6,0,B|420:127|384:85|478:80,2,140,4|8|0,3:1|0:0|3:2,0:0:0:0:
256,66,71775,1,0,3:2:0:0:
169,124,71948,2,0,P|164:86|138:57,1,70,10|0,0:0|0:0,0:0:0:0:
29,9,72295,6,0,B|-10:44|-10:44|16:144,1,140,2|8,3:2|0:0,0:0:0:0:
98,188,72815,1,0,3:2:0:0:
26,265,72989,1,2,0:0:0:0:
26,265,73162,1,2,3:2:0:0:
99,340,73336,2,0,P|131:341|169:322,1,70,8|2,0:0|0:0,0:0:0:0:
258,244,73683,6,0,B|317:255|368:264|368:264|350:267|342:278,2,140,0|10|2,3:2|0:0|3:2,0:0:0:0:
187,165,74550,1,0,3:2:0:0:
272,104,74723,2,0,P|312:111|344:117,1,70,10|0,0:0|0:0,0:0:0:0:
481,67,75070,6,0,P|439:129|456:203,1,140,6|8,3:2|0:0,0:0:0:0:
493,296,75590,1,10,3:2:0:0:
493,296,75677,1,8,0:0:0:0:
493,296,75763,2,0,P|456:307|418:321,1,70,2|8,3:2|0:0,0:0:0:0:
337,371,76110,1,8,0:0:0:0:
337,371,76284,1,0,3:2:0:0:
223,297,76457,6,0,B|144:305|177:340|76:351,2,140,4|10|2,3:1|0:0|3:2,0:0:0:0:
303,229,77324,1,2,3:2:0:0:
233,150,77498,2,0,P|242:119|254:77,1,70,8|0,0:0|0:0,0:0:0:0:
128,168,77844,6,0,P|73:130|-9:156,1,140,0|8,3:2|0:0,0:0:0:0:
48,30,78365,2,0,P|122:17|210:1,1,140,0|0,3:2|3:2,0:0:0:0:
270,76,78885,1,10,0:0:0:0:
270,76,79058,1,2,0:0:0:0:
383,12,79232,6,0,P|422:18|456:50,1,70,4|0,3:1|0:0,0:0:0:0:
487,131,79578,2,0,P|481:170|449:204,1,70,8|0,0:0|0:0,0:0:0:0:
383,263,79925,2,0,P|389:302|421:336,1,70,2|0,3:2|3:2,0:0:0:0:
310,368,80272,2,0,P|304:329|272:295,1,70,8|0,0:0|0:0,0:0:0:0:
182,234,80619,6,0,B|118:252|118:252|115:259|115:259|41:280,1,140,2|8,3:2|0:0,0:0:0:0:
58,171,81139,2,0,L|100:157,2,35,10|8|2,3:2|0:0|3:2,0:0:0:0:
0,83,81486,1,8,0:0:0:0:
78,13,81659,1,8,0:0:0:0:
78,13,81746,1,8,0:0:0:0:
78,13,81833,1,8,0:0:0:0:
181,85,82006,6,0,B|217:62|217:62|274:73,1,80.5000015354157,14|0,3:2|0:0,0:0:0:0:
336,144,82353,2,0,P|321:188|312:224,1,80.5000015354157,8|0,0:0|0:0,0:0:0:0:
293,331,82700,1,10,0:0:0:0:
393,380,82873,1,0,3:2:0:0:
473,300,83047,2,0,P|463:263|450:207,1,80.5000015354157,10|0,0:0|3:2,0:0:0:0:
512,101,83393,6,0,B|476:124|476:124|418:112,1,80.5000015354157,14|0,3:2|0:0,0:0:0:0:
359,37,83740,2,0,P|320:33|276:60,1,80.5000015354157,8|2,0:0|3:2,0:0:0:0:
202,129,84087,1,10,0:0:0:0:
268,220,84261,1,0,3:2:0:0:
186,297,84434,2,0,P|147:288|105:280,1,80.5000015354157,10|0,0:0|3:2,0:0:0:0:
10,185,84781,5,14,3:2:0:0:
10,185,84954,1,2,0:0:0:0:
88,103,85128,2,0,P|100:146|114:189,1,80.5000015354157,10|2,0:0|0:0,0:0:0:0:
190,259,85474,2,0,P|202:216|216:173,1,80.5000015354157,10|2,0:0|3:2,0:0:0:0:
244,73,85821,1,10,0:0:0:0:
324,152,85995,1,0,3:2:0:0:
434,78,86168,6,0,B|411:114|411:114|422:167,1,80.5000015354157,14|0,3:2|0:0,0:0:0:0:
478,245,86515,2,0,P|441:254|393:271,1,80.5000015354157,8|2,0:0|3:2,0:0:0:0:
328,354,86862,2,0,P|357:361|379:368,2,40.2500007677078,10|8|0,0:0|0:0|3:2,0:0:0:0:
231,294,87209,1,10,0:0:0:0:
231,294,87295,1,8,0:0:0:0:
231,294,87382,1,0,3:2:0:0:
120,358,87555,6,0,B|128:317|128:317|107:284,1,80.5000015354157,14|0,3:2|0:0,0:0:0:0:
27,205,87902,2,0,P|21:167|49:118,1,80.5000015354157,8|2,0:0|0:0,0:0:0:0:
119,52,88249,1,10,0:0:0:0:
214,111,88422,1,0,3:2:0:0:
311,53,88596,2,0,P|355:64|392:72,1,80.5000015354157,10|0,0:0|3:2,0:0:0:0:
500,161,88943,6,0,B|459:153|459:153|424:176,1,80.5000015354157,14|0,3:2|0:0,0:0:0:0:
346,250,89289,2,0,P|366:283|361:326,1,80.5000015354157,8|2,0:0|3:2,0:0:0:0:
267,383,89636,1,10,0:0:0:0:
267,383,89810,1,0,3:2:0:0:
183,308,89983,2,0,P|194:269|206:230,1,80.5000015354157,10|0,0:0|3:2,0:0:0:0:
300,133,90330,5,14,3:2:0:0:
300,133,90503,1,2,0:0:0:0:
223,49,90677,2,0,P|181:51|141:77,1,80.5000015354157,10|0,0:0|3:2,0:0:0:0:
66,147,91024,2,0,P|108:149|148:175,1,80.5000015354157,10|2,0:0|3:2,0:0:0:0:
222,245,91370,1,10,0:0:0:0:
127,306,91544,1,2,3:2:0:0:
252,384,91717,5,10,3:2:0:0:
252,384,91891,1,10,3:2:0:0:
480,199,92411,5,10,3:2:0:0:
427,120,92584,1,8,0:0:0:0:
427,120,92671,1,8,0:0:0:0:
427,120,92758,2,0,L|439:59,3,35,10|8|8|8,0:0|0:0|0:0|0:0,0:0:0:0:
256,192,93451,5,2,0:0:0:0:
256,192,93625,12,0,102815,0:0:0:0:
