osu file format v14

[General]
AudioFilename: audio.mp3
AudioLeadIn: 0
PreviewTime: 50792
Countdown: 0
SampleSet: Soft
StackLeniency: 0.7
Mode: 3
LetterboxInBreaks: 0
SpecialStyle: 0
WidescreenStoryboard: 1

[Editor]
DistanceSpacing: 0.75
BeatDivisor: 4
GridSize: 4
TimelineZoom: 2.3

[Metadata]
Title:Congrathalations! (Cut Ver.)
TitleUnicode:Congrathalations! (Cut Ver.)
Artist:SmokyThrill77
ArtistUnicode:SmokyThrill77
Creator:Kibitz
Version:anatha's Insane
Source:ラブライブ! School idol project
Tags:love live! µ's u's pewdiepie pewdiepie's tuber simulator 9th anniversary credits roomieofficial boyinaband japanese english jrock j-rock rock high quality hq rip cover mashup t-series snow halation siivagunner giivasunner siivagunner's highest quality rips volume ai congratulations christmas xmas x-mas edit short version novelty bitch lasagna anatharax her LN mapper release
BeatmapID:4371402
BeatmapSetID:2081814

[Difficulty]
HPDrainRate:7.5
CircleSize:4
OverallDifficulty:7.5
ApproachRate:5
SliderMultiplier:1.4
SliderTickRate:1

[Events]
//Background and Video events
0,0,"Pewds.jpg",0,0
//Break Periods
//Storyboard Layer 0 (Background)
//Storyboard Layer 1 (Fail)
//Storyboard Layer 2 (Pass)
//Storyboard Layer 3 (Foreground)
//Storyboard Layer 4 (Overlay)
//Storyboard Sound Samples

[TimingPoints]
157,346.820809248555,4,2,1,50,1,0
51486,-100,4,2,1,50,0,1
69521,-100,4,2,1,50,0,0
70908,-100,4,2,1,50,0,1
81139,-100,4,2,1,50,0,0
82006,-100,4,2,1,50,0,1
93451,-100,4,2,1,50,0,0

[HitObjects]
192,192,157,128,0,330:0:0:0:0:
320,192,330,128,0,503:0:0:0:0:
64,192,503,128,0,850:0:0:0:0:
320,192,677,128,0,850:0:0:0:0:
192,192,850,128,0,1197:0:0:0:0:
320,192,1197,128,0,1370:0:0:0:0:
448,192,1370,128,0,1544:0:0:0:0:
192,192,1544,128,0,1717:0:0:0:0:
320,192,1717,128,0,1891:0:0:0:0:
64,192,1891,128,0,2064:0:0:0:0:
192,192,2064,128,0,2584:0:0:0:0:
448,192,2411,128,0,2584:0:0:0:0:
64,192,2584,128,0,2758:0:0:0:0:
448,192,2758,128,0,2931:0:0:0:0:
192,192,2931,128,0,3278:0:0:0:0:
320,192,2931,128,0,3104:0:0:0:0:
320,192,3278,128,0,3625:0:0:0:0:
64,192,3451,128,0,3972:0:0:0:0:
448,192,4318,128,0,4665:0:0:0:0:
64,192,4318,128,0,4492:0:0:0:0:
192,192,4492,128,0,4665:0:0:0:0:
320,192,4665,128,0,5012:0:0:0:0:
192,192,4839,128,0,5012:0:0:0:0:
64,192,5012,128,0,5185:0:0:0:0:
448,192,5012,128,0,5359:0:0:0:0:
64,192,5359,128,0,5706:0:0:0:0:
448,192,5532,128,0,5706:0:0:0:0:
320,192,5619,1,0,0:0:0:0:
192,192,5706,128,0,6052:0:0:0:0:
320,192,5879,128,0,6052:0:0:0:0:
448,192,6052,128,0,6226:0:0:0:0:
64,192,6226,128,0,6746:0:0:0:0:
320,192,6573,128,0,6746:0:0:0:0:
192,192,6746,128,0,6920:0:0:0:0:
320,192,6920,128,0,7093:0:0:0:0:
64,192,7006,1,0,0:0:0:0:
448,192,7093,128,0,7440:0:0:0:0:
192,192,7440,128,0,7613:0:0:0:0:
320,192,7613,128,0,7960:0:0:0:0:
64,192,7960,128,0,8307:0:0:0:0:
448,192,8307,128,0,8480:0:0:0:0:
320,192,8393,1,0,0:0:0:0:
192,192,8480,128,0,9000:0:0:0:0:
320,192,9000,128,0,9174:0:0:0:0:
64,192,9174,128,0,9347:0:0:0:0:
320,192,9347,128,0,9521:0:0:0:0:
192,192,9521,128,0,9694:0:0:0:0:
448,192,9694,128,0,9867:0:0:0:0:
64,192,9867,128,0,10561:0:0:0:0:
192,192,9867,128,0,10214:0:0:0:0:
448,192,11211,1,0,0:0:0:0:
192,192,11255,128,0,11948:0:0:0:0:
320,192,11948,128,0,12122:0:0:0:0:
64,192,12122,128,0,12295:0:0:0:0:
448,192,12295,128,0,12469:0:0:0:0:
192,192,12469,128,0,12815:0:0:0:0:
320,192,12555,1,0,0:0:0:0:
448,192,12642,128,0,13162:0:0:0:0:
192,192,12989,128,0,13162:0:0:0:0:
320,192,13162,128,0,13336:0:0:0:0:
64,192,13336,128,0,13509:0:0:0:0:
320,192,13509,128,0,13683:0:0:0:0:
448,192,13683,128,0,14029:0:0:0:0:
192,192,13856,128,0,14029:0:0:0:0:
320,192,14029,128,0,14550:0:0:0:0:
64,192,14029,128,0,14376:0:0:0:0:
448,192,14376,128,0,14550:0:0:0:0:
192,192,14550,128,0,14896:0:0:0:0:
448,192,14723,128,0,14896:0:0:0:0:
320,192,14896,128,0,15243:0:0:0:0:
192,192,15070,128,0,15243:0:0:0:0:
64,192,15243,128,0,15417:0:0:0:0:
320,192,15417,128,0,15590:0:0:0:0:
448,192,15417,128,0,15763:0:0:0:0:
64,192,15590,128,0,15763:0:0:0:0:
192,192,15763,128,0,16110:0:0:0:0:
320,192,15937,128,0,16110:0:0:0:0:
448,192,15937,128,0,16284:0:0:0:0:
64,192,16110,128,0,16284:0:0:0:0:
320,192,16284,128,0,16457:0:0:0:0:
192,192,16457,128,0,16804:0:0:0:0:
64,192,16630,128,0,16804:0:0:0:0:
448,192,16804,128,0,17324:0:0:0:0:
192,192,16977,128,0,17151:0:0:0:0:
320,192,17151,128,0,17324:0:0:0:0:
192,192,17324,128,0,17498:0:0:0:0:
64,192,17498,128,0,17844:0:0:0:0:
448,192,17498,128,0,17671:0:0:0:0:
320,192,17671,128,0,17844:0:0:0:0:
448,192,17844,128,0,18018:0:0:0:0:
64,192,18018,128,0,18365:0:0:0:0:
320,192,18191,1,0,0:0:0:0:
192,192,18191,128,0,18538:0:0:0:0:
320,192,18365,128,0,18538:0:0:0:0:
448,192,18538,128,0,18885:0:0:0:0:
192,192,18711,128,0,18885:0:0:0:0:
320,192,18885,128,0,19232:0:0:0:0:
64,192,19058,128,0,19232:0:0:0:0:
192,192,19232,128,0,19405:0:0:0:0:
320,192,19405,128,0,19578:0:0:0:0:
192,192,19578,128,0,19925:0:0:0:0:
448,192,19578,128,0,19752:0:0:0:0:
64,192,19752,128,0,19925:0:0:0:0:
448,192,19925,128,0,20099:0:0:0:0:
320,192,20099,128,0,20272:0:0:0:0:
192,192,20099,128,0,20272:0:0:0:0:
320,192,20446,128,0,20619:0:0:0:0:
448,192,20446,128,0,20966:0:0:0:0:
64,192,20619,128,0,20792:0:0:0:0:
192,192,20792,128,0,20966:0:0:0:0:
320,192,20966,128,0,21139:0:0:0:0:
64,192,20966,128,0,21313:0:0:0:0:
192,192,21139,128,0,21313:0:0:0:0:
448,192,21313,128,0,21659:0:0:0:0:
320,192,21486,128,0,21659:0:0:0:0:
192,192,21659,128,0,21833:0:0:0:0:
320,192,21833,128,0,22006:0:0:0:0:
64,192,22006,128,0,22180:0:0:0:0:
192,192,22180,128,0,22353:0:0:0:0:
64,192,22353,128,0,22526:0:0:0:0:
320,192,22353,1,0,0:0:0:0:
320,192,22526,128,0,22700:0:0:0:0:
192,192,22526,1,0,0:0:0:0:
192,192,22700,128,0,22873:0:0:0:0:
320,192,22873,128,0,23047:0:0:0:0:
448,192,23047,128,0,23220:0:0:0:0:
64,192,23047,1,0,0:0:0:0:
64,192,23220,128,0,23393:0:0:0:0:
320,192,23220,1,0,0:0:0:0:
320,192,23393,1,0,0:0:0:0:
448,192,23393,1,0,0:0:0:0:
192,192,23480,1,0,0:0:0:0:
64,192,23567,1,0,0:0:0:0:
320,192,23654,1,0,0:0:0:0:
448,192,23740,1,0,0:0:0:0:
192,192,23740,128,0,23914:0:0:0:0:
448,192,23914,128,0,24087:0:0:0:0:
64,192,24087,1,0,0:0:0:0:
320,192,24087,128,0,24261:0:0:0:0:
64,192,24261,128,0,24434:0:0:0:0:
320,192,24434,1,0,0:0:0:0:
192,192,24434,128,0,24607:0:0:0:0:
320,192,24607,128,0,24781:0:0:0:0:
448,192,24781,128,0,25128:0:0:0:0:
64,192,24781,1,0,0:0:0:0:
192,192,24954,128,0,25128:0:0:0:0:
64,192,25128,128,0,25474:0:0:0:0:
320,192,25128,1,0,0:0:0:0:
320,192,25301,128,0,25474:0:0:0:0:
192,192,25474,1,0,0:0:0:0:
448,192,25474,128,0,25821:0:0:0:0:
192,192,25648,128,0,25821:0:0:0:0:
64,192,25821,128,0,26168:0:0:0:0:
320,192,25821,1,0,0:0:0:0:
320,192,25995,128,0,26168:0:0:0:0:
448,192,26168,128,0,26515:0:0:0:0:
192,192,26168,128,0,26341:0:0:0:0:
64,192,26341,128,0,26515:0:0:0:0:
320,192,26515,1,0,0:0:0:0:
192,192,26515,1,0,0:0:0:0:
192,192,26688,128,0,26862:0:0:0:0:
448,192,26862,1,0,0:0:0:0:
64,192,26862,1,0,0:0:0:0:
448,192,27035,128,0,27382:0:0:0:0:
192,192,27209,128,0,27382:0:0:0:0:
64,192,27209,1,0,0:0:0:0:
320,192,27382,128,0,27555:0:0:0:0:
64,192,27555,128,0,27902:0:0:0:0:
448,192,27555,1,0,0:0:0:0:
448,192,27729,128,0,27902:0:0:0:0:
192,192,27902,128,0,28076:0:0:0:0:
320,192,27902,1,0,0:0:0:0:
320,192,28076,128,0,28249:0:0:0:0:
64,192,28249,1,0,0:0:0:0:
448,192,28249,1,0,0:0:0:0:
64,192,28422,128,0,28596:0:0:0:0:
320,192,28596,1,0,0:0:0:0:
448,192,28596,1,0,0:0:0:0:
320,192,28769,128,0,28943:0:0:0:0:
192,192,28943,128,0,29116:0:0:0:0:
448,192,28943,1,0,0:0:0:0:
320,192,29116,1,0,0:0:0:0:
64,192,29116,1,0,0:0:0:0:
448,192,29289,1,0,0:0:0:0:
192,192,29289,128,0,29636:0:0:0:0:
320,192,29463,128,0,29636:0:0:0:0:
448,192,29636,128,0,29983:0:0:0:0:
64,192,29636,1,0,0:0:0:0:
64,192,29810,128,0,29983:0:0:0:0:
320,192,29983,128,0,30157:0:0:0:0:
192,192,29983,1,0,0:0:0:0:
192,192,30157,128,0,30330:0:0:0:0:
64,192,30330,1,0,0:0:0:0:
448,192,30330,128,0,30503:0:0:0:0:
64,192,30503,128,0,30677:0:0:0:0:
320,192,30677,1,0,0:0:0:0:
192,192,30677,128,0,30850:0:0:0:0:
320,192,30850,128,0,31024:0:0:0:0:
64,192,31024,128,0,31370:0:0:0:0:
192,192,31024,1,0,0:0:0:0:
448,192,31197,128,0,31370:0:0:0:0:
320,192,31370,128,0,31544:0:0:0:0:
192,192,31370,1,0,0:0:0:0:
192,192,31544,128,0,31717:0:0:0:0:
64,192,31717,128,0,32064:0:0:0:0:
448,192,31717,128,0,31891:0:0:0:0:
320,192,31891,1,0,0:0:0:0:
320,192,32064,128,0,32237:0:0:0:0:
192,192,32064,1,0,0:0:0:0:
192,192,32237,128,0,32411:0:0:0:0:
320,192,32411,128,0,32584:0:0:0:0:
448,192,32411,1,0,0:0:0:0:
64,192,32584,128,0,32931:0:0:0:0:
448,192,32758,1,0,0:0:0:0:
192,192,32931,128,0,33104:0:0:0:0:
320,192,33104,128,0,33278:0:0:0:0:
448,192,33104,1,0,0:0:0:0:
192,192,33278,128,0,33451:0:0:0:0:
448,192,33451,128,0,33625:0:0:0:0:
64,192,33451,1,0,0:0:0:0:
64,192,33625,128,0,33798:0:0:0:0:
448,192,33798,128,0,33972:0:0:0:0:
192,192,33798,1,0,0:0:0:0:
320,192,33972,1,0,0:0:0:0:
192,192,34058,1,0,0:0:0:0:
448,192,34145,1,0,0:0:0:0:
64,192,34145,128,0,34318:0:0:0:0:
192,192,34318,1,0,0:0:0:0:
448,192,34318,128,0,34492:0:0:0:0:
320,192,34492,1,0,0:0:0:0:
192,192,34492,128,0,34839:0:0:0:0:
320,192,34665,128,0,34839:0:0:0:0:
448,192,34839,1,0,0:0:0:0:
64,192,34839,128,0,35012:0:0:0:0:
448,192,35012,128,0,35185:0:0:0:0:
192,192,35185,128,0,35359:0:0:0:0:
320,192,35359,128,0,35532:0:0:0:0:
448,192,35359,1,0,0:0:0:0:
448,192,35532,1,0,0:0:0:0:
192,192,35532,1,0,0:0:0:0:
192,192,35706,128,0,35879:0:0:0:0:
64,192,35879,128,0,36052:0:0:0:0:
448,192,36052,128,0,36226:0:0:0:0:
192,192,36052,1,0,0:0:0:0:
320,192,36226,1,0,0:0:0:0:
192,192,36226,128,0,36573:0:0:0:0:
320,192,36399,128,0,36573:0:0:0:0:
64,192,36573,1,0,0:0:0:0:
448,192,36573,128,0,36920:0:0:0:0:
64,192,36746,128,0,36920:0:0:0:0:
320,192,36920,1,0,0:0:0:0:
192,192,36920,128,0,37093:0:0:0:0:
448,192,37093,1,0,0:0:0:0:
320,192,37093,128,0,37266:0:0:0:0:
192,192,37266,128,0,37440:0:0:0:0:
64,192,37266,128,0,37440:0:0:0:0:
320,192,37440,1,0,0:0:0:0:
320,192,37613,128,0,37787:0:0:0:0:
64,192,37613,1,0,0:0:0:0:
64,192,37787,128,0,37960:0:0:0:0:
448,192,37960,128,0,38133:0:0:0:0:
192,192,38133,128,0,38307:0:0:0:0:
320,192,38133,1,0,0:0:0:0:
320,192,38307,128,0,38480:0:0:0:0:
64,192,38307,1,0,0:0:0:0:
64,192,38480,128,0,38654:0:0:0:0:
192,192,38654,128,0,38827:0:0:0:0:
448,192,38827,128,0,39174:0:0:0:0:
64,192,38827,1,0,0:0:0:0:
320,192,39000,128,0,39174:0:0:0:0:
192,192,39000,1,0,0:0:0:0:
192,192,39174,128,0,39347:0:0:0:0:
64,192,39174,1,0,0:0:0:0:
320,192,39347,128,0,39521:0:0:0:0:
448,192,39521,128,0,39694:0:0:0:0:
64,192,39521,1,0,0:0:0:0:
64,192,39694,128,0,40041:0:0:0:0:
320,192,39694,1,0,0:0:0:0:
320,192,39867,128,0,40041:0:0:0:0:
192,192,40041,128,0,40388:0:0:0:0:
448,192,40041,128,0,40214:0:0:0:0:
64,192,40214,128,0,40388:0:0:0:0:
320,192,40388,128,0,40735:0:0:0:0:
448,192,40388,128,0,40561:0:0:0:0:
192,192,40561,128,0,40735:0:0:0:0:
64,192,40735,128,0,41081:0:0:0:0:
448,192,40735,1,0,0:0:0:0:
448,192,40908,128,0,41081:0:0:0:0:
192,192,41081,128,0,41255:0:0:0:0:
320,192,41081,128,0,41428:0:0:0:0:
448,192,41255,128,0,41428:0:0:0:0:
64,192,41255,1,0,0:0:0:0:
192,192,41428,1,0,0:0:0:0:
64,192,41428,128,0,41602:0:0:0:0:
320,192,41602,1,0,0:0:0:0:
192,192,41775,128,0,42122:0:0:0:0:
64,192,41775,128,0,41948:0:0:0:0:
320,192,41948,128,0,42122:0:0:0:0:
448,192,42122,128,0,42469:0:0:0:0:
64,192,42122,1,0,0:0:0:0:
64,192,42295,128,0,42469:0:0:0:0:
192,192,42295,1,0,0:0:0:0:
320,192,42469,128,0,42642:0:0:0:0:
192,192,42642,128,0,42815:0:0:0:0:
64,192,42642,1,0,0:0:0:0:
448,192,42815,128,0,42989:0:0:0:0:
320,192,42815,1,0,0:0:0:0:
64,192,42989,128,0,43162:0:0:0:0:
320,192,43162,128,0,43336:0:0:0:0:
448,192,43162,128,0,43509:0:0:0:0:
64,192,43336,128,0,43683:0:0:0:0:
320,192,43509,1,0,0:0:0:0:
192,192,43509,1,0,0:0:0:0:
320,192,43683,128,0,43856:0:0:0:0:
192,192,43856,128,0,44029:0:0:0:0:
448,192,43856,1,0,0:0:0:0:
448,192,44029,128,0,44203:0:0:0:0:
64,192,44029,1,0,0:0:0:0:
64,192,44203,1,0,0:0:0:0:
192,192,44203,1,0,0:0:0:0:
192,192,44376,128,0,44550:0:0:0:0:
64,192,44550,128,0,44723:0:0:0:0:
320,192,44550,1,0,0:0:0:0:
448,192,44723,128,0,44896:0:0:0:0:
192,192,44896,128,0,45070:0:0:0:0:
320,192,44896,1,0,0:0:0:0:
320,192,45070,128,0,45243:0:0:0:0:
64,192,45070,1,0,0:0:0:0:
64,192,45243,128,0,45417:0:0:0:0:
448,192,45417,128,0,45590:0:0:0:0:
320,192,45417,1,0,0:0:0:0:
192,192,45590,128,0,45763:0:0:0:0:
64,192,45590,128,0,45937:0:0:0:0:
320,192,45763,1,0,0:0:0:0:
192,192,45937,1,0,0:0:0:0:
448,192,45937,1,0,0:0:0:0:
448,192,46110,128,0,46284:0:0:0:0:
192,192,46284,1,0,0:0:0:0:
320,192,46284,1,0,0:0:0:0:
192,192,46457,128,0,46630:0:0:0:0:
64,192,46630,1,0,0:0:0:0:
448,192,46630,128,0,46804:0:0:0:0:
64,192,46804,128,0,46977:0:0:0:0:
192,192,46804,1,0,0:0:0:0:
320,192,46977,128,0,47151:0:0:0:0:
448,192,46977,1,0,0:0:0:0:
192,192,47151,128,0,47324:0:0:0:0:
448,192,47324,1,0,0:0:0:0:
64,192,47324,128,0,47498:0:0:0:0:
448,192,47498,128,0,47671:0:0:0:0:
192,192,47671,128,0,47844:0:0:0:0:
64,192,47671,1,0,0:0:0:0:
320,192,47844,128,0,48018:0:0:0:0:
448,192,47844,1,0,0:0:0:0:
64,192,48018,128,0,48191:0:0:0:0:
192,192,48018,1,0,0:0:0:0:
448,192,48191,128,0,48365:0:0:0:0:
320,192,48365,1,0,0:0:0:0:
64,192,48365,1,0,0:0:0:0:
192,192,48451,1,0,0:0:0:0:
320,192,48538,1,0,0:0:0:0:
192,192,48711,1,0,0:0:0:0:
64,192,48711,1,0,0:0:0:0:
448,192,48711,1,0,0:0:0:0:
192,192,48885,1,0,0:0:0:0:
64,192,49058,1,0,0:0:0:0:
320,192,49058,1,0,0:0:0:0:
448,192,49058,1,0,0:0:0:0:
320,192,49232,1,0,0:0:0:0:
192,192,49405,1,0,0:0:0:0:
64,192,49405,1,0,0:0:0:0:
448,192,49405,1,0,0:0:0:0:
192,192,49578,1,0,0:0:0:0:
64,192,49752,1,0,0:0:0:0:
448,192,49752,1,0,0:0:0:0:
320,192,49752,1,0,0:0:0:0:
320,192,49925,1,0,0:0:0:0:
192,192,50099,1,0,0:0:0:0:
64,192,50099,128,0,50446:0:0:0:0:
448,192,50272,1,0,0:0:0:0:
320,192,50272,128,0,50446:0:0:0:0:
192,192,50446,128,0,50619:0:0:0:0:
448,192,50619,128,0,50792:0:0:0:0:
64,192,50792,1,0,0:0:0:0:
320,192,50792,1,0,0:0:0:0:
192,192,50879,1,0,0:0:0:0:
320,192,50966,1,0,0:0:0:0:
192,192,51052,1,0,0:0:0:0:
64,192,51139,1,0,0:0:0:0:
448,192,51139,1,0,0:0:0:0:
320,192,51226,1,0,0:0:0:0:
192,192,51313,1,0,0:0:0:0:
320,192,51399,1,0,0:0:0:0:
448,192,51486,1,0,0:0:0:0:
64,192,51486,128,0,51833:0:0:0:0:
192,192,51833,1,0,0:0:0:0:
448,192,51833,128,0,52180:0:0:0:0:
64,192,52180,1,0,0:0:0:0:
320,192,52180,128,0,52353:0:0:0:0:
448,192,52353,1,0,0:0:0:0:
64,192,52353,128,0,52526:0:0:0:0:
448,192,52526,128,0,52700:0:0:0:0:
192,192,52526,1,0,0:0:0:0:
192,192,52700,128,0,52873:0:0:0:0:
64,192,52873,128,0,53220:0:0:0:0:
448,192,52873,1,0,0:0:0:0:
320,192,53220,1,0,0:0:0:0:
448,192,53220,128,0,53393:0:0:0:0:
192,192,53393,1,0,0:0:0:0:
64,192,53567,128,0,53740:0:0:0:0:
320,192,53740,128,0,53914:0:0:0:0:
448,192,53740,1,0,0:0:0:0:
192,192,53914,128,0,54087:0:0:0:0:
64,192,53914,1,0,0:0:0:0:
448,192,54087,1,0,0:0:0:0:
64,192,54261,1,0,0:0:0:0:
320,192,54261,128,0,54607:0:0:0:0:
448,192,54607,1,0,0:0:0:0:
192,192,54607,128,0,54781:0:0:0:0:
448,192,54781,128,0,54954:0:0:0:0:
64,192,54954,128,0,55128:0:0:0:0:
320,192,54954,1,0,0:0:0:0:
320,192,55128,128,0,55301:0:0:0:0:
448,192,55128,1,0,0:0:0:0:
64,192,55301,1,0,0:0:0:0:
192,192,55301,128,0,55648:0:0:0:0:
448,192,55648,128,0,55995:0:0:0:0:
320,192,55648,1,0,0:0:0:0:
64,192,55995,128,0,56341:0:0:0:0:
192,192,55995,1,0,0:0:0:0:
320,192,56168,128,0,56341:0:0:0:0:
448,192,56341,1,0,0:0:0:0:
192,192,56341,128,0,56515:0:0:0:0:
448,192,56515,128,0,56688:0:0:0:0:
64,192,56515,1,0,0:0:0:0:
64,192,56688,128,0,56862:0:0:0:0:
320,192,56688,1,0,0:0:0:0:
320,192,56862,128,0,57035:0:0:0:0:
192,192,56862,1,0,0:0:0:0:
64,192,57035,1,0,0:0:0:0:
192,192,57035,128,0,57382:0:0:0:0:
320,192,57382,1,0,0:0:0:0:
448,192,57382,128,0,57729:0:0:0:0:
64,192,57555,128,0,57729:0:0:0:0:
192,192,57729,1,0,0:0:0:0:
320,192,57729,128,0,57902:0:0:0:0:
192,192,57902,128,0,58076:0:0:0:0:
64,192,57902,1,0,0:0:0:0:
448,192,58076,128,0,58249:0:0:0:0:
320,192,58076,1,0,0:0:0:0:
64,192,58249,128,0,58422:0:0:0:0:
320,192,58422,128,0,58769:0:0:0:0:
448,192,58422,1,0,0:0:0:0:
64,192,58769,128,0,59116:0:0:0:0:
192,192,58769,1,0,0:0:0:0:
320,192,58943,128,0,59116:0:0:0:0:
448,192,58943,1,0,0:0:0:0:
192,192,59116,128,0,59289:0:0:0:0:
448,192,59289,128,0,59463:0:0:0:0:
64,192,59289,1,0,0:0:0:0:
64,192,59463,128,0,59636:0:0:0:0:
320,192,59463,1,0,0:0:0:0:
320,192,59636,128,0,59810:0:0:0:0:
192,192,59810,128,0,59983:0:0:0:0:
448,192,59810,1,0,0:0:0:0:
320,192,59983,128,0,60157:0:0:0:0:
64,192,60157,128,0,60503:0:0:0:0:
448,192,60157,128,0,60330:0:0:0:0:
192,192,60330,128,0,60503:0:0:0:0:
320,192,60503,1,0,0:0:0:0:
448,192,60503,128,0,60850:0:0:0:0:
320,192,60677,128,0,60850:0:0:0:0:
192,192,60850,1,0,0:0:0:0:
64,192,60850,128,0,61197:0:0:0:0:
320,192,61024,128,0,61197:0:0:0:0:
448,192,61197,128,0,61544:0:0:0:0:
192,192,61197,1,0,0:0:0:0:
192,192,61370,128,0,61544:0:0:0:0:
64,192,61544,128,0,61717:0:0:0:0:
320,192,61544,1,0,0:0:0:0:
192,192,61717,128,0,61891:0:0:0:0:
448,192,61717,128,0,61891:0:0:0:0:
320,192,61891,128,0,62064:0:0:0:0:
192,192,62064,128,0,62237:0:0:0:0:
64,192,62064,128,0,62411:0:0:0:0:
320,192,62237,1,0,0:0:0:0:
448,192,62237,1,0,0:0:0:0:
192,192,62411,1,0,0:0:0:0:
320,192,62498,1,0,0:0:0:0:
64,192,62584,1,0,0:0:0:0:
448,192,62584,128,0,62931:0:0:0:0:
192,192,62931,128,0,63104:0:0:0:0:
320,192,63104,128,0,63451:0:0:0:0:
64,192,63278,1,0,0:0:0:0:
192,192,63278,1,0,0:0:0:0:
448,192,63451,128,0,63798:0:0:0:0:
192,192,63625,128,0,63798:0:0:0:0:
64,192,63798,1,0,0:0:0:0:
64,192,63972,128,0,64318:0:0:0:0:
320,192,63972,1,0,0:0:0:0:
448,192,64145,1,0,0:0:0:0:
192,192,64145,1,0,0:0:0:0:
448,192,64318,128,0,64665:0:0:0:0:
192,192,64492,1,0,0:0:0:0:
192,192,64665,128,0,65012:0:0:0:0:
320,192,64665,1,0,0:0:0:0:
320,192,64839,128,0,65012:0:0:0:0:
448,192,65012,1,0,0:0:0:0:
64,192,65012,128,0,65185:0:0:0:0:
320,192,65185,1,0,0:0:0:0:
192,192,65272,1,0,0:0:0:0:
64,192,65359,1,0,0:0:0:0:
448,192,65359,128,0,65706:0:0:0:0:
64,192,65532,1,0,0:0:0:0:
64,192,65706,128,0,66052:0:0:0:0:
320,192,65879,1,0,0:0:0:0:
192,192,66052,1,0,0:0:0:0:
448,192,66052,128,0,66399:0:0:0:0:
192,192,66399,128,0,66746:0:0:0:0:
320,192,66573,1,0,0:0:0:0:
64,192,66746,1,0,0:0:0:0:
448,192,66746,128,0,66920:0:0:0:0:
192,192,66920,1,0,0:0:0:0:
64,192,66920,128,0,67093:0:0:0:0:
448,192,67093,1,0,0:0:0:0:
192,192,67093,128,0,67440:0:0:0:0:
448,192,67266,1,0,0:0:0:0:
64,192,67440,1,0,0:0:0:0:
320,192,67440,128,0,67787:0:0:0:0:
192,192,67613,1,0,0:0:0:0:
448,192,67787,1,0,0:0:0:0:
64,192,67787,128,0,68133:0:0:0:0:
448,192,68133,128,0,68480:0:0:0:0:
192,192,68133,1,0,0:0:0:0:
192,192,68480,128,0,68654:0:0:0:0:
320,192,68654,128,0,69000:0:0:0:0:
64,192,68827,1,0,0:0:0:0:
192,192,68827,1,0,0:0:0:0:
64,192,69000,128,0,69174:0:0:0:0:
192,192,69174,1,0,0:0:0:0:
448,192,69174,1,0,0:0:0:0:
320,192,69261,1,0,0:0:0:0:
192,192,69347,1,0,0:0:0:0:
448,192,69434,1,0,0:0:0:0:
320,192,69521,1,0,0:0:0:0:
64,192,69521,1,0,0:0:0:0:
64,192,69694,1,0,0:0:0:0:
192,192,69694,1,0,0:0:0:0:
192,192,69867,128,0,70214:0:0:0:0:
320,192,70214,128,0,70388:0:0:0:0:
448,192,70388,128,0,70561:0:0:0:0:
192,192,70388,1,0,0:0:0:0:
64,192,70561,1,0,0:0:0:0:
192,192,70561,1,0,0:0:0:0:
64,192,70908,1,0,0:0:0:0:
448,192,70908,1,0,0:0:0:0:
320,192,70908,128,0,71255:0:0:0:0:
64,192,71255,1,0,0:0:0:0:
192,192,71255,128,0,71602:0:0:0:0:
448,192,71602,1,0,0:0:0:0:
64,192,71602,1,0,0:0:0:0:
320,192,71775,1,0,0:0:0:0:
192,192,71948,1,0,0:0:0:0:
64,192,71948,128,0,72295:0:0:0:0:
320,192,72295,1,0,0:0:0:0:
320,192,72469,1,0,0:0:0:0:
64,192,72642,1,0,0:0:0:0:
320,192,72642,128,0,72815:0:0:0:0:
448,192,72815,1,0,0:0:0:0:
192,192,72815,1,0,0:0:0:0:
448,192,72989,128,0,73336:0:0:0:0:
64,192,72989,1,0,0:0:0:0:
64,192,73162,128,0,73336:0:0:0:0:
320,192,73162,1,0,0:0:0:0:
320,192,73336,1,0,0:0:0:0:
192,192,73336,1,0,0:0:0:0:
192,192,73509,128,0,73683:0:0:0:0:
320,192,73683,1,0,0:0:0:0:
448,192,73683,1,0,0:0:0:0:
192,192,73856,128,0,74029:0:0:0:0:
64,192,74029,1,0,0:0:0:0:
320,192,74029,128,0,74203:0:0:0:0:
448,192,74203,128,0,74376:0:0:0:0:
192,192,74376,1,0,0:0:0:0:
64,192,74376,128,0,74550:0:0:0:0:
192,192,74550,128,0,74723:0:0:0:0:
448,192,74723,1,0,0:0:0:0:
320,192,74723,128,0,75070:0:0:0:0:
448,192,75070,1,0,0:0:0:0:
64,192,75070,128,0,75417:0:0:0:0:
192,192,75417,1,0,0:0:0:0:
448,192,75417,1,0,0:0:0:0:
448,192,75590,1,0,0:0:0:0:
320,192,75590,128,0,75763:0:0:0:0:
192,192,75763,128,0,75937:0:0:0:0:
64,192,75763,1,0,0:0:0:0:
320,192,75937,1,0,0:0:0:0:
320,192,76110,1,0,0:0:0:0:
192,192,76110,1,0,0:0:0:0:
192,192,76284,1,0,0:0:0:0:
64,192,76457,1,0,0:0:0:0:
320,192,76457,1,0,0:0:0:0:
64,192,76804,1,0,0:0:0:0:
192,192,76804,1,0,0:0:0:0:
320,192,76977,1,0,0:0:0:0:
192,192,77151,1,0,0:0:0:0:
448,192,77151,1,0,0:0:0:0:
192,192,77324,1,0,0:0:0:0:
320,192,77498,1,0,0:0:0:0:
448,192,77498,1,0,0:0:0:0:
64,192,77671,1,0,0:0:0:0:
192,192,77844,1,0,0:0:0:0:
448,192,77844,128,0,78191:0:0:0:0:
320,192,78018,1,0,0:0:0:0:
192,192,78191,1,0,0:0:0:0:
64,192,78191,1,0,0:0:0:0:
192,192,78365,1,0,0:0:0:0:
320,192,78365,1,0,0:0:0:0:
320,192,78538,128,0,78711:0:0:0:0:
64,192,78711,1,0,0:0:0:0:
448,192,78711,1,0,0:0:0:0:
64,192,78885,1,0,0:0:0:0:
192,192,78885,128,0,79058:0:0:0:0:
320,192,79058,128,0,79232:0:0:0:0:
64,192,79232,1,0,0:0:0:0:
448,192,79232,128,0,79578:0:0:0:0:
192,192,79578,1,0,0:0:0:0:
320,192,79578,1,0,0:0:0:0:
64,192,79752,1,0,0:0:0:0:
448,192,79925,1,0,0:0:0:0:
320,192,79925,1,0,0:0:0:0:
448,192,80099,1,0,0:0:0:0:
320,192,80272,1,0,0:0:0:0:
64,192,80272,1,0,0:0:0:0:
192,192,80446,1,0,0:0:0:0:
448,192,80619,1,0,0:0:0:0:
320,192,80619,1,0,0:0:0:0:
320,192,80792,1,0,0:0:0:0:
192,192,80966,1,0,0:0:0:0:
64,192,80966,1,0,0:0:0:0:
64,192,81139,1,0,0:0:0:0:
448,192,81139,1,0,0:0:0:0:
192,192,81313,1,0,0:0:0:0:
320,192,81486,1,0,0:0:0:0:
448,192,81486,1,0,0:0:0:0:
192,192,81659,1,0,0:0:0:0:
64,192,81659,1,0,0:0:0:0:
320,192,81746,1,0,0:0:0:0:
448,192,81833,1,0,0:0:0:0:
448,192,82006,1,0,0:0:0:0:
64,192,82006,1,0,0:0:0:0:
320,192,82006,1,0,0:0:0:0:
64,192,82180,1,0,0:0:0:0:
448,192,82353,1,0,0:0:0:0:
192,192,82353,1,0,0:0:0:0:
320,192,82353,1,0,0:0:0:0:
448,192,82526,1,0,0:0:0:0:
64,192,82526,1,0,0:0:0:0:
64,192,82700,1,0,0:0:0:0:
192,192,82700,1,0,0:0:0:0:
320,192,82700,1,0,0:0:0:0:
192,192,82873,1,0,0:0:0:0:
448,192,83047,1,0,0:0:0:0:
320,192,83047,1,0,0:0:0:0:
64,192,83047,1,0,0:0:0:0:
320,192,83220,1,0,0:0:0:0:
192,192,83393,1,0,0:0:0:0:
64,192,83393,1,0,0:0:0:0:
448,192,83393,1,0,0:0:0:0:
192,192,83567,1,0,0:0:0:0:
64,192,83740,1,0,0:0:0:0:
320,192,83740,1,0,0:0:0:0:
448,192,83740,1,0,0:0:0:0:
192,192,83914,1,0,0:0:0:0:
320,192,83914,1,0,0:0:0:0:
448,192,84087,1,0,0:0:0:0:
192,192,84087,1,0,0:0:0:0:
64,192,84087,1,0,0:0:0:0:
64,192,84261,1,0,0:0:0:0:
448,192,84434,1,0,0:0:0:0:
320,192,84434,1,0,0:0:0:0:
192,192,84434,1,0,0:0:0:0:
448,192,84607,1,0,0:0:0:0:
320,192,84781,1,0,0:0:0:0:
192,192,84781,1,0,0:0:0:0:
64,192,84781,1,0,0:0:0:0:
192,192,84954,1,0,0:0:0:0:
448,192,84954,1,0,0:0:0:0:
448,192,85128,1,0,0:0:0:0:
320,192,85128,1,0,0:0:0:0:
64,192,85128,1,0,0:0:0:0:
64,192,85301,1,0,0:0:0:0:
192,192,85301,1,0,0:0:0:0:
448,192,85474,1,0,0:0:0:0:
192,192,85474,1,0,0:0:0:0:
320,192,85474,1,0,0:0:0:0:
64,192,85648,1,0,0:0:0:0:
320,192,85648,1,0,0:0:0:0:
64,192,85821,1,0,0:0:0:0:
192,192,85821,1,0,0:0:0:0:
448,192,85821,1,0,0:0:0:0:
192,192,85995,1,0,0:0:0:0:
320,192,85995,1,0,0:0:0:0:
320,192,86168,1,0,0:0:0:0:
448,192,86168,1,0,0:0:0:0:
64,192,86168,1,0,0:0:0:0:
64,192,86341,1,0,0:0:0:0:
448,192,86515,1,0,0:0:0:0:
320,192,86515,1,0,0:0:0:0:
192,192,86515,1,0,0:0:0:0:
192,192,86688,1,0,0:0:0:0:
64,192,86688,1,0,0:0:0:0:
320,192,86862,1,0,0:0:0:0:
448,192,86862,1,0,0:0:0:0:
64,192,86862,1,0,0:0:0:0:
320,192,87035,1,0,0:0:0:0:
448,192,87209,1,0,0:0:0:0:
64,192,87209,1,0,0:0:0:0:
320,192,87295,1,0,0:0:0:0:
192,192,87382,1,0,0:0:0:0:
448,192,87555,1,0,0:0:0:0:
320,192,87555,1,0,0:0:0:0:
64,192,87555,1,0,0:0:0:0:
448,192,87729,1,0,0:0:0:0:
192,192,87902,1,0,0:0:0:0:
64,192,87902,1,0,0:0:0:0:
320,192,87902,1,0,0:0:0:0:
192,192,88076,1,0,0:0:0:0:
448,192,88076,1,0,0:0:0:0:
320,192,88249,1,0,0:0:0:0:
448,192,88249,1,0,0:0:0:0:
64,192,88249,1,0,0:0:0:0:
320,192,88422,1,0,0:0:0:0:
448,192,88596,1,0,0:0:0:0:
192,192,88596,1,0,0:0:0:0:
64,192,88596,1,0,0:0:0:0:
64,192,88769,1,0,0:0:0:0:
192,192,88943,1,0,0:0:0:0:
448,192,88943,1,0,0:0:0:0:
320,192,88943,1,0,0:0:0:0:
448,192,89116,1,0,0:0:0:0:
192,192,89289,1,0,0:0:0:0:
64,192,89289,1,0,0:0:0:0:
320,192,89289,1,0,0:0:0:0:
64,192,89463,1,0,0:0:0:0:
448,192,89463,1,0,0:0:0:0:
192,192,89636,1,0,0:0:0:0:
320,192,89636,1,0,0:0:0:0:
448,192,89636,1,0,0:0:0:0:
320,192,89810,1,0,0:0:0:0:
192,192,89983,1,0,0:0:0:0:
64,192,89983,1,0,0:0:0:0:
448,192,89983,1,0,0:0:0:0:
64,192,90157,1,0,0:0:0:0:
448,192,90330,1,0,0:0:0:0:
320,192,90330,1,0,0:0:0:0:
192,192,90330,1,0,0:0:0:0:
64,192,90503,1,0,0:0:0:0:
320,192,90503,1,0,0:0:0:0:
448,192,90677,1,0,0:0:0:0:
192,192,90677,1,0,0:0:0:0:
64,192,90677,1,0,0:0:0:0:
320,192,90850,1,0,0:0:0:0:
448,192,90850,1,0,0:0:0:0:
192,192,91024,1,0,0:0:0:0:
320,192,91024,1,0,0:0:0:0:
64,192,91024,1,0,0:0:0:0:
192,192,91197,1,0,0:0:0:0:
448,192,91197,1,0,0:0:0:0:
64,192,91370,1,0,0:0:0:0:
320,192,91370,1,0,0:0:0:0:
448,192,91370,1,0,0:0:0:0:
192,192,91544,1,0,0:0:0:0:
320,192,91544,1,0,0:0:0:0:
448,192,91717,1,0,0:0:0:0:
64,192,91717,1,0,0:0:0:0:
192,192,91717,1,0,0:0:0:0:
448,192,91891,1,0,0:0:0:0:
320,192,91891,1,0,0:0:0:0:
64,192,91891,1,0,0:0:0:0:
192,192,92064,1,0,0:0:0:0:
448,192,92237,1,0,0:0:0:0:
192,192,92411,1,0,0:0:0:0:
64,192,92411,1,0,0:0:0:0:
320,192,92584,1,0,0:0:0:0:
448,192,92584,1,0,0:0:0:0:
64,192,92671,1,0,0:0:0:0:
448,192,92758,1,0,0:0:0:0:
320,192,92844,1,0,0:0:0:0:
64,192,92931,1,0,0:0:0:0:
192,192,92931,1,0,0:0:0:0:
192,192,93365,1,0,0:0:0:0:
64,192,93451,1,0,0:0:0:0:
448,192,93451,128,0,102815:0:0:0:0:
