osu file format v14

[General]
AudioFilename: utopia.mp3
AudioLeadIn: 0
PreviewTime: -1
Countdown: 0
SampleSet: Soft
StackLeniency: 0.4
Mode: 0
LetterboxInBreaks: 0
WidescreenStoryboard: 0

[Editor]
DistanceSpacing: 1.5
BeatDivisor: 4
GridSize: 4
TimelineZoom: 1.3

[Metadata]
Title:Utopia
TitleUnicode:Utopia
Artist:Smiley
ArtistUnicode:Smiley
Creator:Dab
Version:Extra
Source:
Tags:
BeatmapID:1646461
BeatmapSetID:784171

[Difficulty]
HPDrainRate:6
CircleSize:4
OverallDifficulty:8.5
ApproachRate:9.2
SliderMultiplier:1.8
SliderTickRate:1

[Events]
//Background and Video events
0,0,"ewa.jpg",0,0
//Break Periods
//Storyboard Layer 0 (Background)
//Storyboard Layer 1 (Fail)
//Storyboard Layer 2 (Pass)
//Storyboard Layer 3 (Foreground)
//Storyboard Sound Samples

[TimingPoints]
2643,361.44578313253,4,1,0,100,1,0
2643,-100,4,2,0,50,0,0
8426,-80,4,2,0,65,0,0
13486,-66.6666666666667,4,2,0,75,0,0
30112,-50,4,2,0,85,0,1
31558,-80,4,2,0,85,0,0
31649,-80,4,2,0,65,0,0
40233,-111.111111111111,4,2,0,50,0,0
42582,-80,4,2,0,60,0,0
43124,-66.6666666666667,4,2,0,75,0,1
54691,-80,4,2,0,65,0,0

[Colours]
Combo1 : 197,159,213
Combo2 : 95,149,250
Combo3 : 199,119,247
Combo4 : 150,184,218

[HitObjects]
108,187,2643,38,0,P|85:243|86:275,1,90,0|0,0:2|0:2,0:2:0:0:
107,86,3004,2,0,P|51:109|29:132,1,90,0|0,0:2|0:2,0:2:0:0:
195,136,3365,1,0,0:2:0:0:
195,35,3546,1,0,0:2:0:0:
108,187,3727,1,0,0:2:0:0:
284,187,3908,6,0,B|365:201|380:148|459:168,1,180,0|0,0:2|0:2,0:2:0:0:
198,238,4630,1,0,0:2:0:0:
198,238,4721,1,0,0:2:0:0:
198,238,4811,2,0,P|185:195|195:145,1,90,0|0,0:2|0:2,0:2:0:0:
356,138,5173,2,0,P|325:171|284:187,1,90,0|0,0:2|0:2,0:2:0:0:
192,52,5534,38,0,P|235:62|274:95,1,90,0|0,0:2|0:2,0:2:0:0:
198,238,5896,1,0,0:2:0:0:
284,186,6076,1,0,0:2:0:0:
196,138,6257,1,0,0:2:0:0:
287,286,6438,1,0,0:2:0:0:
356,138,6618,1,0,0:2:0:0:
200,338,6799,6,0,B|147:353|147:353|19:333,1,180,0|0,0:2|0:2,0:2:0:0:
96,220,7341,1,0,0:2:0:0:
200,338,7522,1,0,0:2:0:0:
251,189,7703,1,0,0:2:0:0:
302,338,7883,1,0,0:2:0:0:
406,220,8064,1,0,0:2:0:0:
159,134,8245,1,0,0:2:0:0:
302,338,8426,38,0,P|356:364|405:353,1,112.5,0|0,1:2|0:2,0:2:0:0:
471,144,8787,2,0,P|417:118|368:129,1,112.5,0|0,0:2|0:2,0:2:0:0:
367,262,9149,1,0,0:2:0:0:
425,83,9329,1,0,0:2:0:0:
244,165,9510,1,0,0:2:0:0:
463,276,9691,6,0,L|469:163,1,112.5,0|0,0:2|0:2,0:2:0:0:
237,52,10052,2,0,L|243:164,1,112.5,0|0,0:2|0:2,0:2:0:0:
425,83,10414,1,0,0:2:0:0:
425,83,10504,1,0,0:2:0:0:
425,83,10594,1,0,0:2:0:0:
211,235,10775,1,0,0:2:0:0:
414,204,10956,1,0,1:2:0:0:
170,115,11136,1,0,0:2:0:0:
252,355,11317,38,0,P|308:360|360:332,1,112.5,0|0,1:2|0:2,0:2:0:0:
245,141,11679,2,0,P|189:136|137:164,1,112.5,0|0,0:2|0:2,0:2:0:0:
296,262,12040,1,0,0:2:0:0:
370,110,12221,1,0,0:2:0:0:
186,224,12402,1,0,0:2:0:0:
191,56,12582,1,0,0:2:0:0:
76,262,12763,6,0,L|56:376,1,112.5,0|0,1:2|0:2,0:2:0:0:
186,224,13124,1,0,0:2:0:0:
105,75,13305,1,0,0:2:0:0:
367,77,13486,6,0,B|368:128|368:128|355:160|355:160|356:211,1,135.000005149842,4|0,1:2|0:2,0:2:0:0:
105,75,13847,2,0,B|103:126|103:126|116:158|116:158|116:209,1,135.000005149842,4|0,1:2|0:2,0:2:0:0:
299,295,14209,6,0,P|377:314|436:269,1,135.000005149842,4|0,1:2|0:2,0:2:0:0:
468,91,14570,1,0,1:2:0:0:
224,235,14751,1,0,0:2:0:0:
224,235,14841,1,0,0:2:0:0:
224,235,14932,2,0,L|71:257,1,135.000005149842,0|0,1:2|0:2,0:2:0:0:
272,103,15293,2,0,L|367:224,1,135.000005149842,0|0,1:2|0:2,0:2:0:0:
134,128,15655,2,0,L|191:-15,1,135.000005149842,0|0,1:2|0:2,0:2:0:0:
142,256,16016,38,0,P|121:193|133:127,1,135.000005149842,0|0,1:2|0:2,0:2:0:0:
133,127,16287,1,0,0:2:0:0:
133,127,16377,1,0,1:2:0:0:
325,192,16558,1,0,0:2:0:0:
191,38,16739,1,0,1:2:0:0:
76,217,16920,1,0,1:2:0:0:
399,133,17100,6,0,P|342:96|276:110,1,135.000005149842,0|0,1:2|0:2,0:2:0:0:
237,373,17462,2,0,P|297:342|318:277,1,135.000005149842,0|0,1:2|0:2,0:2:0:0:
110,112,17823,2,0,P|106:179|151:230,1,135.000005149842,0|0,1:2|0:2,0:2:0:0:
191,38,18185,1,0,1:2:0:0:
29,186,18365,38,0,L|31:323,1,135.000005149842,0|0,0:2|1:2,0:2:0:0:
231,285,18727,1,0,0:2:0:0:
182,116,18908,1,0,1:2:0:0:
331,206,19088,1,0,0:2:0:0:
328,30,19269,1,0,1:2:0:0:
473,129,19450,1,0,0:2:0:0:
182,116,19630,1,0,1:2:0:0:
468,290,19811,5,0,0:2:0:0:
468,290,19902,1,0,0:2:0:0:
468,290,19992,2,0,L|311:313,1,135.000005149842,0|0,1:2|0:2,0:2:0:0:
182,116,20353,2,0,L|315:135,1,135.000005149842,0|0,1:2|0:2,0:2:0:0:
245,213,20624,1,0,0:2:0:0:
245,213,20715,2,0,P|208:141|229:77,1,135.000005149842,0|0,1:2|0:2,0:2:0:0:
382,23,21076,1,0,1:2:0:0:
317,299,21257,38,0,B|273:320|273:320|187:311,1,135.000005149842,0|0,0:2|1:2,0:2:0:0:
89,103,21618,2,0,B|133:82|133:82|219:91,1,135.000005149842,0|0,0:2|1:2,0:2:0:0:
73,239,21980,1,0,0:2:0:0:
73,239,22070,1,0,0:2:0:0:
73,239,22161,1,0,1:2:0:0:
259,161,22341,1,0,0:2:0:0:
56,146,22522,1,0,1:2:0:0:
293,347,22703,1,0,1:2:0:0:
242,68,22883,6,0,P|148:91|118:132,1,135.000005149842,0|0,1:2|0:2,0:2:0:0:
213,320,23245,2,0,P|240:227|219:180,1,135.000005149842,0|0,1:2|0:2,0:2:0:0:
9,168,23606,2,0,P|75:237|126:243,1,135.000005149842,0|0,1:2|0:2,0:2:0:0:
153,24,23968,1,0,1:2:0:0:
228,194,24149,1,0,0:2:0:0:
371,62,24329,38,0,P|293:50|227:76,1,135.000005149842,0|0,1:2|0:2,0:2:0:0:
267,281,24691,2,0,P|345:293|411:267,1,135.000005149842,0|0,1:2|0:2,0:2:0:0:
172,123,25052,6,0,L|167:268,1,135.000005149842,0|0,1:2|0:2,0:2:0:0:
270,344,25323,1,0,0:2:0:0:
270,344,25414,2,0,L|265:209,1,135.000005149842,0|0,1:2|0:2,0:2:0:0:
167,256,25685,1,0,0:2:0:0:
167,256,25775,38,0,P|224:309|285:314,1,135.000005149842,0|0,1:2|0:2,0:2:0:0:
278,17,26136,2,0,B|273:38|264:57|264:57|271:77|283:95|283:95|253:147|265:209,1,202.500007724762,4|0,1:2|0:2,0:2:0:0:
264,208,26498,1,0,1:2:0:0:
435,98,26679,1,0,0:2:0:0:
137,90,26859,2,0,B|132:111|123:130|123:130|130:150|142:168|142:168|112:220|123:281,1,202.500007724762,4|0,1:2|0:2,0:2:0:0:
190,326,27221,6,0,P|134:360|72:340,1,135.000005149842,0|0,1:2|0:2,0:2:0:0:
202,166,27582,2,0,P|257:131|319:151,1,135.000005149842,4|0,1:2|0:2,0:2:0:0:
135,239,27944,1,0,1:2:0:0:
384,280,28124,1,0,0:2:0:0:
190,326,28305,1,4,1:2:0:0:
371,178,28486,1,0,0:2:0:0:
87,330,28667,38,0,P|136:364|214:366,1,135.000005149842,0|0,1:2|0:2,0:2:0:0:
324,128,29028,2,0,P|257:129|201:165,1,135.000005149842,4|0,1:2|0:2,0:2:0:0:
383,255,29389,1,0,1:2:0:0:
434,58,29570,1,0,0:2:0:0:
209,240,29751,1,4,1:2:0:0:
187,38,29932,1,0,0:2:0:0:
298,294,30112,5,4,1:2:0:0:
298,294,30203,1,0,0:2:0:0:
298,294,30293,1,0,0:2:0:0:
312,23,30474,1,4,1:2:0:0:
18,197,30655,1,0,0:2:0:0:
39,253,30745,1,0,0:2:0:0:
77,299,30835,37,4,1:2:0:0:
129,328,30926,1,0,0:2:0:0:
188,337,31016,1,0,0:2:0:0:
247,325,31106,1,0,0:2:0:0:
297,294,31197,1,4,1:2:0:0:
144,73,31377,1,0,0:2:0:0:
392,349,31558,38,0,P|406:308|391:236,1,112.5,4|0,1:2|0:2,0:2:0:0:
189,292,31920,2,0,P|230:306|302:291,1,112.5,0|0,1:2|0:2,0:2:0:0:
246,89,32281,2,0,P|232:130|247:202,1,112.5,0|0,1:2|0:2,0:2:0:0:
449,146,32642,1,0,1:2:0:0:
244,196,32823,1,0,1:2:0:0:
301,11,33004,38,0,P|260:-3|188:12,1,112.5,0|0,1:2|0:2,0:2:0:0:
244,196,33365,2,0,P|285:210|357:195,1,112.5,0|0,1:2|0:2,0:2:0:0:
299,118,33636,1,0,0:2:0:0:
299,118,33727,2,0,L|298:248,1,112.5,0|0,1:2|0:2,0:2:0:0:
201,336,33998,1,0,0:2:0:0:
201,336,34089,2,0,L|200:270,1,56.25,0|0,1:2|0:2,0:2:0:0:
201,168,34269,5,0,0:2:0:0:
201,168,34359,1,0,0:2:0:0:
201,168,34450,2,0,P|242:154|314:169,1,112.5,0|0,1:2|0:2,0:2:0:0:
259,356,34811,2,0,P|245:315|260:243,1,112.5,0|0,1:2|0:2,0:2:0:0:
447,298,35173,2,0,P|406:312|334:297,1,112.5,0|0,1:2|0:2,0:2:0:0:
389,110,35534,1,0,1:2:0:0:
257,248,35715,1,0,1:2:0:0:
495,229,35896,38,0,P|507:174|493:121,1,112.5,0|0,1:2|0:2,0:2:0:0:
311,55,36257,2,0,P|297:96|312:168,1,112.5,0|0,1:2|0:2,0:2:0:0:
389,110,36528,1,0,0:2:0:0:
389,110,36619,2,0,L|259:109,1,112.5,0|0,1:2|0:2,0:2:0:0:
142,162,36889,1,0,0:2:0:0:
142,162,36980,2,0,L|209:161,1,56.25,0|0,1:2|0:2,0:2:0:0:
406,162,37161,5,0,0:2:0:0:
406,162,37251,1,0,0:2:0:0:
406,162,37341,2,0,P|418:216|365:313,1,168.75,0|0,1:2|0:2,0:2:0:0:
163,254,37703,2,0,P|203:215|314:214,1,168.75,0|0,1:2|0:2,0:2:0:0:
271,374,38064,37,0,1:2:0:0:
429,333,38245,1,0,0:2:0:0:
429,333,38335,1,0,0:2:0:0:
429,333,38426,1,0,1:2:0:0:
311,212,38606,1,0,0:2:0:0:
311,212,38697,1,0,0:2:0:0:
311,212,38787,6,0,P|219:213|161:165,1,168.75,0|0,1:2|0:2,0:2:0:0:
205,26,39149,2,0,P|297:25|355:73,1,168.75,0|0,1:2|0:2,0:2:0:0:
258,119,39510,38,0,P|251:168|252:248,1,112.5,0|0,1:2|0:2,0:2:0:0:
455,178,39871,1,0,1:2:0:0:
455,178,39962,1,0,0:2:0:0:
455,178,40052,1,0,0:2:0:0:
284,323,40233,6,0,P|242:325|174:286,1,121.499996292114,0|0,0:2|0:2,0:2:0:0:
226,117,40594,2,0,P|255:170|250:230,1,121.499996292114,0|0,0:2|0:2,0:2:0:0:
164,194,40956,1,0,0:2:0:0:
312,89,41136,1,0,0:2:0:0:
327,111,41226,1,0,0:2:0:0:
338,135,41316,37,0,0:2:0:0:
345,161,41407,1,0,0:2:0:0:
348,188,41497,1,0,0:2:0:0:
346,215,41587,1,0,0:2:0:0:
340,241,41678,5,0,0:2:0:0:
164,194,41859,1,0,0:2:0:0:
164,194,42040,2,0,L|160:281,1,80.9999975280763,0|0,0:2|0:2,0:2:0:0:
167,107,42402,1,0,0:2:0:0:
389,85,42582,5,0,0:2:0:0:
389,85,42763,2,0,L|394:199,1,112.5,0|0,0:2|0:2,0:2:0:0:
144,364,43124,6,0,B|116:256|163:235|212:220|164:100,2,270.000010299683,4|8|0,1:2|1:2|1:2,0:2:0:0:
76,172,44028,1,0,0:2:0:0:
224,308,44209,2,0,P|288:316|356:288,1,135.000005149842,8|0,1:2|0:2,0:2:0:0:
384,92,44570,2,0,P|320:84|252:112,1,135.000005149842,0|0,1:2|0:2,0:2:0:0:
416,248,44932,2,0,L|400:96,1,135.000005149842,8|0,1:2|0:2,0:2:0:0:
220,204,45293,1,0,1:2:0:0:
401,113,45474,1,0,0:2:0:0:
156,128,45655,1,8,1:2:0:0:
284,280,45835,1,0,0:2:0:0:
272,32,46016,38,0,P|184:-12|32:48,2,270.000010299683,0|8|0,1:2|1:2|1:2,0:2:0:0:
220,204,46920,1,0,0:2:0:0:
401,115,47100,1,8,1:2:0:0:
99,100,47281,1,0,0:2:0:0:
200,334,47462,5,8,1:2:0:0:
250,331,47552,1,8,0:2:0:0:
295,309,47642,1,8,0:2:0:0:
329,272,47733,1,8,0:2:0:0:
345,224,47823,2,0,P|345:165|299:98,1,135.000005149842,8|8,1:2|0:2,0:2:0:0:
445,337,48185,37,8,1:2:0:0:
478,295,48275,1,8,0:2:0:0:
497,246,48365,1,8,0:2:0:0:
499,193,48456,1,8,0:2:0:0:
486,142,48546,2,0,L|392:148,1,67.5000025749208,8|0,1:2|0:2,0:2:0:0:
277,219,48727,2,0,L|344:223,1,67.5000025749208,8|0,1:2|0:2,0:2:0:0:
344,72,48908,6,0,B|287:71|247:89|247:89|214:83|186:68|186:68|139:84|81:87,2,270.000010299683,4|8|0,1:2|1:2|1:2,0:2:0:0:
168,173,49811,1,0,0:2:0:0:
256,16,49992,2,0,P|330:98|334:128,1,135.000005149842,8|0,1:2|0:2,0:2:0:0:
90,274,50353,2,0,P|114:211|167:172,1,135.000005149842,0|0,1:2|0:2,0:2:0:0:
376,311,50715,2,0,B|242:297,1,135.000005149842,8|0,1:2|0:2,0:2:0:0:
388,156,51076,1,0,1:2:0:0:
242,297,51257,1,0,0:2:0:0:
192,104,51438,1,8,1:2:0:0:
444,236,51618,1,0,0:2:0:0:
136,228,51799,38,0,P|52:132|96:8,2,270.000010299683,0|8|0,1:2|1:2|1:2,0:2:0:0:
192,104,52703,1,0,0:2:0:0:
236,300,52883,2,0,P|144:312|52:288,1,135.000005149842,8|0,1:2|0:2,0:2:0:0:
192,104,53245,5,8,1:2:0:0:
242,105,53335,1,8,0:2:0:0:
293,107,53425,1,8,0:2:0:0:
343,109,53516,1,8,0:2:0:0:
394,111,53606,2,0,P|456:148|484:204,1,135.000005149842,8|8,1:2|0:2,0:2:0:0:
128,32,53968,37,8,0:2:0:0:
181,32,54058,1,8,0:2:0:0:
234,33,54148,1,8,0:2:0:0:
287,34,54239,1,8,0:2:0:0:
341,35,54329,2,0,P|368:52|400:88,1,67.5000025749208,8|0,0:2|0:2,0:2:0:0:
264,196,54510,2,0,P|265:164|280:118,1,67.5000025749208,8|0,0:2|0:2,0:2:0:0:
472,272,54691,6,0,L|360:276,1,112.5,4|0,1:2|0:2,0:2:0:0:
274,129,55052,1,0,1:2:0:0:
274,129,55142,1,0,0:0:0:0:
274,129,55233,1,0,0:0:0:0:
56,260,55414,6,0,L|168:256,1,112.5,0|0,1:2|0:2,0:2:0:0:
464,192,55775,2,0,L|352:188,1,112.5,0|0,1:2|0:2,0:2:0:0:
28,192,56136,2,0,P|52:80|144:8,2,225,0|0|0,1:0|1:0|1:0,0:0:0:0:
196,168,57040,1,0,0:0:0:0:
300,304,57221,1,0,1:0:0:0:
436,200,57402,1,0,0:0:0:0:
187,308,57582,6,0,L|299:304,1,112.5,0|0,1:2|0:2,0:2:0:0:
436,200,57944,2,0,L|324:196,1,112.5,0|0,1:2|0:2,0:2:0:0:
184,104,58305,1,0,1:0:0:0:
284,240,58486,1,0,0:0:0:0:
276,72,58667,1,0,1:0:0:0:
92,136,58847,1,0,0:0:0:0:
284,152,59028,2,0,P|344:172|328:316,2,225,0|0|0,1:0|1:0|1:0,0:0:0:0:
200,300,59932,5,0,0:0:0:0:
240,328,60022,2,0,P|268:332|296:332,1,56.25,0|0,1:0|0:0,0:0:0:0:
153,150,60203,1,0,0:0:0:0:
193,178,60293,2,0,P|221:182|249:182,1,56.25,0|0,1:0|0:0,0:0:0:0:
29,278,60474,6,0,L|141:274,1,112.5,0|0,1:2|0:2,0:2:0:0:
230,130,60835,1,0,1:0:0:0:
230,130,60926,1,0,0:0:0:0:
230,130,61016,1,0,0:0:0:0:
461,253,61197,2,0,L|349:249,1,112.5,0|0,1:2|0:2,0:2:0:0:
260,96,61558,1,0,1:0:0:0:
230,130,61649,2,0,B|216:192|224:248,1,112.5
264,316,61920,6,0,P|332:296|472:352,2,225,0|0|0,1:0|1:0|1:0,0:0:0:0:
404,220,62823,1,0,0:0:0:0:
264,316,63004,1,0,1:0:0:0:
234,282,63095,2,0,B|220:220|228:164,1,112.5
260,76,63365,6,0,P|204:72|156:100,1,112.5,0|0,1:0|0:0,0:0:0:0:
202,383,63727,2,0,P|233:336|233:280,1,112.5,0|0,1:0|0:0,0:0:0:0:
3,36,64088,2,0,P|27:86|75:114,1,112.5,0|0,1:0|0:0,3:0:0:0:
452,96,64450,2,0,P|405:64|349:64,1,112.5,0|0,1:0|0:0,3:0:0:0:
360,316,64811,6,0,L|368:256,3,56.25,0|0|0|0,1:0|0:0|0:0|0:0,0:0:0:0:
280,216,65173,2,0,L|272:156,3,56.25,0|0|0|0,1:0|0:0|0:0|0:0,0:0:0:0:
192,292,65534,5,0,1:0:0:0:
216,328,65624,2,0,P|276:348|328:336,1,112.5
384,200,65896,1,0,1:0:0:0:
382,213,65986,1,0,0:0:0:0:
380,227,66076,1,0,0:0:0:0:
378,241,66167,1,0,0:0:0:0:
376,255,66257,5,0,1:0:0:0:
345,301,66347,1,0,0:0:0:0:
294,324,66437,1,0,0:0:0:0:
239,318,66528,1,0,0:0:0:0:
195,284,66618,1,8,1:2:0:0:
176,231,66708,1,0,0:0:0:0:
187,177,66799,2,0,P|200:152|220:128,1,56.25
376,256,66980,5,0,1:0:0:0:
429,246,67070,1,0,0:0:0:0:
460,201,67160,1,0,0:0:0:0:
447,148,67251,1,0,0:0:0:0:
400,121,67341,1,8,1:2:0:0:
348,137,67431,1,0,0:0:0:0:
324,186,67522,2,0,P|308:212|284:232,1,56.25
76,125,67703,5,0,1:0:0:0:
106,79,67793,1,0,0:0:0:0:
160,69,67883,1,0,0:0:0:0:
209,95,67974,1,0,0:0:0:0:
239,142,68064,1,8,1:2:0:0:
257,195,68154,1,0,0:0:0:0:
275,248,68245,1,0,0:0:0:0:
303,297,68335,1,0,0:0:0:0:
350,326,68425,5,0,1:0:0:0:
405,321,68516,1,0,0:0:0:0:
445,283,68606,1,0,0:0:0:0:
454,229,68696,1,0,0:0:0:0:
425,181,68787,1,8,1:2:0:0:
373,163,68877,1,0,0:0:0:0:
323,185,68968,2,0,P|304:196|248:200,1,56.25
47,128,69149,5,0,1:0:0:0:
83,85,69239,1,0,0:0:0:0:
134,64,69329,1,0,0:0:0:0:
190,69,69420,1,0,0:0:0:0:
237,98,69510,1,8,1:2:0:0:
266,146,69600,1,0,0:0:0:0:
270,202,69691,2,0,P|272:240|284:272,1,56.25
448,192,69871,5,0,1:0:0:0:
497,168,69961,1,0,0:0:0:0:
511,115,70051,1,0,0:0:0:0:
482,70,70142,1,0,0:0:0:0:
428,62,70232,1,8,1:2:0:0:
386,98,70322,1,0,0:0:0:0:
386,153,70414,2,0,P|388:196|380:228,1,56.25
144,328,70595,5,0,1:0:0:0:
114,281,70684,1,0,0:0:0:0:
118,226,70774,1,0,0:0:0:0:
154,185,70865,1,0,0:0:0:0:
208,174,70955,1,8,1:2:0:0:
258,198,71045,1,0,0:0:0:0:
283,247,71136,1,0,0:0:0:0:
274,301,71226,1,0,0:0:0:0:
233,339,71317,5,8,1:2:0:0:
215,276,71407,1,8,1:2:0:0:
223,211,71497,1,8,1:2:0:0:
256,155,71588,1,8,1:2:0:0:
307,115,71678,1,8,1:2:0:0:
371,98,71768,1,8,1:2:0:0:
435,107,71859,2,0,P|472:112|504:104,1,56.25,8|0,1:2|0:0,0:0:0:0:
307,115,72040,5,0,1:0:0:0:
280,163,72130,1,0,0:0:0:0:
228,181,72220,1,0,0:0:0:0:
177,161,72311,1,0,0:0:0:0:
152,112,72402,1,8,1:2:0:0:
166,58,72491,1,0,0:0:0:0:
212,27,72582,2,0,P|236:24|268:28,1,56.25
316,240,72763,5,0,1:0:0:0:
370,250,72853,1,0,0:0:0:0:
422,231,72943,1,0,0:0:0:0:
456,187,73034,1,0,0:0:0:0:
461,132,73124,1,8,1:2:0:0:
436,82,73214,1,0,0:0:0:0:
389,53,73305,2,0,P|360:48|320:52,1,56.25
116,148,73486,5,0,1:0:0:0:
111,189,73576,1,0,0:0:0:0:
127,227,73666,1,0,0:0:0:0:
160,252,73757,1,0,0:0:0:0:
202,258,73847,1,8,1:2:0:0:
240,242,73937,1,0,0:0:0:0:
266,209,74028,1,0,0:0:0:0:
271,168,74118,1,0,0:0:0:0:
256,129,74209,5,0,1:0:0:0:
263,183,74299,1,0,0:0:0:0:
304,220,74389,1,0,0:0:0:0:
359,223,74480,1,0,0:0:0:0:
403,189,74570,1,8,1:2:0:0:
415,135,74660,1,0,0:0:0:0:
390,86,74751,2,0,P|360:64|336:56,1,56.25
180,184,74932,5,0,1:0:0:0:
138,220,75022,1,0,0:0:0:0:
84,216,75112,1,0,0:0:0:0:
47,175,75203,1,0,0:0:0:0:
50,121,75293,1,8,1:2:0:0:
91,84,75383,1,0,0:0:0:0:
146,87,75474,2,0,P|180:100|224:104,1,56.25
328,32,75655,5,0,1:0:0:0:
290,73,75745,1,0,0:0:0:0:
273,126,75835,1,0,0:0:0:0:
277,182,75926,1,0,0:0:0:0:
302,232,76016,1,8,1:2:0:0:
345,267,76106,1,0,0:0:0:0:
399,283,76197,2,0,P|428:288|460:284,1,56.25
436,148,76377,5,0,1:0:0:0:
388,134,76467,1,0,0:0:0:0:
339,132,76557,1,0,0:0:0:0:
291,143,76648,1,0,0:0:0:0:
246,162,76738,1,8,1:2:0:0:
200,179,76828,1,0,0:0:0:0:
151,183,76919,1,0,0:0:0:0:
103,172,77009,1,0,0:0:0:0:
48,124,77099,5,8,1:2:0:0:
12,164,77191,2,0,P|4:200|8:228,1,56.25,8|0,0:0|0:0,0:0:0:0:
249,48,77371,1,8,1:2:0:0:
285,88,77463,2,0,P|293:124|289:152,1,56.25,8|0,0:0|0:0,0:0:0:0:
132,44,77642,1,8,0:0:0:0:
132,44,77733,1,8,0:0:0:0:
132,44,77823,1,10,0:0:0:0:
