osu file format v14

[General]
AudioFilename: audio.mp3
AudioLeadIn: 0
PreviewTime: 53865
Countdown: 0
SampleSet: Normal
StackLeniency: 0.7
Mode: 1
LetterboxInBreaks: 0
WidescreenStoryboard: 0

[Editor]
Bookmarks: 6913,13488,26639,39790,54584,80885
DistanceSpacing: 0.6
BeatDivisor: 4
GridSize: 32
TimelineZoom: 2.2

[Metadata]
Title:Hanayuki (TV Size)
TitleUnicode:花雪 (TV Size)
Artist:smileY inc.
ArtistUnicode:smileY inc.
Creator:realy0_
Version:Inner Oni
Source:ハナヤマタ
Tags:Hanayamata ending madhouse Naru Sekiya Reina Ueda Yaya Sasame Kaya Okuno Hana N. Fontainestand Minami Tanaka Tami Nishimikado Yuka Ootsubo Machi Tokiwa Manami Numakura Roger ][ -GH- ][ japanese ][_-GH-_][ j-pop anime op Flower Snow Snowflake 大坪由佳 Ootsubo Yuka ゆうゆ yuuyu smile basket
BeatmapID:2206505
BeatmapSetID:1055752

[Difficulty]
HPDrainRate:5.5
CircleSize:5
OverallDifficulty:6
ApproachRate:5
SliderMultiplier:1.4
SliderTickRate:1

[Events]
//Background and Video events
0,0,"hanayamata-desktopsky-55873.jpg",0,0
//Break Periods
//Storyboard Layer 0 (Background)
//Storyboard Layer 1 (Fail)
//Storyboard Layer 2 (Pass)
//Storyboard Layer 3 (Foreground)
//Storyboard Layer 4 (Overlay)
//Storyboard Sound Samples

[TimingPoints]
338,410.958904109589,4,1,0,60,1,0
338,-111.111111111111,4,1,0,60,0,0
6913,-108.108108108108,4,1,0,65,0,0
8557,-108.108108108108,4,1,0,70,0,0
10201,-105.263157894737,4,1,0,70,0,0
12050,-101.010101010101,4,1,0,70,0,0
12255,-97.0873786407767,4,1,0,70,0,0
12461,-93.4579439252336,4,1,0,70,0,0
12564,-91.743119266055,4,1,0,70,0,0
12666,-90.0900900900901,4,1,0,70,0,0
12872,-86.9565217391304,4,1,0,70,0,0
13488,-105.263157894737,4,1,0,60,0,0
24995,-104.166666666667,4,1,0,60,0,0
25201,-103.626943005181,4,1,0,60,0,0
25406,-103.092783505155,4,1,0,60,0,0
25611,-102.564102564103,4,1,0,60,0,0
25714,-102.30179028133,4,1,0,60,0,0
25817,-102.040816326531,4,1,0,60,0,0
26022,-101.522842639594,4,1,0,60,0,0
26125,-101.26582278481,4,1,0,60,0,0
26228,-101.010101010101,4,1,0,60,0,0
26331,-100.755667506297,4,1,0,60,0,0
26433,-100.502512562814,4,1,0,60,0,0
26639,-100,4,1,0,65,0,0
37529,-102.564102564103,4,1,0,65,0,0
37735,-105.263157894737,4,1,0,65,0,0
37940,-100,4,1,0,65,0,0
38146,-97.5609756097561,4,1,0,65,0,0
38351,-95.2380952380952,4,1,0,65,0,0
39173,-97.0873786407767,4,1,0,65,0,0
39276,-98.0392156862745,4,1,0,65,0,0
39379,-99.009900990099,4,1,0,65,0,0
39584,-101.010101010101,4,1,0,65,0,0
39790,-90.9090909090909,4,1,0,70,0,0
39995,-93.0232558139535,4,1,0,70,0,0
40098,-90.9090909090909,4,1,0,70,0,0
40406,-90.9090909090909,4,1,0,70,0,0
40611,-86.9565217391304,4,1,0,70,0,0
40817,-95.2380952380952,4,1,0,70,0,0
40920,-94.3396226415094,4,1,0,70,0,0
41022,-93.4579439252336,4,1,0,70,0,0
41228,-92.5925925925926,4,1,0,70,0,0
41331,-91.743119266055,4,1,0,70,0,0
41433,-90.9090909090909,4,1,0,70,0,0
41639,-93.0232558139535,4,1,0,70,0,0
41742,-90.9090909090909,4,1,0,70,0,0
42255,-93.4579439252336,4,1,0,70,0,0
42358,-91.743119266055,4,1,0,70,0,0
42461,-90.0900900900901,4,1,0,70,0,0
42564,-88.4955752212389,4,1,0,70,0,0
42666,-86.9565217391304,4,1,0,70,0,0
42872,-83.3333333333333,4,1,0,70,0,0
42974,-86.9565217391304,4,1,0,70,0,0
43077,-90.9090909090909,4,1,0,70,0,0
43283,-93.0232558139535,4,1,0,70,0,0
43385,-90.9090909090909,4,1,0,70,0,0
43694,-90.9090909090909,4,1,0,70,0,0
43899,-86.9565217391304,4,1,0,70,0,0
44105,-95.2380952380952,4,1,0,70,0,0
44310,-92.5925925925926,4,1,0,70,0,0
44413,-94.3396226415094,4,1,0,70,0,0
44516,-96.1538461538461,4,1,0,70,0,0
44618,-98.0392156862745,4,1,0,70,0,0
44721,-100,4,1,0,70,0,0
44927,-101.010101010101,4,1,0,70,0,0
45029,-101.522842639594,4,1,0,70,0,0
45132,-102.040816326531,4,1,0,70,0,0
45338,-103.092783505155,4,1,0,70,0,0
45543,-104.166666666667,4,1,0,70,0,0
45851,-105.263157894737,4,1,0,70,0,0
45954,-108.108108108108,4,1,0,70,0,0
46159,-100,4,1,0,65,0,0
46365,-105.263157894737,4,1,0,65,0,0
46570,-100,4,1,0,65,0,0
46981,-102.564102564103,4,1,0,65,0,0
47187,-105.263157894737,4,1,0,65,0,0
47392,-100,4,1,0,65,0,0
47803,-105.263157894737,4,1,0,65,0,0
48420,-102.564102564103,4,1,0,65,0,0
48625,-105.263157894737,4,1,0,65,0,0
48831,-102.564102564103,4,1,0,65,0,0
48933,-103.896103896104,4,1,0,65,0,0
49036,-105.263157894737,4,1,0,65,0,0
49242,-95.2380952380952,4,1,0,65,0,0
49550,-97.5609756097561,4,1,0,65,0,0
49653,-100,4,1,0,70,0,0
49858,-96.1538461538461,4,1,0,70,0,0
50064,-92.5925925925926,4,1,0,70,0,0
50269,-89.2857142857143,4,1,0,70,0,0
50372,-87.719298245614,4,1,0,70,0,0
50474,-86.2068965517241,4,1,0,70,0,0
50680,-83.3333333333333,4,1,0,70,0,0
51091,-90.9090909090909,4,1,0,70,0,0
51502,-100,4,1,0,70,0,0
52118,-98.0392156862745,4,1,0,70,0,0
52324,-96.1538461538461,4,1,0,70,0,0
52529,-94.3396226415094,4,1,0,70,0,0
52735,-92.5925925925926,4,1,0,70,0,0
52940,-90.9090909090909,4,1,0,70,0,0
53248,-88.261253309797,4,1,0,70,0,0
53557,-85.7632933104631,4,1,0,70,0,0
53762,-83.3333333333333,4,1,0,70,0,0
53968,-86.9565217391304,4,1,0,70,0,0
54070,-88.1057268722467,4,1,0,70,0,0
54173,-89.2857142857143,4,1,0,70,0,0
54276,-90.4977375565611,4,1,0,70,0,0
54379,-91.743119266055,4,1,0,70,0,0
54584,410.958904109589,4,1,0,80,1,1
54584,-83.3333333333333,4,1,0,80,0,1
57255,-86.2068965517241,4,1,0,80,0,1
57357,-84.7457627118644,4,1,0,80,0,1
57460,-83.3333333333333,4,1,0,80,0,1
57563,-81.9672131147541,4,1,0,80,0,1
57666,-80.6451612903226,4,1,0,80,0,1
57768,-79.3650793650794,4,1,0,80,0,1
57871,-78.125,4,1,0,80,0,1
58077,-83.3333333333333,4,1,0,80,0,1
59720,-85.1063829787234,4,1,0,80,0,1
59823,-83.3333333333333,4,1,0,80,0,1
59926,-81.6326530612245,4,1,0,80,0,1
60234,-83.3333333333333,4,1,0,80,0,1
60337,-85.1063829787234,4,1,0,80,0,1
60542,-92.5925925925926,4,1,0,80,0,1
60645,-90.9090909090909,4,1,0,80,0,1
60748,-89.2857142857143,4,1,0,80,0,1
60851,-87.719298245614,4,1,0,80,0,1
60953,-86.2068965517241,4,1,0,80,0,1
61056,-84.7457627118644,4,1,0,80,0,1
61159,-83.3333333333333,4,1,0,80,0,1
63830,-86.2068965517241,4,1,0,80,0,1
63933,-84.7457627118644,4,1,0,80,0,1
64036,-83.3333333333333,4,1,0,80,0,1
64138,-81.9672131147541,4,1,0,80,0,1
64241,-80.6451612903226,4,1,0,80,0,1
64344,-79.3650793650794,4,1,0,80,0,1
64447,-78.125,4,1,0,80,0,1
64755,-80.6451612903226,4,1,0,80,0,1
64857,-78.125,4,1,0,80,0,1
65063,-81.9672131147541,4,1,0,80,0,1
65268,-75.7575757575758,4,1,0,80,0,1
65577,-78.125,4,1,0,80,0,1
65679,-75.7575757575758,4,1,0,80,0,1
65885,-79.3650793650794,4,1,0,80,0,1
66090,-73.5294117647059,4,1,0,80,0,0
66296,-67.5675675675676,4,1,0,70,0,0
66399,-68.4931506849315,4,1,0,70,0,0
66501,-69.4444444444444,4,1,0,70,0,0
66604,-70.4225352112676,4,1,0,70,0,0
66707,-71.4285714285714,4,1,0,70,0,0
66810,-72.463768115942,4,1,0,70,0,0
66912,-73.5294117647059,4,1,0,70,0,0
67015,-74.6268656716418,4,1,0,70,0,0
67118,-75.7575757575758,4,1,0,70,0,0
67220,-76.9230769230769,4,1,0,70,0,0
67323,-78.125,4,1,0,70,0,0
67426,-79.3650793650794,4,1,0,70,0,0
67529,-80.6451612903226,4,1,0,70,0,0
67631,-81.9672131147541,4,1,0,70,0,0
67734,-83.3333333333333,4,1,0,80,0,1
70405,-86.2068965517241,4,1,0,80,0,1
70508,-84.7457627118644,4,1,0,80,0,1
70611,-83.3333333333333,4,1,0,80,0,1
70714,-81.9672131147541,4,1,0,80,0,1
70816,-80.6451612903226,4,1,0,80,0,1
70919,-79.3650793650794,4,1,0,80,0,1
71022,-78.125,4,1,0,80,0,1
71227,-83.3333333333333,4,1,0,80,0,1
72871,-85.1063829787234,4,1,0,80,0,1
72974,-83.3333333333333,4,1,0,80,0,1
73077,-81.6326530612245,4,1,0,80,0,1
73385,-83.3333333333333,4,1,0,80,0,1
73488,-85.1063829787234,4,1,0,80,0,1
73693,-93.0232558139535,4,1,0,80,0,1
73796,-90.9090909090909,4,1,0,80,0,1
73899,-89.2857142857143,4,1,0,80,0,1
74001,-87.719298245614,4,1,0,80,0,1
74104,-86.2068965517241,4,1,0,80,0,1
74207,-84.7457627118644,4,1,0,80,0,1
74310,-83.3333333333333,4,1,0,80,0,1
76981,-86.2068965517241,4,1,0,80,0,1
77084,-84.7457627118644,4,1,0,80,0,1
77186,-83.3333333333333,4,1,0,80,0,1
77289,-81.9672131147541,4,1,0,80,0,1
77392,-80.6451612903226,4,1,0,80,0,1
77494,-79.3650793650794,4,1,0,80,0,1
77597,-78.125,4,1,0,80,0,1
77905,-80.6451612903226,4,1,0,80,0,1
78008,-78.125,4,1,0,80,0,1
78214,-81.9672131147541,4,1,0,80,0,1
78316,-78.7401574803149,4,1,0,80,0,1
78419,-75.7575757575758,4,1,0,80,0,1
78727,-78.125,4,1,0,80,0,1
78830,-75.7575757575758,4,1,0,80,0,1
79036,-79.3650793650794,4,1,0,80,0,1
79138,-76.3358778625954,4,1,0,80,0,1
79241,-73.5294117647059,4,1,0,80,0,1
79447,-73.5294117647059,4,1,0,80,0,1
79549,-74.6268656716418,4,1,0,80,0,1
79652,-75.7575757575758,4,1,0,80,0,1
79755,-76.9230769230769,4,1,0,80,0,1
79857,-78.125,4,1,0,80,0,1
79960,-79.3650793650794,4,1,0,80,0,1
80063,-80.6451612903226,4,1,0,80,0,1
80268,-84.7457627118644,4,1,0,80,0,1
80371,-86.2068965517241,4,1,0,80,0,1
80474,-87.719298245614,4,1,0,80,0,1
80679,-92.5925925925926,4,1,0,80,0,1
80782,-94.3396226415094,4,1,0,80,0,1
80885,500,4,1,0,60,1,0
80885,-80,4,1,0,60,0,0
81135,-85.1063829787234,4,1,0,60,0,0
81385,571.428571428571,4,1,0,55,1,8
81385,-80,4,1,0,55,0,8
81670,-85.1063829787234,4,1,0,55,0,8
81813,-86.9565217391304,4,1,0,55,0,8
81885,-88.4955752212389,4,1,0,55,0,8
81956,612.244897959184,4,1,0,50,1,8
81956,-83.3333333333333,4,1,0,50,0,8
82262,-88.8888888888889,4,1,0,50,0,8
82568,631.578947368421,4,1,0,45,1,8
82568,-92.5925925925926,4,1,0,45,0,8
82883,-98.0392156862745,4,1,0,45,0,8
83199,666.666666666667,4,1,0,40,1,0
83199,-97.5609756097561,4,1,0,40,0,0
84199,-111.111111111111,4,1,0,40,0,0

[HitObjects]
231,141,338,5,8,0:0:0:0:
224,233,646,1,0,0:0:0:0:
230,141,954,1,0,0:0:0:0:
259,195,1159,1,8,0:0:0:0:
250,201,1365,1,0,0:0:0:0:
259,195,1570,1,8,0:0:0:0:
259,195,1981,1,8,0:0:0:0:
259,195,2290,1,0,0:0:0:0:
264,195,2598,1,8,0:0:0:0:
264,195,2803,1,8,0:0:0:0:
259,195,3009,1,0,0:0:0:0:
264,195,3420,1,8,0:0:0:0:
264,195,3522,1,8,0:0:0:0:
264,195,3625,1,8,0:0:0:0:
209,88,3831,1,0,0:0:0:0:
209,88,4036,1,8,0:0:0:0:
209,88,4242,1,0,0:0:0:0:
209,88,4447,1,8,0:0:0:0:
211,83,4653,1,8,0:0:0:0:
211,83,5064,1,0,0:0:0:0:
211,83,5269,1,8,0:0:0:0:
212,82,5680,1,8,0:0:0:0:
212,82,5885,1,0,0:0:0:0:
212,82,6296,1,8,0:0:0:0:
212,82,6399,1,0,0:0:0:0:
212,82,6502,1,8,0:0:0:0:
212,82,6605,1,8,0:0:0:0:
212,82,6707,1,0,0:0:0:0:
212,82,6913,1,12,0:0:0:0:
148,217,7324,1,0,0:0:0:0:
298,109,7529,1,8,0:0:0:0:
298,109,7940,1,0,0:0:0:0:
298,109,8146,1,8,0:0:0:0:
298,109,8351,1,8,0:0:0:0:
229,70,8557,1,4,0:0:0:0:
201,119,8968,1,8,0:0:0:0:
201,119,9173,1,0,0:0:0:0:
293,90,9584,1,0,0:0:0:0:
293,90,9790,1,8,0:0:0:0:
257,78,9995,1,8,0:0:0:0:
243,77,10098,1,8,0:0:0:0:
257,78,10201,1,4,0:0:0:0:
309,121,10611,1,8,0:0:0:0:
212,128,10817,1,8,0:0:0:0:
212,128,10920,1,8,0:0:0:0:
212,128,11022,1,0,0:0:0:0:
237,158,11228,1,0,0:0:0:0:
214,124,11433,1,8,0:0:0:0:
214,124,11639,1,8,0:0:0:0:
214,124,11742,1,8,0:0:0:0:
169,34,11844,1,0,0:0:0:0:
216,119,12050,1,8,0:0:0:0:
216,119,12255,1,8,0:0:0:0:
216,119,12461,1,0,0:0:0:0:
220,116,12564,1,8,0:0:0:0:
216,119,12666,1,0,0:0:0:0:
220,116,12872,1,8,0:0:0:0:
219,115,13488,1,4,0:0:0:0:
294,171,13694,1,8,0:0:0:0:
294,171,13796,1,0,0:0:0:0:
294,171,13899,1,8,0:0:0:0:
288,176,14105,1,8,0:0:0:0:
288,176,14310,1,0,0:0:0:0:
288,176,14516,1,8,0:0:0:0:
219,198,14618,1,8,0:0:0:0:
212,164,14721,1,0,0:0:0:0:
288,174,14927,1,8,0:0:0:0:
288,174,15029,1,0,0:0:0:0:
217,161,15132,1,8,0:0:0:0:
193,58,15440,1,8,0:0:0:0:
193,58,15543,1,0,0:0:0:0:
193,58,15748,1,8,0:0:0:0:
193,58,15954,1,0,0:0:0:0:
203,40,16159,1,8,0:0:0:0:
193,58,16262,1,0,0:0:0:0:
203,40,16365,1,8,0:0:0:0:
193,58,16570,1,8,0:0:0:0:
203,38,16776,1,0,0:0:0:0:
194,175,17084,1,0,0:0:0:0:
203,36,17187,1,8,0:0:0:0:
203,36,17392,1,0,0:0:0:0:
203,36,17598,1,8,0:0:0:0:
203,36,17803,1,8,0:0:0:0:
237,188,17906,1,0,0:0:0:0:
236,194,18009,1,8,0:0:0:0:
203,36,18214,1,8,0:0:0:0:
203,36,18420,1,0,0:0:0:0:
203,36,18728,1,8,0:0:0:0:
203,36,18831,1,0,0:0:0:0:
203,36,19036,1,8,0:0:0:0:
203,36,19242,1,0,0:0:0:0:
203,36,19447,1,0,0:0:0:0:
203,36,19653,1,8,0:0:0:0:
203,36,19858,1,0,0:0:0:0:
262,144,19961,1,0,0:0:0:0:
203,36,20064,1,8,0:0:0:0:
264,161,20372,1,0,0:0:0:0:
203,36,20474,1,8,0:0:0:0:
203,36,20680,1,8,0:0:0:0:
190,195,20885,1,0,0:0:0:0:
203,36,21091,1,8,0:0:0:0:
249,154,21194,1,0,0:0:0:0:
239,159,21296,1,8,0:0:0:0:
310,83,21502,1,8,0:0:0:0:
249,149,21605,1,8,0:0:0:0:
310,83,21707,1,0,0:0:0:0:
225,122,21913,1,0,0:0:0:0:
310,83,22118,1,8,0:0:0:0:
259,143,22221,1,0,0:0:0:0:
222,142,22324,1,8,0:0:0:0:
251,147,22529,1,0,0:0:0:0:
258,144,22838,1,0,0:0:0:0:
258,144,22940,1,8,0:0:0:0:
258,144,23146,1,0,0:0:0:0:
258,144,23351,1,8,0:0:0:0:
258,144,23557,1,8,0:0:0:0:
258,144,23762,1,0,0:0:0:0:
258,144,23968,1,8,0:0:0:0:
237,141,24070,1,8,0:0:0:0:
258,144,24173,1,0,0:0:0:0:
258,144,24379,1,8,0:0:0:0:
258,144,24584,1,0,0:0:0:0:
258,144,24790,1,12,0:0:0:0:
240,60,25201,1,8,0:0:0:0:
243,58,25406,1,8,0:0:0:0:
245,58,25611,1,0,0:0:0:0:
245,58,25714,1,0,0:0:0:0:
246,57,25817,1,8,0:0:0:0:
239,61,26022,1,0,0:0:0:0:
239,61,26125,1,0,0:0:0:0:
239,61,26228,1,8,0:0:0:0:
237,62,26331,1,8,0:0:0:0:
239,61,26433,1,0,0:0:0:0:
219,115,26639,1,12,0:0:0:0:
294,171,26844,1,8,0:0:0:0:
294,171,26947,1,0,0:0:0:0:
294,171,27050,1,8,0:0:0:0:
288,176,27255,1,8,0:0:0:0:
288,176,27461,1,0,0:0:0:0:
235,158,27564,1,0,0:0:0:0:
288,176,27666,1,8,0:0:0:0:
219,198,27769,1,8,0:0:0:0:
212,164,27872,1,0,0:0:0:0:
288,174,28077,1,8,0:0:0:0:
288,174,28180,1,0,0:0:0:0:
217,161,28283,1,8,0:0:0:0:
193,58,28591,1,8,0:0:0:0:
193,58,28694,1,0,0:0:0:0:
193,58,28899,1,8,0:0:0:0:
193,58,29105,1,0,0:0:0:0:
203,40,29310,1,8,0:0:0:0:
193,58,29413,1,0,0:0:0:0:
203,40,29516,1,8,0:0:0:0:
288,47,29618,1,0,0:0:0:0:
193,58,29721,1,8,0:0:0:0:
241,144,29824,1,8,0:0:0:0:
203,38,29927,1,0,0:0:0:0:
242,145,30132,1,8,0:0:0:0:
194,175,30235,1,0,0:0:0:0:
203,36,30338,1,8,0:0:0:0:
203,36,30543,1,0,0:0:0:0:
203,36,30748,1,8,0:0:0:0:
253,79,30851,1,8,0:0:0:0:
257,82,30954,1,0,0:0:0:0:
237,188,31057,1,0,0:0:0:0:
236,194,31159,1,8,0:0:0:0:
270,81,31365,1,0,0:0:0:0:
274,83,31468,1,8,0:0:0:0:
203,36,31570,1,0,0:0:0:0:
274,83,31776,1,8,0:0:0:0:
274,83,31879,1,8,0:0:0:0:
203,36,31981,1,0,0:0:0:0:
261,150,32084,1,0,0:0:0:0:
282,155,32187,1,8,0:0:0:0:
261,150,32290,1,0,0:0:0:0:
261,150,32392,1,8,0:0:0:0:
203,36,32598,1,0,0:0:0:0:
203,36,32803,1,8,0:0:0:0:
203,36,32906,1,8,0:0:0:0:
203,36,33009,1,0,0:0:0:0:
262,144,33111,1,0,0:0:0:0:
203,36,33214,1,12,0:0:0:0:
264,161,33522,1,0,0:0:0:0:
203,36,33625,1,8,0:0:0:0:
203,36,33831,1,8,0:0:0:0:
190,195,34036,1,0,0:0:0:0:
203,36,34242,1,8,0:0:0:0:
249,154,34344,1,0,0:0:0:0:
239,159,34447,1,8,0:0:0:0:
310,83,34653,1,8,0:0:0:0:
249,149,34755,1,8,0:0:0:0:
310,83,34858,1,0,0:0:0:0:
225,122,35064,1,8,0:0:0:0:
310,83,35166,1,0,0:0:0:0:
310,83,35269,1,8,0:0:0:0:
310,83,35372,1,0,0:0:0:0:
259,143,35474,1,8,0:0:0:0:
222,142,35577,1,8,0:0:0:0:
251,147,35680,1,0,0:0:0:0:
377,175,35885,1,12,0:0:0:0:
310,131,36091,1,0,0:0:0:0:
310,131,36296,1,8,0:0:0:0:
349,58,36399,1,8,0:0:0:0:
310,131,36502,1,4,0:0:0:0:
258,144,36810,1,8,0:0:0:0:
184,184,36913,1,0,0:0:0:0:
258,144,37118,1,8,0:0:0:0:
258,144,37221,1,0,0:0:0:0:
258,144,37324,1,8,0:0:0:0:
258,144,37529,1,0,0:0:0:0:
258,144,37735,1,0,0:0:0:0:
258,144,37940,1,12,0:0:0:0:
240,60,38351,1,12,0:0:0:0:
243,58,38557,1,0,0:0:0:0:
245,58,38762,1,8,0:0:0:0:
100,187,38968,1,0,0:0:0:0:
239,61,39173,1,8,0:0:0:0:
239,61,39276,1,8,0:0:0:0:
239,61,39379,1,0,0:0:0:0:
239,61,39584,1,8,0:0:0:0:
239,61,39790,1,4,0:0:0:0:
230,198,39995,1,8,0:0:0:0:
239,61,40098,1,4,0:0:0:0:
239,61,40406,1,4,0:0:0:0:
292,129,40611,1,12,0:0:0:0:
213,229,40817,1,8,0:0:0:0:
213,229,40920,1,0,0:0:0:0:
213,229,41022,1,8,0:0:0:0:
252,188,41228,1,8,0:0:0:0:
202,74,41331,1,8,0:0:0:0:
116,203,41433,1,4,0:0:0:0:
286,140,41639,1,8,0:0:0:0:
116,203,41742,1,4,0:0:0:0:
116,203,42050,1,4,0:0:0:0:
250,160,42255,1,8,0:0:0:0:
250,160,42358,1,8,0:0:0:0:
250,160,42461,1,0,0:0:0:0:
250,160,42564,1,0,0:0:0:0:
250,160,42666,1,8,0:0:0:0:
250,160,42872,1,8,0:0:0:0:
250,160,42974,1,8,0:0:0:0:
239,61,43077,1,4,0:0:0:0:
230,198,43283,1,8,0:0:0:0:
239,61,43385,1,4,0:0:0:0:
239,61,43694,1,4,0:0:0:0:
292,129,43899,1,12,0:0:0:0:
213,229,44105,1,0,0:0:0:0:
213,229,44310,1,8,0:0:0:0:
213,229,44413,1,8,0:0:0:0:
252,188,44516,1,0,0:0:0:0:
202,74,44618,1,8,0:0:0:0:
116,203,44721,1,4,0:0:0:0:
194,178,44927,1,0,0:0:0:0:
286,140,45029,1,8,0:0:0:0:
201,179,45132,1,0,0:0:0:0:
254,175,45338,1,8,0:0:0:0:
250,160,45543,1,0,0:0:0:0:
250,160,45851,1,0,0:0:0:0:
250,160,45954,1,0,0:0:0:0:
250,160,46159,1,12,0:0:0:0:
223,111,46365,1,0,0:0:0:0:
266,92,46570,1,8,0:0:0:0:
266,92,46673,1,0,0:0:0:0:
243,92,46776,1,8,0:0:0:0:
270,73,46981,1,8,0:0:0:0:
270,73,47187,1,0,0:0:0:0:
270,92,47392,1,8,0:0:0:0:
270,92,47495,1,0,0:0:0:0:
270,92,47598,1,8,0:0:0:0:
273,69,47803,1,0,0:0:0:0:
273,69,48214,1,0,0:0:0:0:
273,69,48420,1,8,0:0:0:0:
273,69,48625,1,0,0:0:0:0:
273,69,48831,1,8,0:0:0:0:
273,69,48933,1,8,0:0:0:0:
273,69,49036,1,0,0:0:0:0:
273,69,49242,1,12,0:0:0:0:
197,67,49447,1,8,0:0:0:0:
204,59,49550,1,8,0:0:0:0:
204,59,49653,1,4,0:0:0:0:
321,147,49858,1,0,0:0:0:0:
319,147,50064,1,8,0:0:0:0:
318,146,50269,1,0,0:0:0:0:
311,119,50372,1,0,0:0:0:0:
309,119,50474,1,8,0:0:0:0:
311,119,50680,1,8,0:0:0:0:
208,302,51091,1,4,0:0:0:0:
246,91,51502,1,0,0:0:0:0:
246,91,51707,1,8,0:0:0:0:
294,81,51810,1,0,0:0:0:0:
247,94,51913,1,8,0:0:0:0:
245,95,52118,1,0,0:0:0:0:
231,118,52324,1,0,0:0:0:0:
231,118,52529,1,0,0:0:0:0:
231,118,52735,1,0,0:0:0:0:
243,211,52940,1,4,0:0:0:0:
243,209,53248,1,4,0:0:0:0:
240,204,53557,1,4,0:0:0:0:
240,204,53762,1,4,0:0:0:0:
226,77,53968,1,8,0:0:0:0:
226,77,54070,1,8,0:0:0:0:
228,75,54173,1,0,0:0:0:0:
228,75,54276,1,0,0:0:0:0:
230,74,54379,1,8,0:0:0:0:
203,35,54584,1,4,0:0:0:0:
239,206,54892,1,8,0:0:0:0:
239,206,54994,1,0,0:0:0:0:
360,204,55200,1,8,0:0:0:0:
359,204,55405,1,0,0:0:0:0:
239,206,55611,1,8,0:0:0:0:
272,214,55714,1,8,0:0:0:0:
272,214,55816,1,0,0:0:0:0:
272,212,56022,1,8,0:0:0:0:
272,212,56227,1,0,0:0:0:0:
293,103,56433,1,0,0:0:0:0:
263,89,56536,1,0,0:0:0:0:
274,208,56638,1,8,0:0:0:0:
266,76,56844,1,8,0:0:0:0:
266,76,56947,1,0,0:0:0:0:
266,76,57049,1,8,0:0:0:0:
265,74,57255,1,0,0:0:0:0:
265,74,57357,1,0,0:0:0:0:
265,74,57460,1,8,0:0:0:0:
265,74,57563,1,8,0:0:0:0:
176,54,57666,1,0,0:0:0:0:
366,103,57768,1,0,0:0:0:0:
176,54,57871,1,12,0:0:0:0:
210,68,58179,1,0,0:0:0:0:
211,67,58282,1,8,0:0:0:0:
300,67,58488,1,8,0:0:0:0:
299,66,58693,1,0,0:0:0:0:
289,124,58796,1,0,0:0:0:0:
177,189,58899,1,8,0:0:0:0:
361,102,59001,1,0,0:0:0:0:
361,102,59104,1,8,0:0:0:0:
200,124,59310,1,8,0:0:0:0:
201,188,59515,1,0,0:0:0:0:
218,77,59720,1,8,0:0:0:0:
218,77,59823,1,0,0:0:0:0:
218,77,59926,1,12,0:0:0:0:
309,161,60131,1,0,0:0:0:0:
309,161,60234,1,8,0:0:0:0:
308,160,60337,1,4,0:0:0:0:
242,105,60542,1,8,0:0:0:0:
236,32,60645,1,8,0:0:0:0:
236,32,60748,1,0,0:0:0:0:
236,32,60851,1,0,0:0:0:0:
263,23,60953,1,8,0:0:0:0:
263,23,61056,1,0,0:0:0:0:
265,23,61159,1,12,0:0:0:0:
205,180,61364,1,0,0:0:0:0:
205,180,61467,1,8,0:0:0:0:
205,180,61570,1,0,0:0:0:0:
205,180,61775,1,8,0:0:0:0:
205,180,61981,1,0,0:0:0:0:
207,162,62289,1,8,0:0:0:0:
207,162,62392,1,0,0:0:0:0:
207,162,62597,1,8,0:0:0:0:
255,88,62803,1,0,0:0:0:0:
291,133,63008,1,0,0:0:0:0:
310,77,63111,1,8,0:0:0:0:
310,77,63214,1,0,0:0:0:0:
273,28,63419,1,8,0:0:0:0:
218,147,63522,1,8,0:0:0:0:
273,28,63625,1,0,0:0:0:0:
430,240,63830,1,8,0:0:0:0:
273,28,63933,1,0,0:0:0:0:
293,40,64036,1,8,0:0:0:0:
293,40,64138,1,8,0:0:0:0:
306,67,64241,1,0,0:0:0:0:
163,2,64344,1,0,0:0:0:0:
167,1,64447,1,12,0:0:0:0:
249,85,64755,1,0,0:0:0:0:
249,85,64857,1,8,0:0:0:0:
214,12,65063,1,0,0:0:0:0:
249,85,65268,1,12,0:0:0:0:
169,174,65577,1,8,0:0:0:0:
385,84,65679,1,0,0:0:0:0:
385,84,65885,1,8,0:0:0:0:
385,84,66090,1,4,0:0:0:0:
253,169,66296,1,8,0:0:0:0:
235,92,66399,1,0,0:0:0:0:
235,92,66501,1,8,0:0:0:0:
235,92,66604,1,8,0:0:0:0:
235,92,66707,1,0,0:0:0:0:
235,92,66810,1,8,0:0:0:0:
235,92,66912,1,0,0:0:0:0:
229,98,67015,1,0,0:0:0:0:
229,98,67118,1,8,0:0:0:0:
228,89,67220,1,8,0:0:0:0:
229,89,67323,1,0,0:0:0:0:
229,89,67426,1,0,0:0:0:0:
228,89,67529,1,8,0:0:0:0:
246,22,67631,1,0,0:0:0:0:
228,89,67734,1,12,0:0:0:0:
239,206,68042,1,8,0:0:0:0:
239,206,68145,1,0,0:0:0:0:
360,204,68351,1,8,0:0:0:0:
359,204,68556,1,0,0:0:0:0:
239,206,68762,1,8,0:0:0:0:
272,214,68864,1,0,0:0:0:0:
272,214,68967,1,8,0:0:0:0:
272,212,69173,1,8,0:0:0:0:
272,212,69378,1,0,0:0:0:0:
206,123,69584,1,0,0:0:0:0:
263,89,69686,1,0,0:0:0:0:
274,208,69789,1,8,0:0:0:0:
266,76,69994,1,8,0:0:0:0:
266,76,70097,1,8,0:0:0:0:
266,76,70200,1,0,0:0:0:0:
265,74,70405,1,8,0:0:0:0:
265,74,70508,1,0,0:0:0:0:
265,74,70611,1,8,0:0:0:0:
265,74,70714,1,8,0:0:0:0:
176,54,70816,1,0,0:0:0:0:
366,103,70919,1,0,0:0:0:0:
176,54,71022,1,12,0:0:0:0:
302,68,71330,1,0,0:0:0:0:
301,67,71433,1,8,0:0:0:0:
300,67,71638,1,8,0:0:0:0:
299,66,71844,1,0,0:0:0:0:
230,137,71947,1,0,0:0:0:0:
177,189,72049,1,8,0:0:0:0:
361,102,72152,1,0,0:0:0:0:
361,102,72255,1,8,0:0:0:0:
200,124,72460,1,8,0:0:0:0:
201,188,72666,1,0,0:0:0:0:
218,77,72871,1,8,0:0:0:0:
218,77,72974,1,0,0:0:0:0:
218,77,73077,1,12,0:0:0:0:
309,161,73282,1,8,0:0:0:0:
309,161,73385,1,8,0:0:0:0:
308,160,73488,1,4,0:0:0:0:
242,105,73693,1,0,0:0:0:0:
236,32,73796,1,8,0:0:0:0:
236,32,73899,1,0,0:0:0:0:
236,32,74001,1,0,0:0:0:0:
263,23,74104,1,8,0:0:0:0:
263,23,74207,1,0,0:0:0:0:
265,23,74310,1,12,0:0:0:0:
205,180,74515,1,0,0:0:0:0:
205,180,74618,1,8,0:0:0:0:
205,180,74720,1,0,0:0:0:0:
205,180,74926,1,8,0:0:0:0:
205,180,75131,1,0,0:0:0:0:
207,162,75337,1,8,0:0:0:0:
207,162,75440,1,8,0:0:0:0:
207,162,75542,1,0,0:0:0:0:
207,162,75645,1,0,0:0:0:0:
207,162,75748,1,8,0:0:0:0:
255,88,75953,1,0,0:0:0:0:
291,133,76159,1,0,0:0:0:0:
310,77,76262,1,8,0:0:0:0:
310,77,76364,1,0,0:0:0:0:
273,28,76570,1,8,0:0:0:0:
310,77,76673,1,0,0:0:0:0:
273,28,76775,1,8,0:0:0:0:
430,240,76981,1,8,0:0:0:0:
273,28,77084,1,0,0:0:0:0:
293,40,77186,1,8,0:0:0:0:
293,40,77289,1,8,0:0:0:0:
306,67,77392,1,0,0:0:0:0:
163,2,77494,1,0,0:0:0:0:
167,1,77597,1,12,0:0:0:0:
249,85,77905,1,0,0:0:0:0:
249,85,78008,1,8,0:0:0:0:
214,12,78214,1,8,0:0:0:0:
214,12,78316,1,0,0:0:0:0:
249,85,78419,1,12,0:0:0:0:
169,174,78727,1,8,0:0:0:0:
385,84,78830,1,0,0:0:0:0:
385,84,79036,1,8,0:0:0:0:
214,12,79138,1,0,0:0:0:0:
385,84,79241,1,12,0:0:0:0:
253,169,79447,1,0,0:0:0:0:
235,92,79549,1,0,0:0:0:0:
235,92,79652,1,8,0:0:0:0:
235,92,79755,1,8,0:0:0:0:
235,92,79857,1,0,0:0:0:0:
235,92,79960,1,8,0:0:0:0:
235,92,80063,1,0,0:0:0:0:
229,98,80268,1,8,0:0:0:0:
228,89,80371,1,8,0:0:0:0:
229,89,80474,1,0,0:0:0:0:
228,89,80679,1,8,0:0:0:0:
250,21,80782,1,0,0:0:0:0:
228,89,80885,1,8,0:0:0:0:
216,165,81135,1,0,0:0:0:0:
216,165,81385,1,8,0:0:0:0:
216,165,81670,1,8,0:0:0:0:
216,165,81813,1,0,0:0:0:0:
216,165,81885,1,0,0:0:0:0:
216,165,81956,1,8,0:0:0:0:
217,165,82568,1,8,0:0:0:0:
216,165,82883,1,8,0:0:0:0:
217,165,83199,1,0,0:0:0:0:
217,165,83240,1,0,0:0:0:0:
217,165,84199,1,8,0:0:0:0:
217,165,84240,1,8,0:0:0:0:
