osu file format v14

[General]
AudioFilename: audio.mp3
AudioLeadIn: 0
PreviewTime: 48173
Countdown: 0
SampleSet: None
StackLeniency: 0.7
Mode: 3
LetterboxInBreaks: 0
SpecialStyle: 0
WidescreenStoryboard: 0

[Editor]
DistanceSpacing: 1.2
BeatDivisor: 4
GridSize: 8
TimelineZoom: 1

[Metadata]
Title:Kissy Kissy
TitleUnicode:Kissy Kissy
Artist:Smile DK
ArtistUnicode:Smile DK
Creator:Verald
Version:Kisu
Source:
Tags:
BeatmapID:2084224
BeatmapSetID:996386

[Difficulty]
HPDrainRate:8
CircleSize:4
OverallDifficulty:8
ApproachRate:5
SliderMultiplier:1.4
SliderTickRate:1

[Events]
//Background and Video events
0,0,"bg.png",0,0
//Break Periods
2,117068,123494
//Storyboard Layer 0 (Background)
//Storyboard Layer 1 (Fail)
//Storyboard Layer 2 (Pass)
//Storyboard Layer 3 (Foreground)
//Storyboard Sound Samples

[TimingPoints]
6434,434.782608695652,4,3,0,100,1,0

[HitObjects]
448,192,6434,5,0,0:0:0:0:
320,192,6651,1,0,0:0:0:0:
448,192,6868,1,0,0:0:0:0:
192,192,7086,1,0,0:0:0:0:
320,192,7303,1,0,0:0:0:0:
64,192,7520,1,0,0:0:0:0:
320,192,7738,1,0,0:0:0:0:
192,192,7955,1,0,0:0:0:0:
64,192,8173,1,0,0:0:0:0:
448,192,8390,1,0,0:0:0:0:
320,192,8607,1,0,0:0:0:0:
64,192,8825,1,0,0:0:0:0:
320,192,9042,1,0,0:0:0:0:
192,192,9260,1,0,0:0:0:0:
448,192,9477,1,0,0:0:0:0:
192,192,9694,1,0,0:0:0:0:
320,192,9912,1,0,0:0:0:0:
448,192,10129,1,0,0:0:0:0:
192,192,10347,1,0,0:0:0:0:
320,192,10564,1,0,0:0:0:0:
64,192,10781,1,0,0:0:0:0:
448,192,10999,1,0,0:0:0:0:
192,192,11216,1,0,0:0:0:0:
64,192,11433,1,0,0:0:0:0:
448,192,11651,1,0,0:0:0:0:
192,192,11868,1,0,0:0:0:0:
320,192,12086,1,0,0:0:0:0:
64,192,12303,1,0,0:0:0:0:
192,192,12520,1,0,0:0:0:0:
320,192,13390,1,0,0:0:0:0:
64,192,13607,1,0,0:0:0:0:
320,192,13825,1,0,0:0:0:0:
448,192,14042,1,0,0:0:0:0:
320,192,14260,1,0,0:0:0:0:
64,192,14477,1,0,0:0:0:0:
192,192,14694,1,0,0:0:0:0:
320,192,14912,1,0,0:0:0:0:
192,192,15129,1,0,0:0:0:0:
448,192,15347,1,0,0:0:0:0:
64,192,15564,1,0,0:0:0:0:
320,192,15781,1,0,0:0:0:0:
192,192,15999,1,0,0:0:0:0:
448,192,16216,1,0,0:0:0:0:
192,192,16433,1,0,0:0:0:0:
64,192,16651,1,0,0:0:0:0:
320,192,16868,1,0,0:0:0:0:
448,192,17086,1,0,0:0:0:0:
192,192,17303,1,0,0:0:0:0:
320,192,17520,1,0,0:0:0:0:
64,192,17738,1,0,0:0:0:0:
192,192,17955,1,0,0:0:0:0:
448,192,18173,1,0,0:0:0:0:
192,192,18390,1,0,0:0:0:0:
64,192,18607,1,0,0:0:0:0:
320,192,18607,1,0,0:0:0:0:
192,192,18607,1,0,0:0:0:0:
448,192,18825,1,0,0:0:0:0:
320,192,19042,1,0,0:0:0:0:
192,192,19260,1,0,0:0:0:0:
64,192,19477,1,0,0:0:0:0:
448,192,20347,1,0,0:0:0:0:
320,192,20347,1,0,0:0:0:0:
192,192,20347,1,0,0:0:0:0:
64,192,20564,1,0,0:0:0:0:
320,192,20673,1,0,0:0:0:0:
448,192,20781,1,0,0:0:0:0:
64,192,20781,1,0,0:0:0:0:
192,192,20781,1,0,0:0:0:0:
320,192,20781,1,0,0:0:0:0:
448,192,20999,1,0,0:0:0:0:
64,192,21216,1,0,0:0:0:0:
320,192,21216,1,0,0:0:0:0:
192,192,21216,1,0,0:0:0:0:
320,192,21433,1,0,0:0:0:0:
320,192,21651,1,0,0:0:0:0:
448,192,21651,1,0,0:0:0:0:
64,192,21651,1,0,0:0:0:0:
192,192,21651,1,0,0:0:0:0:
64,192,21868,1,0,0:0:0:0:
448,192,22086,1,0,0:0:0:0:
320,192,22086,1,0,0:0:0:0:
192,192,22086,1,0,0:0:0:0:
64,192,22303,1,0,0:0:0:0:
192,192,22412,1,0,0:0:0:0:
320,192,22520,1,0,0:0:0:0:
448,192,22520,1,0,0:0:0:0:
64,192,22520,1,0,0:0:0:0:
192,192,22520,1,0,0:0:0:0:
192,192,22738,1,0,0:0:0:0:
320,192,22847,1,0,0:0:0:0:
192,192,22955,1,0,0:0:0:0:
448,192,22955,1,0,0:0:0:0:
64,192,22955,1,0,0:0:0:0:
192,192,23173,1,0,0:0:0:0:
320,192,23390,1,0,0:0:0:0:
64,192,23390,1,0,0:0:0:0:
192,192,23390,1,0,0:0:0:0:
448,192,23390,1,0,0:0:0:0:
448,192,23499,1,0,0:0:0:0:
320,192,23607,1,0,0:0:0:0:
192,192,23716,1,0,0:0:0:0:
64,192,23825,1,0,0:0:0:0:
320,192,23825,1,0,0:0:0:0:
448,192,23825,1,0,0:0:0:0:
320,192,24042,1,0,0:0:0:0:
192,192,24151,1,0,0:0:0:0:
448,192,24260,1,0,0:0:0:0:
64,192,24260,1,0,0:0:0:0:
320,192,24260,1,0,0:0:0:0:
192,192,24260,1,0,0:0:0:0:
320,192,24477,1,0,0:0:0:0:
448,192,24694,1,0,0:0:0:0:
320,192,24694,1,0,0:0:0:0:
192,192,24694,1,0,0:0:0:0:
192,192,24912,1,0,0:0:0:0:
64,192,25129,1,0,0:0:0:0:
192,192,25129,1,0,0:0:0:0:
320,192,25129,1,0,0:0:0:0:
448,192,25129,1,0,0:0:0:0:
320,192,25347,1,0,0:0:0:0:
320,192,25564,1,0,0:0:0:0:
448,192,25564,1,0,0:0:0:0:
64,192,25564,1,0,0:0:0:0:
64,192,25781,1,0,0:0:0:0:
192,192,25890,1,0,0:0:0:0:
64,192,25999,1,0,0:0:0:0:
320,192,25999,1,0,0:0:0:0:
448,192,25999,1,0,0:0:0:0:
192,192,25999,1,0,0:0:0:0:
320,192,26216,1,0,0:0:0:0:
64,192,26433,1,0,0:0:0:0:
192,192,26433,1,0,0:0:0:0:
320,192,26433,1,0,0:0:0:0:
64,192,26868,1,0,0:0:0:0:
192,192,26868,1,0,0:0:0:0:
320,192,26868,1,0,0:0:0:0:
448,192,26868,1,0,0:0:0:0:
448,192,27303,1,0,0:0:0:0:
192,192,27303,1,0,0:0:0:0:
64,192,27303,1,0,0:0:0:0:
320,192,27520,1,0,0:0:0:0:
64,192,27629,1,0,0:0:0:0:
448,192,27738,1,0,0:0:0:0:
192,192,27738,1,0,0:0:0:0:
64,192,27738,1,0,0:0:0:0:
320,192,27738,1,0,0:0:0:0:
192,192,27955,1,0,0:0:0:0:
64,192,28173,1,0,0:0:0:0:
192,192,28173,1,0,0:0:0:0:
320,192,28173,1,0,0:0:0:0:
64,192,28390,1,0,0:0:0:0:
448,192,28607,1,0,0:0:0:0:
320,192,28607,1,0,0:0:0:0:
192,192,28607,1,0,0:0:0:0:
64,192,28607,1,0,0:0:0:0:
448,192,28825,1,0,0:0:0:0:
64,192,29042,1,0,0:0:0:0:
192,192,29042,1,0,0:0:0:0:
448,192,29042,1,0,0:0:0:0:
320,192,29260,1,0,0:0:0:0:
192,192,29368,1,0,0:0:0:0:
64,192,29477,1,0,0:0:0:0:
192,192,29477,1,0,0:0:0:0:
320,192,29477,1,0,0:0:0:0:
448,192,29477,1,0,0:0:0:0:
320,192,29694,1,0,0:0:0:0:
192,192,29803,1,0,0:0:0:0:
448,192,29912,1,0,0:0:0:0:
320,192,29912,1,0,0:0:0:0:
64,192,29912,1,0,0:0:0:0:
192,192,30129,1,0,0:0:0:0:
320,192,30347,1,0,0:0:0:0:
448,192,30347,1,0,0:0:0:0:
192,192,30347,1,0,0:0:0:0:
64,192,30347,1,0,0:0:0:0:
64,192,30455,1,0,0:0:0:0:
192,192,30564,1,0,0:0:0:0:
320,192,30673,1,0,0:0:0:0:
448,192,30781,1,0,0:0:0:0:
192,192,30781,1,0,0:0:0:0:
64,192,30781,1,0,0:0:0:0:
320,192,30999,1,0,0:0:0:0:
192,192,31107,1,0,0:0:0:0:
64,192,31216,1,0,0:0:0:0:
192,192,31216,1,0,0:0:0:0:
320,192,31216,1,0,0:0:0:0:
448,192,31216,1,0,0:0:0:0:
64,192,31433,1,0,0:0:0:0:
64,192,31651,1,0,0:0:0:0:
448,192,31651,1,0,0:0:0:0:
320,192,31651,1,0,0:0:0:0:
320,192,31868,1,0,0:0:0:0:
64,192,32086,1,0,0:0:0:0:
192,192,32086,1,0,0:0:0:0:
320,192,32086,1,0,0:0:0:0:
448,192,32086,1,0,0:0:0:0:
192,192,32303,5,0,0:0:0:0:
64,192,32520,1,0,0:0:0:0:
192,192,32520,1,0,0:0:0:0:
320,192,32520,1,0,0:0:0:0:
448,192,32738,1,0,0:0:0:0:
320,192,32847,1,0,0:0:0:0:
192,192,32955,1,0,0:0:0:0:
64,192,32955,1,0,0:0:0:0:
320,192,32955,1,0,0:0:0:0:
448,192,32955,1,0,0:0:0:0:
64,192,33064,1,0,0:0:0:0:
192,192,33173,1,0,0:0:0:0:
320,192,33281,1,0,0:0:0:0:
448,192,33390,5,0,0:0:0:0:
192,192,33390,1,0,0:0:0:0:
64,192,33390,1,0,0:0:0:0:
320,192,33607,1,0,0:0:0:0:
64,192,33825,1,0,0:0:0:0:
192,192,33825,1,0,0:0:0:0:
448,192,33825,1,0,0:0:0:0:
320,192,33825,1,0,0:0:0:0:
64,192,34042,1,0,0:0:0:0:
192,192,34097,1,0,0:0:0:0:
320,192,34151,1,0,0:0:0:0:
448,192,34205,1,0,0:0:0:0:
64,192,34260,1,0,0:0:0:0:
320,192,34260,1,0,0:0:0:0:
192,192,34260,1,0,0:0:0:0:
192,192,34477,1,0,0:0:0:0:
320,192,34477,1,0,0:0:0:0:
64,192,34694,1,0,0:0:0:0:
192,192,34694,1,0,0:0:0:0:
320,192,34694,1,0,0:0:0:0:
448,192,34694,1,0,0:0:0:0:
64,192,34912,1,0,0:0:0:0:
448,192,34912,1,0,0:0:0:0:
192,192,35129,1,0,0:0:0:0:
320,192,35129,1,0,0:0:0:0:
448,192,35129,1,0,0:0:0:0:
320,192,35347,1,0,0:0:0:0:
64,192,35347,1,0,0:0:0:0:
64,192,35564,1,0,0:0:0:0:
192,192,35564,1,0,0:0:0:0:
320,192,35564,1,0,0:0:0:0:
448,192,35564,1,0,0:0:0:0:
192,192,35781,1,0,0:0:0:0:
448,192,35781,1,0,0:0:0:0:
192,192,35999,1,0,0:0:0:0:
64,192,35999,1,0,0:0:0:0:
320,192,35999,1,0,0:0:0:0:
192,192,36216,1,0,0:0:0:0:
320,192,36216,1,0,0:0:0:0:
320,192,36433,1,0,0:0:0:0:
192,192,36433,1,0,0:0:0:0:
64,192,36433,1,0,0:0:0:0:
448,192,36433,1,0,0:0:0:0:
64,192,36651,1,0,0:0:0:0:
448,192,36651,1,0,0:0:0:0:
320,192,36868,1,0,0:0:0:0:
192,192,36868,1,0,0:0:0:0:
64,192,36868,1,0,0:0:0:0:
448,192,37086,1,0,0:0:0:0:
192,192,37086,1,0,0:0:0:0:
64,192,37303,1,0,0:0:0:0:
192,192,37303,1,0,0:0:0:0:
320,192,37303,1,0,0:0:0:0:
448,192,37303,1,0,0:0:0:0:
64,192,37520,1,0,0:0:0:0:
192,192,37520,1,0,0:0:0:0:
64,192,37738,1,0,0:0:0:0:
448,192,37738,1,0,0:0:0:0:
320,192,37738,1,0,0:0:0:0:
320,192,37955,1,0,0:0:0:0:
192,192,37955,1,0,0:0:0:0:
448,192,38173,1,0,0:0:0:0:
320,192,38173,1,0,0:0:0:0:
192,192,38173,1,0,0:0:0:0:
64,192,38173,1,0,0:0:0:0:
448,192,38390,1,0,0:0:0:0:
64,192,38390,1,0,0:0:0:0:
192,192,38607,1,0,0:0:0:0:
320,192,38607,1,0,0:0:0:0:
448,192,38607,1,0,0:0:0:0:
320,192,38825,1,0,0:0:0:0:
64,192,38825,1,0,0:0:0:0:
64,192,39042,1,0,0:0:0:0:
192,192,39042,1,0,0:0:0:0:
320,192,39042,1,0,0:0:0:0:
448,192,39042,1,0,0:0:0:0:
192,192,39260,1,0,0:0:0:0:
448,192,39260,1,0,0:0:0:0:
64,192,39477,1,0,0:0:0:0:
192,192,39477,1,0,0:0:0:0:
320,192,39477,1,0,0:0:0:0:
320,192,39694,1,0,0:0:0:0:
448,192,39694,1,0,0:0:0:0:
448,192,39912,1,0,0:0:0:0:
320,192,39912,1,0,0:0:0:0:
192,192,39912,1,0,0:0:0:0:
64,192,39912,1,0,0:0:0:0:
64,192,40129,1,0,0:0:0:0:
192,192,40129,1,0,0:0:0:0:
192,192,40347,1,0,0:0:0:0:
64,192,40347,1,0,0:0:0:0:
448,192,40347,1,0,0:0:0:0:
320,192,40564,1,0,0:0:0:0:
192,192,40564,1,0,0:0:0:0:
448,192,40781,1,0,0:0:0:0:
320,192,40781,1,0,0:0:0:0:
192,192,40781,1,0,0:0:0:0:
64,192,40781,1,0,0:0:0:0:
448,192,40999,1,0,0:0:0:0:
192,192,40999,1,0,0:0:0:0:
64,192,41216,1,0,0:0:0:0:
192,192,41216,1,0,0:0:0:0:
448,192,41216,1,0,0:0:0:0:
320,192,41433,1,0,0:0:0:0:
192,192,41433,1,0,0:0:0:0:
64,192,41651,1,0,0:0:0:0:
192,192,41651,1,0,0:0:0:0:
320,192,41651,1,0,0:0:0:0:
448,192,41651,1,0,0:0:0:0:
64,192,41868,1,0,0:0:0:0:
320,192,41868,1,0,0:0:0:0:
192,192,42086,1,0,0:0:0:0:
320,192,42086,1,0,0:0:0:0:
448,192,42086,1,0,0:0:0:0:
64,192,42303,1,0,0:0:0:0:
192,192,42303,1,0,0:0:0:0:
64,192,42520,1,0,0:0:0:0:
192,192,42520,1,0,0:0:0:0:
320,192,42520,1,0,0:0:0:0:
448,192,42520,1,0,0:0:0:0:
448,192,42738,1,0,0:0:0:0:
192,192,42738,1,0,0:0:0:0:
64,192,42955,1,0,0:0:0:0:
192,192,42955,1,0,0:0:0:0:
448,192,42955,1,0,0:0:0:0:
192,192,43173,1,0,0:0:0:0:
320,192,43173,1,0,0:0:0:0:
64,192,43390,1,0,0:0:0:0:
192,192,43390,1,0,0:0:0:0:
320,192,43390,1,0,0:0:0:0:
448,192,43390,1,0,0:0:0:0:
448,192,43607,1,0,0:0:0:0:
64,192,43607,1,0,0:0:0:0:
192,192,43825,1,0,0:0:0:0:
320,192,43825,1,0,0:0:0:0:
448,192,43825,1,0,0:0:0:0:
192,192,44042,1,0,0:0:0:0:
64,192,44042,1,0,0:0:0:0:
192,192,44260,1,0,0:0:0:0:
64,192,44260,1,0,0:0:0:0:
448,192,44260,1,0,0:0:0:0:
320,192,44260,1,0,0:0:0:0:
320,192,44477,1,0,0:0:0:0:
64,192,44477,1,0,0:0:0:0:
192,192,44694,1,0,0:0:0:0:
448,192,44694,1,0,0:0:0:0:
64,192,44694,1,0,0:0:0:0:
320,192,44912,1,0,0:0:0:0:
192,192,44912,1,0,0:0:0:0:
448,192,45129,1,0,0:0:0:0:
320,192,45129,1,0,0:0:0:0:
64,192,45129,1,0,0:0:0:0:
192,192,45129,1,0,0:0:0:0:
448,192,45347,1,0,0:0:0:0:
192,192,45347,1,0,0:0:0:0:
64,192,45564,1,0,0:0:0:0:
448,192,45564,1,0,0:0:0:0:
320,192,45564,1,0,0:0:0:0:
64,192,45781,1,0,0:0:0:0:
320,192,45781,1,0,0:0:0:0:
64,192,45999,1,0,0:0:0:0:
192,192,45999,1,0,0:0:0:0:
448,192,45999,1,0,0:0:0:0:
320,192,45999,1,0,0:0:0:0:
192,192,46216,1,0,0:0:0:0:
320,192,46216,1,0,0:0:0:0:
448,192,46433,1,0,0:0:0:0:
320,192,46433,1,0,0:0:0:0:
64,192,46433,1,0,0:0:0:0:
64,192,46651,1,0,0:0:0:0:
192,192,46651,1,0,0:0:0:0:
64,192,46868,1,0,0:0:0:0:
192,192,46868,1,0,0:0:0:0:
320,192,46868,1,0,0:0:0:0:
448,192,46868,1,0,0:0:0:0:
448,192,47086,1,0,0:0:0:0:
320,192,47086,1,0,0:0:0:0:
64,192,47303,1,0,0:0:0:0:
192,192,47303,1,0,0:0:0:0:
448,192,47303,1,0,0:0:0:0:
320,192,47520,1,0,0:0:0:0:
192,192,47520,1,0,0:0:0:0:
192,192,47738,1,0,0:0:0:0:
320,192,47738,1,0,0:0:0:0:
448,192,48173,1,0,0:0:0:0:
64,192,48173,1,0,0:0:0:0:
192,192,48173,1,0,0:0:0:0:
320,192,48173,1,0,0:0:0:0:
320,192,48390,1,0,0:0:0:0:
192,192,48390,1,0,0:0:0:0:
448,192,48390,1,0,0:0:0:0:
64,192,48607,1,0,0:0:0:0:
192,192,48607,1,0,0:0:0:0:
320,192,48607,1,0,0:0:0:0:
448,192,48607,1,0,0:0:0:0:
64,192,48825,1,0,0:0:0:0:
192,192,48825,1,0,0:0:0:0:
448,192,48825,1,0,0:0:0:0:
320,192,49042,1,0,0:0:0:0:
192,192,49042,1,0,0:0:0:0:
64,192,49042,1,0,0:0:0:0:
448,192,49042,1,0,0:0:0:0:
448,192,49260,1,0,0:0:0:0:
64,192,49260,1,0,0:0:0:0:
320,192,49260,1,0,0:0:0:0:
64,192,49477,1,0,0:0:0:0:
192,192,49477,1,0,0:0:0:0:
320,192,49477,1,0,0:0:0:0:
448,192,49477,1,0,0:0:0:0:
320,192,49694,1,0,0:0:0:0:
192,192,49694,1,0,0:0:0:0:
64,192,49694,1,0,0:0:0:0:
192,192,49912,1,0,0:0:0:0:
64,192,49912,1,0,0:0:0:0:
320,192,49912,1,0,0:0:0:0:
448,192,49912,1,0,0:0:0:0:
448,192,50129,1,0,0:0:0:0:
64,192,50129,1,0,0:0:0:0:
192,192,50129,1,0,0:0:0:0:
64,192,50347,1,0,0:0:0:0:
192,192,50347,1,0,0:0:0:0:
320,192,50347,1,0,0:0:0:0:
448,192,50347,1,0,0:0:0:0:
448,192,50564,1,0,0:0:0:0:
320,192,50564,1,0,0:0:0:0:
192,192,50564,1,0,0:0:0:0:
64,192,50781,1,0,0:0:0:0:
192,192,50781,1,0,0:0:0:0:
320,192,50781,1,0,0:0:0:0:
448,192,50781,1,0,0:0:0:0:
64,192,50999,1,0,0:0:0:0:
320,192,50999,1,0,0:0:0:0:
448,192,50999,1,0,0:0:0:0:
192,192,51216,1,0,0:0:0:0:
64,192,51216,1,0,0:0:0:0:
320,192,51216,1,0,0:0:0:0:
448,192,51216,1,0,0:0:0:0:
448,192,51433,1,0,0:0:0:0:
192,192,51433,1,0,0:0:0:0:
64,192,51433,1,0,0:0:0:0:
64,192,51651,1,0,0:0:0:0:
192,192,51651,1,0,0:0:0:0:
320,192,51651,1,0,0:0:0:0:
448,192,51651,1,0,0:0:0:0:
448,192,51868,1,0,0:0:0:0:
320,192,51868,1,0,0:0:0:0:
192,192,51868,1,0,0:0:0:0:
64,192,52086,1,0,0:0:0:0:
192,192,52086,1,0,0:0:0:0:
320,192,52086,1,0,0:0:0:0:
448,192,52086,1,0,0:0:0:0:
64,192,52303,1,0,0:0:0:0:
192,192,52303,1,0,0:0:0:0:
320,192,52303,1,0,0:0:0:0:
320,192,52520,1,0,0:0:0:0:
192,192,52520,1,0,0:0:0:0:
64,192,52520,1,0,0:0:0:0:
448,192,52520,1,0,0:0:0:0:
448,192,52738,1,0,0:0:0:0:
320,192,52738,1,0,0:0:0:0:
64,192,52738,1,0,0:0:0:0:
64,192,52955,1,0,0:0:0:0:
192,192,52955,1,0,0:0:0:0:
320,192,52955,1,0,0:0:0:0:
448,192,52955,1,0,0:0:0:0:
192,192,53173,1,0,0:0:0:0:
64,192,53173,1,0,0:0:0:0:
448,192,53173,1,0,0:0:0:0:
448,192,53390,1,0,0:0:0:0:
320,192,53390,1,0,0:0:0:0:
192,192,53390,1,0,0:0:0:0:
64,192,53390,1,0,0:0:0:0:
320,192,53607,1,0,0:0:0:0:
192,192,53607,1,0,0:0:0:0:
448,192,53607,1,0,0:0:0:0:
64,192,53825,1,0,0:0:0:0:
192,192,53825,1,0,0:0:0:0:
320,192,53825,1,0,0:0:0:0:
448,192,53825,1,0,0:0:0:0:
192,192,54042,1,0,0:0:0:0:
64,192,54042,1,0,0:0:0:0:
448,192,54042,1,0,0:0:0:0:
448,192,54260,1,0,0:0:0:0:
320,192,54260,1,0,0:0:0:0:
192,192,54260,1,0,0:0:0:0:
64,192,54260,1,0,0:0:0:0:
192,192,54477,1,0,0:0:0:0:
64,192,54477,1,0,0:0:0:0:
448,192,54477,1,0,0:0:0:0:
448,192,54694,1,0,0:0:0:0:
320,192,54694,1,0,0:0:0:0:
64,192,54694,1,0,0:0:0:0:
192,192,54694,1,0,0:0:0:0:
448,192,55129,1,0,0:0:0:0:
320,192,55129,1,0,0:0:0:0:
192,192,55129,1,0,0:0:0:0:
64,192,55129,1,0,0:0:0:0:
448,192,55347,1,0,0:0:0:0:
192,192,55347,1,0,0:0:0:0:
64,192,55347,1,0,0:0:0:0:
64,192,55564,1,0,0:0:0:0:
192,192,55564,1,0,0:0:0:0:
320,192,55564,1,0,0:0:0:0:
448,192,55564,1,0,0:0:0:0:
192,192,55781,1,0,0:0:0:0:
320,192,55781,1,0,0:0:0:0:
448,192,55781,1,0,0:0:0:0:
64,192,55999,1,0,0:0:0:0:
320,192,55999,1,0,0:0:0:0:
192,192,55999,1,0,0:0:0:0:
448,192,55999,1,0,0:0:0:0:
64,192,56216,1,0,0:0:0:0:
320,192,56216,1,0,0:0:0:0:
448,192,56216,1,0,0:0:0:0:
448,192,56433,1,0,0:0:0:0:
320,192,56433,1,0,0:0:0:0:
192,192,56433,1,0,0:0:0:0:
64,192,56433,1,0,0:0:0:0:
64,192,56651,1,0,0:0:0:0:
448,192,56651,1,0,0:0:0:0:
192,192,56651,1,0,0:0:0:0:
64,192,56868,1,0,0:0:0:0:
192,192,56868,1,0,0:0:0:0:
320,192,56868,1,0,0:0:0:0:
448,192,56868,1,0,0:0:0:0:
320,192,57086,1,0,0:0:0:0:
64,192,57086,1,0,0:0:0:0:
192,192,57086,1,0,0:0:0:0:
64,192,57303,1,0,0:0:0:0:
192,192,57303,1,0,0:0:0:0:
320,192,57303,1,0,0:0:0:0:
448,192,57303,1,0,0:0:0:0:
192,192,57520,1,0,0:0:0:0:
448,192,57520,1,0,0:0:0:0:
320,192,57520,1,0,0:0:0:0:
64,192,57738,1,0,0:0:0:0:
320,192,57738,1,0,0:0:0:0:
448,192,57738,1,0,0:0:0:0:
192,192,57738,1,0,0:0:0:0:
64,192,57955,1,0,0:0:0:0:
320,192,57955,1,0,0:0:0:0:
448,192,57955,1,0,0:0:0:0:
64,192,58173,1,0,0:0:0:0:
320,192,58173,1,0,0:0:0:0:
448,192,58173,1,0,0:0:0:0:
192,192,58173,1,0,0:0:0:0:
192,192,58390,1,0,0:0:0:0:
448,192,58390,1,0,0:0:0:0:
320,192,58390,1,0,0:0:0:0:
64,192,58607,1,0,0:0:0:0:
192,192,58607,1,0,0:0:0:0:
320,192,58607,1,0,0:0:0:0:
448,192,58607,1,0,0:0:0:0:
192,192,58825,1,0,0:0:0:0:
64,192,58825,1,0,0:0:0:0:
448,192,58825,1,0,0:0:0:0:
448,192,59042,1,0,0:0:0:0:
320,192,59042,1,0,0:0:0:0:
64,192,59042,1,0,0:0:0:0:
192,192,59042,1,0,0:0:0:0:
64,192,59260,1,0,0:0:0:0:
192,192,59260,1,0,0:0:0:0:
448,192,59260,1,0,0:0:0:0:
448,192,59477,1,0,0:0:0:0:
320,192,59477,1,0,0:0:0:0:
64,192,59477,1,0,0:0:0:0:
192,192,59477,1,0,0:0:0:0:
64,192,59694,1,0,0:0:0:0:
320,192,59694,1,0,0:0:0:0:
192,192,59694,1,0,0:0:0:0:
448,192,59912,1,0,0:0:0:0:
320,192,59912,1,0,0:0:0:0:
192,192,59912,1,0,0:0:0:0:
64,192,59912,1,0,0:0:0:0:
192,192,60129,1,0,0:0:0:0:
64,192,60129,1,0,0:0:0:0:
448,192,60129,1,0,0:0:0:0:
448,192,60347,1,0,0:0:0:0:
320,192,60347,1,0,0:0:0:0:
192,192,60347,1,0,0:0:0:0:
64,192,60347,1,0,0:0:0:0:
192,192,60564,1,0,0:0:0:0:
320,192,60564,1,0,0:0:0:0:
448,192,60564,1,0,0:0:0:0:
448,192,60781,1,0,0:0:0:0:
320,192,60781,1,0,0:0:0:0:
192,192,60781,1,0,0:0:0:0:
64,192,60781,1,0,0:0:0:0:
64,192,60999,1,0,0:0:0:0:
192,192,60999,1,0,0:0:0:0:
320,192,60999,1,0,0:0:0:0:
448,192,61216,1,0,0:0:0:0:
64,192,61216,1,0,0:0:0:0:
192,192,61216,1,0,0:0:0:0:
320,192,61216,1,0,0:0:0:0:
320,192,61651,1,0,0:0:0:0:
64,192,61651,1,0,0:0:0:0:
448,192,61651,1,0,0:0:0:0:
64,192,62086,1,0,0:0:0:0:
192,192,62086,1,0,0:0:0:0:
320,192,62086,1,0,0:0:0:0:
448,192,62303,1,0,0:0:0:0:
192,192,62412,1,0,0:0:0:0:
64,192,62520,1,0,0:0:0:0:
448,192,62520,1,0,0:0:0:0:
320,192,62520,1,0,0:0:0:0:
192,192,62520,1,0,0:0:0:0:
64,192,62738,1,0,0:0:0:0:
448,192,62955,1,0,0:0:0:0:
192,192,62955,1,0,0:0:0:0:
320,192,62955,1,0,0:0:0:0:
192,192,63173,1,0,0:0:0:0:
192,192,63390,1,0,0:0:0:0:
64,192,63390,1,0,0:0:0:0:
448,192,63390,1,0,0:0:0:0:
320,192,63390,1,0,0:0:0:0:
448,192,63607,1,0,0:0:0:0:
64,192,63825,1,0,0:0:0:0:
192,192,63825,1,0,0:0:0:0:
320,192,63825,1,0,0:0:0:0:
448,192,64042,1,0,0:0:0:0:
320,192,64151,1,0,0:0:0:0:
192,192,64260,1,0,0:0:0:0:
64,192,64260,1,0,0:0:0:0:
448,192,64260,1,0,0:0:0:0:
320,192,64260,1,0,0:0:0:0:
320,192,64477,1,0,0:0:0:0:
192,192,64586,1,0,0:0:0:0:
320,192,64694,1,0,0:0:0:0:
64,192,64694,1,0,0:0:0:0:
448,192,64694,1,0,0:0:0:0:
320,192,64912,1,0,0:0:0:0:
192,192,65129,1,0,0:0:0:0:
448,192,65129,1,0,0:0:0:0:
320,192,65129,1,0,0:0:0:0:
64,192,65129,1,0,0:0:0:0:
64,192,65238,1,0,0:0:0:0:
192,192,65347,1,0,0:0:0:0:
320,192,65455,1,0,0:0:0:0:
448,192,65564,1,0,0:0:0:0:
192,192,65564,1,0,0:0:0:0:
64,192,65564,1,0,0:0:0:0:
192,192,65781,1,0,0:0:0:0:
320,192,65890,1,0,0:0:0:0:
64,192,65999,1,0,0:0:0:0:
448,192,65999,1,0,0:0:0:0:
192,192,65999,1,0,0:0:0:0:
320,192,65999,1,0,0:0:0:0:
192,192,66216,1,0,0:0:0:0:
64,192,66433,1,0,0:0:0:0:
192,192,66433,1,0,0:0:0:0:
320,192,66433,1,0,0:0:0:0:
320,192,66651,1,0,0:0:0:0:
448,192,66868,1,0,0:0:0:0:
320,192,66868,1,0,0:0:0:0:
192,192,66868,1,0,0:0:0:0:
64,192,66868,1,0,0:0:0:0:
192,192,67086,1,0,0:0:0:0:
192,192,67303,1,0,0:0:0:0:
64,192,67303,1,0,0:0:0:0:
448,192,67303,1,0,0:0:0:0:
448,192,67520,1,0,0:0:0:0:
320,192,67629,1,0,0:0:0:0:
448,192,67738,1,0,0:0:0:0:
192,192,67738,1,0,0:0:0:0:
64,192,67738,1,0,0:0:0:0:
320,192,67738,1,0,0:0:0:0:
192,192,67955,1,0,0:0:0:0:
448,192,68173,1,0,0:0:0:0:
320,192,68173,1,0,0:0:0:0:
192,192,68173,1,0,0:0:0:0:
448,192,68607,1,0,0:0:0:0:
320,192,68607,1,0,0:0:0:0:
192,192,68607,1,0,0:0:0:0:
64,192,68607,1,0,0:0:0:0:
64,192,69042,1,0,0:0:0:0:
320,192,69042,1,0,0:0:0:0:
448,192,69042,1,0,0:0:0:0:
192,192,69260,1,0,0:0:0:0:
448,192,69368,1,0,0:0:0:0:
64,192,69477,1,0,0:0:0:0:
320,192,69477,1,0,0:0:0:0:
448,192,69477,1,0,0:0:0:0:
192,192,69477,1,0,0:0:0:0:
320,192,69694,1,0,0:0:0:0:
448,192,69912,1,0,0:0:0:0:
320,192,69912,1,0,0:0:0:0:
192,192,69912,1,0,0:0:0:0:
448,192,70129,1,0,0:0:0:0:
64,192,70347,1,0,0:0:0:0:
192,192,70347,1,0,0:0:0:0:
320,192,70347,1,0,0:0:0:0:
448,192,70347,1,0,0:0:0:0:
64,192,70564,1,0,0:0:0:0:
448,192,70781,1,0,0:0:0:0:
320,192,70781,1,0,0:0:0:0:
64,192,70781,1,0,0:0:0:0:
192,192,70999,1,0,0:0:0:0:
320,192,71107,1,0,0:0:0:0:
448,192,71216,1,0,0:0:0:0:
320,192,71216,1,0,0:0:0:0:
192,192,71216,1,0,0:0:0:0:
64,192,71216,1,0,0:0:0:0:
192,192,71433,1,0,0:0:0:0:
320,192,71542,1,0,0:0:0:0:
64,192,71651,1,0,0:0:0:0:
192,192,71651,1,0,0:0:0:0:
448,192,71651,1,0,0:0:0:0:
320,192,71868,1,0,0:0:0:0:
192,192,72086,1,0,0:0:0:0:
64,192,72086,1,0,0:0:0:0:
320,192,72086,1,0,0:0:0:0:
448,192,72086,1,0,0:0:0:0:
448,192,72194,1,0,0:0:0:0:
320,192,72303,1,0,0:0:0:0:
192,192,72412,1,0,0:0:0:0:
64,192,72520,1,0,0:0:0:0:
320,192,72520,1,0,0:0:0:0:
448,192,72520,1,0,0:0:0:0:
192,192,72738,1,0,0:0:0:0:
320,192,72847,1,0,0:0:0:0:
448,192,72955,1,0,0:0:0:0:
320,192,72955,1,0,0:0:0:0:
192,192,72955,1,0,0:0:0:0:
64,192,72955,1,0,0:0:0:0:
448,192,73173,1,0,0:0:0:0:
448,192,73390,1,0,0:0:0:0:
64,192,73390,1,0,0:0:0:0:
192,192,73390,1,0,0:0:0:0:
192,192,73607,1,0,0:0:0:0:
448,192,73825,5,0,0:0:0:0:
320,192,73825,1,0,0:0:0:0:
192,192,73825,1,0,0:0:0:0:
64,192,73825,1,0,0:0:0:0:
320,192,74042,1,0,0:0:0:0:
448,192,74260,1,0,0:0:0:0:
320,192,74260,1,0,0:0:0:0:
192,192,74260,1,0,0:0:0:0:
64,192,74477,1,0,0:0:0:0:
192,192,74586,1,0,0:0:0:0:
320,192,74694,1,0,0:0:0:0:
448,192,74694,1,0,0:0:0:0:
192,192,74694,1,0,0:0:0:0:
64,192,74694,1,0,0:0:0:0:
448,192,74803,1,0,0:0:0:0:
320,192,74912,1,0,0:0:0:0:
192,192,75020,5,0,0:0:0:0:
64,192,75129,1,0,0:0:0:0:
320,192,75129,1,0,0:0:0:0:
448,192,75129,1,0,0:0:0:0:
192,192,75347,1,0,0:0:0:0:
448,192,75564,1,0,0:0:0:0:
320,192,75564,1,0,0:0:0:0:
64,192,75564,1,0,0:0:0:0:
192,192,75564,1,0,0:0:0:0:
448,192,75781,1,0,0:0:0:0:
320,192,75836,1,0,0:0:0:0:
192,192,75890,1,0,0:0:0:0:
64,192,75944,1,0,0:0:0:0:
448,192,75999,1,0,0:0:0:0:
192,192,75999,1,0,0:0:0:0:
320,192,75999,1,0,0:0:0:0:
320,192,76216,1,0,0:0:0:0:
192,192,76216,1,0,0:0:0:0:
448,192,76433,1,0,0:0:0:0:
320,192,76433,1,0,0:0:0:0:
192,192,76433,1,0,0:0:0:0:
64,192,76433,1,0,0:0:0:0:
448,192,76651,1,0,0:0:0:0:
64,192,76651,1,0,0:0:0:0:
320,192,76868,1,0,0:0:0:0:
192,192,76868,1,0,0:0:0:0:
64,192,76868,1,0,0:0:0:0:
192,192,77086,1,0,0:0:0:0:
448,192,77086,1,0,0:0:0:0:
448,192,77303,1,0,0:0:0:0:
320,192,77303,1,0,0:0:0:0:
192,192,77303,1,0,0:0:0:0:
64,192,77303,1,0,0:0:0:0:
320,192,77520,1,0,0:0:0:0:
64,192,77520,1,0,0:0:0:0:
320,192,77738,1,0,0:0:0:0:
448,192,77738,1,0,0:0:0:0:
192,192,77738,1,0,0:0:0:0:
320,192,77955,1,0,0:0:0:0:
192,192,77955,1,0,0:0:0:0:
192,192,78173,1,0,0:0:0:0:
320,192,78173,1,0,0:0:0:0:
448,192,78173,1,0,0:0:0:0:
64,192,78173,1,0,0:0:0:0:
448,192,78390,1,0,0:0:0:0:
64,192,78390,1,0,0:0:0:0:
192,192,78607,1,0,0:0:0:0:
320,192,78607,1,0,0:0:0:0:
448,192,78607,1,0,0:0:0:0:
64,192,78825,1,0,0:0:0:0:
320,192,78825,1,0,0:0:0:0:
448,192,79042,1,0,0:0:0:0:
320,192,79042,1,0,0:0:0:0:
192,192,79042,1,0,0:0:0:0:
64,192,79042,1,0,0:0:0:0:
448,192,79260,1,0,0:0:0:0:
320,192,79260,1,0,0:0:0:0:
448,192,79477,1,0,0:0:0:0:
64,192,79477,1,0,0:0:0:0:
192,192,79477,1,0,0:0:0:0:
192,192,79694,1,0,0:0:0:0:
320,192,79694,1,0,0:0:0:0:
64,192,79912,1,0,0:0:0:0:
192,192,79912,1,0,0:0:0:0:
320,192,79912,1,0,0:0:0:0:
448,192,79912,1,0,0:0:0:0:
64,192,80129,1,0,0:0:0:0:
448,192,80129,1,0,0:0:0:0:
320,192,80347,1,0,0:0:0:0:
192,192,80347,1,0,0:0:0:0:
64,192,80347,1,0,0:0:0:0:
192,192,80564,1,0,0:0:0:0:
448,192,80564,1,0,0:0:0:0:
448,192,80781,1,0,0:0:0:0:
320,192,80781,1,0,0:0:0:0:
192,192,80781,1,0,0:0:0:0:
64,192,80781,1,0,0:0:0:0:
320,192,80999,1,0,0:0:0:0:
64,192,80999,1,0,0:0:0:0:
448,192,81216,1,0,0:0:0:0:
320,192,81216,1,0,0:0:0:0:
192,192,81216,1,0,0:0:0:0:
192,192,81433,1,0,0:0:0:0:
64,192,81433,1,0,0:0:0:0:
64,192,81651,1,0,0:0:0:0:
192,192,81651,1,0,0:0:0:0:
320,192,81651,1,0,0:0:0:0:
448,192,81651,1,0,0:0:0:0:
448,192,81868,1,0,0:0:0:0:
320,192,81868,1,0,0:0:0:0:
320,192,82086,1,0,0:0:0:0:
448,192,82086,1,0,0:0:0:0:
64,192,82086,1,0,0:0:0:0:
192,192,82303,1,0,0:0:0:0:
320,192,82303,1,0,0:0:0:0:
64,192,82520,1,0,0:0:0:0:
192,192,82520,1,0,0:0:0:0:
320,192,82520,1,0,0:0:0:0:
448,192,82520,1,0,0:0:0:0:
64,192,82738,1,0,0:0:0:0:
320,192,82738,1,0,0:0:0:0:
448,192,82955,1,0,0:0:0:0:
320,192,82955,1,0,0:0:0:0:
64,192,82955,1,0,0:0:0:0:
192,192,83173,1,0,0:0:0:0:
320,192,83173,1,0,0:0:0:0:
448,192,83390,1,0,0:0:0:0:
320,192,83390,1,0,0:0:0:0:
192,192,83390,1,0,0:0:0:0:
64,192,83390,1,0,0:0:0:0:
448,192,83607,1,0,0:0:0:0:
192,192,83607,1,0,0:0:0:0:
320,192,83825,1,0,0:0:0:0:
192,192,83825,1,0,0:0:0:0:
64,192,83825,1,0,0:0:0:0:
448,192,84042,1,0,0:0:0:0:
320,192,84042,1,0,0:0:0:0:
448,192,84260,1,0,0:0:0:0:
320,192,84260,1,0,0:0:0:0:
192,192,84260,1,0,0:0:0:0:
64,192,84260,1,0,0:0:0:0:
64,192,84477,1,0,0:0:0:0:
320,192,84477,1,0,0:0:0:0:
448,192,84694,1,0,0:0:0:0:
320,192,84694,1,0,0:0:0:0:
64,192,84694,1,0,0:0:0:0:
320,192,84912,1,0,0:0:0:0:
192,192,84912,1,0,0:0:0:0:
448,192,85129,1,0,0:0:0:0:
320,192,85129,1,0,0:0:0:0:
192,192,85129,1,0,0:0:0:0:
64,192,85129,1,0,0:0:0:0:
64,192,85347,1,0,0:0:0:0:
448,192,85347,1,0,0:0:0:0:
320,192,85564,1,0,0:0:0:0:
192,192,85564,1,0,0:0:0:0:
64,192,85564,1,0,0:0:0:0:
320,192,85781,1,0,0:0:0:0:
448,192,85781,1,0,0:0:0:0:
320,192,85999,1,0,0:0:0:0:
448,192,85999,1,0,0:0:0:0:
64,192,85999,1,0,0:0:0:0:
192,192,85999,1,0,0:0:0:0:
192,192,86216,1,0,0:0:0:0:
448,192,86216,1,0,0:0:0:0:
320,192,86433,1,0,0:0:0:0:
64,192,86433,1,0,0:0:0:0:
448,192,86433,1,0,0:0:0:0:
192,192,86651,1,0,0:0:0:0:
320,192,86651,1,0,0:0:0:0:
64,192,86868,1,0,0:0:0:0:
192,192,86868,1,0,0:0:0:0:
448,192,86868,1,0,0:0:0:0:
320,192,86868,1,0,0:0:0:0:
64,192,87086,1,0,0:0:0:0:
320,192,87086,1,0,0:0:0:0:
448,192,87303,1,0,0:0:0:0:
64,192,87303,1,0,0:0:0:0:
192,192,87303,1,0,0:0:0:0:
448,192,87520,1,0,0:0:0:0:
192,192,87520,1,0,0:0:0:0:
448,192,87738,1,0,0:0:0:0:
320,192,87738,1,0,0:0:0:0:
64,192,87738,1,0,0:0:0:0:
192,192,87738,1,0,0:0:0:0:
320,192,87955,1,0,0:0:0:0:
192,192,87955,1,0,0:0:0:0:
64,192,88173,1,0,0:0:0:0:
192,192,88173,1,0,0:0:0:0:
448,192,88173,1,0,0:0:0:0:
448,192,88390,1,0,0:0:0:0:
320,192,88390,1,0,0:0:0:0:
448,192,88607,1,0,0:0:0:0:
320,192,88607,1,0,0:0:0:0:
192,192,88607,1,0,0:0:0:0:
64,192,88607,1,0,0:0:0:0:
64,192,88825,1,0,0:0:0:0:
192,192,88825,1,0,0:0:0:0:
448,192,89042,1,0,0:0:0:0:
320,192,89042,1,0,0:0:0:0:
64,192,89042,1,0,0:0:0:0:
192,192,89260,1,0,0:0:0:0:
320,192,89260,1,0,0:0:0:0:
320,192,89477,1,0,0:0:0:0:
192,192,89477,1,0,0:0:0:0:
64,192,89912,1,0,0:0:0:0:
448,192,89912,1,0,0:0:0:0:
320,192,89912,1,0,0:0:0:0:
192,192,89912,1,0,0:0:0:0:
192,192,90129,1,0,0:0:0:0:
320,192,90129,1,0,0:0:0:0:
64,192,90129,1,0,0:0:0:0:
448,192,90347,1,0,0:0:0:0:
320,192,90347,1,0,0:0:0:0:
192,192,90347,1,0,0:0:0:0:
64,192,90347,1,0,0:0:0:0:
448,192,90564,1,0,0:0:0:0:
320,192,90564,1,0,0:0:0:0:
64,192,90564,1,0,0:0:0:0:
192,192,90781,1,0,0:0:0:0:
320,192,90781,1,0,0:0:0:0:
448,192,90781,1,0,0:0:0:0:
64,192,90781,1,0,0:0:0:0:
64,192,90999,1,0,0:0:0:0:
448,192,90999,1,0,0:0:0:0:
192,192,90999,1,0,0:0:0:0:
448,192,91216,1,0,0:0:0:0:
320,192,91216,1,0,0:0:0:0:
192,192,91216,1,0,0:0:0:0:
64,192,91216,1,0,0:0:0:0:
192,192,91433,1,0,0:0:0:0:
320,192,91433,1,0,0:0:0:0:
448,192,91433,1,0,0:0:0:0:
320,192,91651,1,0,0:0:0:0:
448,192,91651,1,0,0:0:0:0:
192,192,91651,1,0,0:0:0:0:
64,192,91651,1,0,0:0:0:0:
64,192,91868,1,0,0:0:0:0:
448,192,91868,1,0,0:0:0:0:
320,192,91868,1,0,0:0:0:0:
448,192,92086,1,0,0:0:0:0:
320,192,92086,1,0,0:0:0:0:
192,192,92086,1,0,0:0:0:0:
64,192,92086,1,0,0:0:0:0:
64,192,92303,1,0,0:0:0:0:
192,192,92303,1,0,0:0:0:0:
320,192,92303,1,0,0:0:0:0:
448,192,92520,1,0,0:0:0:0:
320,192,92520,1,0,0:0:0:0:
192,192,92520,1,0,0:0:0:0:
64,192,92520,1,0,0:0:0:0:
448,192,92738,1,0,0:0:0:0:
192,192,92738,1,0,0:0:0:0:
64,192,92738,1,0,0:0:0:0:
320,192,92955,1,0,0:0:0:0:
448,192,92955,1,0,0:0:0:0:
192,192,92955,1,0,0:0:0:0:
64,192,92955,1,0,0:0:0:0:
64,192,93173,1,0,0:0:0:0:
320,192,93173,1,0,0:0:0:0:
448,192,93173,1,0,0:0:0:0:
448,192,93390,1,0,0:0:0:0:
320,192,93390,1,0,0:0:0:0:
192,192,93390,1,0,0:0:0:0:
64,192,93390,1,0,0:0:0:0:
192,192,93607,1,0,0:0:0:0:
64,192,93607,1,0,0:0:0:0:
320,192,93607,1,0,0:0:0:0:
448,192,93825,1,0,0:0:0:0:
320,192,93825,1,0,0:0:0:0:
192,192,93825,1,0,0:0:0:0:
64,192,93825,1,0,0:0:0:0:
448,192,94042,1,0,0:0:0:0:
320,192,94042,1,0,0:0:0:0:
192,192,94042,1,0,0:0:0:0:
192,192,94260,1,0,0:0:0:0:
320,192,94260,1,0,0:0:0:0:
448,192,94260,1,0,0:0:0:0:
64,192,94260,1,0,0:0:0:0:
448,192,94477,1,0,0:0:0:0:
64,192,94477,1,0,0:0:0:0:
192,192,94477,1,0,0:0:0:0:
448,192,94694,1,0,0:0:0:0:
320,192,94694,1,0,0:0:0:0:
192,192,94694,1,0,0:0:0:0:
64,192,94694,1,0,0:0:0:0:
320,192,94912,1,0,0:0:0:0:
448,192,94912,1,0,0:0:0:0:
64,192,94912,1,0,0:0:0:0:
64,192,95129,1,0,0:0:0:0:
192,192,95129,1,0,0:0:0:0:
320,192,95129,1,0,0:0:0:0:
448,192,95129,1,0,0:0:0:0:
192,192,95347,1,0,0:0:0:0:
320,192,95347,1,0,0:0:0:0:
64,192,95347,1,0,0:0:0:0:
448,192,95564,1,0,0:0:0:0:
320,192,95564,1,0,0:0:0:0:
192,192,95564,1,0,0:0:0:0:
64,192,95564,1,0,0:0:0:0:
320,192,95781,1,0,0:0:0:0:
448,192,95781,1,0,0:0:0:0:
64,192,95781,1,0,0:0:0:0:
64,192,95999,1,0,0:0:0:0:
192,192,95999,1,0,0:0:0:0:
320,192,95999,1,0,0:0:0:0:
448,192,95999,1,0,0:0:0:0:
320,192,96216,1,0,0:0:0:0:
448,192,96216,1,0,0:0:0:0:
64,192,96216,1,0,0:0:0:0:
64,192,96433,1,0,0:0:0:0:
192,192,96433,1,0,0:0:0:0:
448,192,96433,1,0,0:0:0:0:
320,192,96433,1,0,0:0:0:0:
64,192,96868,1,0,0:0:0:0:
192,192,96868,1,0,0:0:0:0:
320,192,96868,1,0,0:0:0:0:
448,192,96868,1,0,0:0:0:0:
64,192,97086,1,0,0:0:0:0:
320,192,97086,1,0,0:0:0:0:
448,192,97086,1,0,0:0:0:0:
448,192,97303,1,0,0:0:0:0:
320,192,97303,1,0,0:0:0:0:
192,192,97303,1,0,0:0:0:0:
64,192,97303,1,0,0:0:0:0:
320,192,97520,1,0,0:0:0:0:
192,192,97520,1,0,0:0:0:0:
64,192,97520,1,0,0:0:0:0:
448,192,97738,1,0,0:0:0:0:
192,192,97738,1,0,0:0:0:0:
320,192,97738,1,0,0:0:0:0:
64,192,97738,1,0,0:0:0:0:
448,192,97955,1,0,0:0:0:0:
192,192,97955,1,0,0:0:0:0:
64,192,97955,1,0,0:0:0:0:
64,192,98173,1,0,0:0:0:0:
192,192,98173,1,0,0:0:0:0:
320,192,98173,1,0,0:0:0:0:
448,192,98173,1,0,0:0:0:0:
448,192,98390,1,0,0:0:0:0:
64,192,98390,1,0,0:0:0:0:
320,192,98390,1,0,0:0:0:0:
448,192,98607,1,0,0:0:0:0:
320,192,98607,1,0,0:0:0:0:
192,192,98607,1,0,0:0:0:0:
64,192,98607,1,0,0:0:0:0:
192,192,98825,1,0,0:0:0:0:
448,192,98825,1,0,0:0:0:0:
320,192,98825,1,0,0:0:0:0:
448,192,99042,1,0,0:0:0:0:
320,192,99042,1,0,0:0:0:0:
192,192,99042,1,0,0:0:0:0:
64,192,99042,1,0,0:0:0:0:
320,192,99260,1,0,0:0:0:0:
64,192,99260,1,0,0:0:0:0:
192,192,99260,1,0,0:0:0:0:
448,192,99477,1,0,0:0:0:0:
192,192,99477,1,0,0:0:0:0:
64,192,99477,1,0,0:0:0:0:
320,192,99477,1,0,0:0:0:0:
448,192,99694,1,0,0:0:0:0:
192,192,99694,1,0,0:0:0:0:
64,192,99694,1,0,0:0:0:0:
448,192,99912,1,0,0:0:0:0:
192,192,99912,1,0,0:0:0:0:
64,192,99912,1,0,0:0:0:0:
320,192,99912,1,0,0:0:0:0:
320,192,100129,1,0,0:0:0:0:
64,192,100129,1,0,0:0:0:0:
192,192,100129,1,0,0:0:0:0:
448,192,100347,1,0,0:0:0:0:
320,192,100347,1,0,0:0:0:0:
192,192,100347,1,0,0:0:0:0:
64,192,100347,1,0,0:0:0:0:
320,192,100564,1,0,0:0:0:0:
448,192,100564,1,0,0:0:0:0:
64,192,100564,1,0,0:0:0:0:
64,192,100781,1,0,0:0:0:0:
192,192,100781,1,0,0:0:0:0:
448,192,100781,1,0,0:0:0:0:
320,192,100781,1,0,0:0:0:0:
448,192,100999,1,0,0:0:0:0:
320,192,100999,1,0,0:0:0:0:
64,192,100999,1,0,0:0:0:0:
64,192,101216,1,0,0:0:0:0:
192,192,101216,1,0,0:0:0:0:
448,192,101216,1,0,0:0:0:0:
320,192,101216,1,0,0:0:0:0:
448,192,101433,1,0,0:0:0:0:
192,192,101433,1,0,0:0:0:0:
320,192,101433,1,0,0:0:0:0:
64,192,101651,1,0,0:0:0:0:
192,192,101651,1,0,0:0:0:0:
320,192,101651,1,0,0:0:0:0:
448,192,101651,1,0,0:0:0:0:
320,192,101868,1,0,0:0:0:0:
448,192,101868,1,0,0:0:0:0:
64,192,101868,1,0,0:0:0:0:
64,192,102086,1,0,0:0:0:0:
192,192,102086,1,0,0:0:0:0:
320,192,102086,1,0,0:0:0:0:
448,192,102086,1,0,0:0:0:0:
320,192,102303,1,0,0:0:0:0:
192,192,102303,1,0,0:0:0:0:
64,192,102303,1,0,0:0:0:0:
64,192,102520,1,0,0:0:0:0:
192,192,102520,1,0,0:0:0:0:
320,192,102520,1,0,0:0:0:0:
448,192,102520,1,0,0:0:0:0:
448,192,102738,1,0,0:0:0:0:
320,192,102738,1,0,0:0:0:0:
192,192,102738,1,0,0:0:0:0:
64,192,102955,1,0,0:0:0:0:
448,192,102955,1,0,0:0:0:0:
320,192,102955,1,0,0:0:0:0:
192,192,102955,1,0,0:0:0:0:
64,192,103825,128,0,104260:0:0:0:0:
448,192,103825,1,0,0:0:0:0:
320,192,103825,1,0,0:0:0:0:
192,192,104042,1,0,0:0:0:0:
320,192,104260,128,0,104694:0:0:0:0:
192,192,104260,1,0,0:0:0:0:
448,192,104260,1,0,0:0:0:0:
64,192,104477,1,0,0:0:0:0:
448,192,104694,128,0,105129:0:0:0:0:
64,192,104694,1,0,0:0:0:0:
192,192,104694,1,0,0:0:0:0:
320,192,104912,1,0,0:0:0:0:
64,192,105129,1,0,0:0:0:0:
320,192,105129,1,0,0:0:0:0:
192,192,105347,1,0,0:0:0:0:
64,192,105564,128,0,105890:0:0:0:0:
320,192,105564,1,0,0:0:0:0:
448,192,105564,1,0,0:0:0:0:
320,192,105781,1,0,0:0:0:0:
192,192,105890,128,0,105999:0:0:0:0:
320,192,105999,128,0,106216:0:0:0:0:
448,192,105999,1,0,0:0:0:0:
64,192,105999,1,0,0:0:0:0:
448,192,106216,128,0,106433:0:0:0:0:
64,192,106216,1,0,0:0:0:0:
192,192,106433,128,0,106651:0:0:0:0:
320,192,106433,1,0,0:0:0:0:
64,192,106433,1,0,0:0:0:0:
64,192,106651,128,0,106868:0:0:0:0:
448,192,106651,1,0,0:0:0:0:
320,192,106868,128,0,107086:0:0:0:0:
448,192,106868,1,0,0:0:0:0:
192,192,106868,1,0,0:0:0:0:
448,192,107086,128,0,107303:0:0:0:0:
64,192,107086,1,0,0:0:0:0:
192,192,107303,128,0,107738:0:0:0:0:
64,192,107303,1,0,0:0:0:0:
320,192,107303,1,0,0:0:0:0:
448,192,107520,1,0,0:0:0:0:
320,192,107738,128,0,108173:0:0:0:0:
448,192,107738,1,0,0:0:0:0:
64,192,107738,1,0,0:0:0:0:
192,192,107955,1,0,0:0:0:0:
64,192,108173,128,0,108607:0:0:0:0:
192,192,108173,1,0,0:0:0:0:
448,192,108173,1,0,0:0:0:0:
448,192,108390,1,0,0:0:0:0:
448,192,108607,1,0,0:0:0:0:
192,192,108607,1,0,0:0:0:0:
320,192,108825,128,0,109042:0:0:0:0:
64,192,108825,1,0,0:0:0:0:
448,192,109042,128,0,109260:0:0:0:0:
192,192,109042,1,0,0:0:0:0:
64,192,109042,1,0,0:0:0:0:
192,192,109260,128,0,109477:0:0:0:0:
320,192,109260,1,0,0:0:0:0:
64,192,109477,128,0,109694:0:0:0:0:
320,192,109477,1,0,0:0:0:0:
448,192,109477,1,0,0:0:0:0:
320,192,109694,128,0,109912:0:0:0:0:
192,192,109694,1,0,0:0:0:0:
192,192,109912,1,0,0:0:0:0:
64,192,109912,1,0,0:0:0:0:
448,192,109912,128,0,110347:0:0:0:0:
64,192,110129,1,0,0:0:0:0:
64,192,110347,1,0,0:0:0:0:
320,192,110347,1,0,0:0:0:0:
192,192,110347,1,0,0:0:0:0:
448,192,110781,128,0,111216:0:0:0:0:
64,192,110781,1,0,0:0:0:0:
192,192,110781,1,0,0:0:0:0:
320,192,110999,1,0,0:0:0:0:
192,192,111216,128,0,111651:0:0:0:0:
320,192,111216,1,0,0:0:0:0:
64,192,111216,1,0,0:0:0:0:
448,192,111433,1,0,0:0:0:0:
64,192,111651,128,0,112086:0:0:0:0:
448,192,111651,1,0,0:0:0:0:
320,192,111651,1,0,0:0:0:0:
192,192,111868,1,0,0:0:0:0:
448,192,112086,1,0,0:0:0:0:
192,192,112086,1,0,0:0:0:0:
320,192,112303,1,0,0:0:0:0:
448,192,112520,128,0,112847:0:0:0:0:
192,192,112520,1,0,0:0:0:0:
64,192,112520,1,0,0:0:0:0:
192,192,112738,1,0,0:0:0:0:
320,192,112847,128,0,112955:0:0:0:0:
192,192,112955,128,0,113173:0:0:0:0:
64,192,112955,1,0,0:0:0:0:
448,192,112955,1,0,0:0:0:0:
64,192,113173,128,0,113390:0:0:0:0:
448,192,113173,1,0,0:0:0:0:
320,192,113390,128,0,113607:0:0:0:0:
192,192,113390,1,0,0:0:0:0:
448,192,113390,1,0,0:0:0:0:
448,192,113607,128,0,113825:0:0:0:0:
64,192,113607,1,0,0:0:0:0:
192,192,113825,128,0,114042:0:0:0:0:
64,192,113825,1,0,0:0:0:0:
320,192,113825,1,0,0:0:0:0:
64,192,114042,128,0,114260:0:0:0:0:
448,192,114042,1,0,0:0:0:0:
320,192,114260,128,0,114694:0:0:0:0:
448,192,114260,1,0,0:0:0:0:
192,192,114260,1,0,0:0:0:0:
64,192,114477,1,0,0:0:0:0:
192,192,114694,128,0,115129:0:0:0:0:
64,192,114694,1,0,0:0:0:0:
448,192,114694,1,0,0:0:0:0:
320,192,114912,1,0,0:0:0:0:
448,192,115129,128,0,115564:0:0:0:0:
320,192,115129,1,0,0:0:0:0:
64,192,115129,1,0,0:0:0:0:
64,192,115347,1,0,0:0:0:0:
64,192,115564,1,0,0:0:0:0:
320,192,115564,1,0,0:0:0:0:
192,192,115781,128,0,115999:0:0:0:0:
448,192,115781,1,0,0:0:0:0:
64,192,115999,128,0,116216:0:0:0:0:
320,192,115999,1,0,0:0:0:0:
448,192,115999,1,0,0:0:0:0:
320,192,116216,128,0,116433:0:0:0:0:
192,192,116216,1,0,0:0:0:0:
448,192,116433,128,0,116651:0:0:0:0:
192,192,116433,1,0,0:0:0:0:
64,192,116433,1,0,0:0:0:0:
192,192,116651,128,0,116868:0:0:0:0:
320,192,116651,1,0,0:0:0:0:
320,192,116868,1,0,0:0:0:0:
448,192,116868,1,0,0:0:0:0:
64,192,116868,1,0,0:0:0:0:
448,192,124694,5,0,0:0:0:0:
320,192,124694,1,0,0:0:0:0:
64,192,124694,1,0,0:0:0:0:
448,192,124912,1,0,0:0:0:0:
192,192,125020,1,0,0:0:0:0:
448,192,125129,1,0,0:0:0:0:
64,192,125129,1,0,0:0:0:0:
192,192,125129,1,0,0:0:0:0:
320,192,125129,1,0,0:0:0:0:
64,192,125347,1,0,0:0:0:0:
320,192,125564,1,0,0:0:0:0:
192,192,125564,1,0,0:0:0:0:
448,192,125564,1,0,0:0:0:0:
192,192,125781,1,0,0:0:0:0:
320,192,125999,1,0,0:0:0:0:
448,192,125999,1,0,0:0:0:0:
64,192,125999,1,0,0:0:0:0:
192,192,125999,1,0,0:0:0:0:
320,192,126216,1,0,0:0:0:0:
448,192,126433,1,0,0:0:0:0:
320,192,126433,1,0,0:0:0:0:
192,192,126433,1,0,0:0:0:0:
320,192,126651,1,0,0:0:0:0:
192,192,126760,1,0,0:0:0:0:
320,192,126868,1,0,0:0:0:0:
448,192,126868,1,0,0:0:0:0:
64,192,126868,1,0,0:0:0:0:
192,192,126868,1,0,0:0:0:0:
64,192,127086,1,0,0:0:0:0:
448,192,127194,1,0,0:0:0:0:
192,192,127303,1,0,0:0:0:0:
448,192,127303,1,0,0:0:0:0:
64,192,127303,1,0,0:0:0:0:
320,192,127520,1,0,0:0:0:0:
320,192,127738,1,0,0:0:0:0:
64,192,127738,1,0,0:0:0:0:
192,192,127738,1,0,0:0:0:0:
448,192,127738,1,0,0:0:0:0:
64,192,127847,1,0,0:0:0:0:
320,192,127955,1,0,0:0:0:0:
448,192,128064,1,0,0:0:0:0:
64,192,128173,1,0,0:0:0:0:
320,192,128173,1,0,0:0:0:0:
448,192,128173,1,0,0:0:0:0:
64,192,128390,1,0,0:0:0:0:
192,192,128499,1,0,0:0:0:0:
448,192,128607,1,0,0:0:0:0:
64,192,128607,1,0,0:0:0:0:
320,192,128607,1,0,0:0:0:0:
192,192,128607,1,0,0:0:0:0:
64,192,128825,1,0,0:0:0:0:
448,192,129042,1,0,0:0:0:0:
192,192,129042,1,0,0:0:0:0:
64,192,129042,1,0,0:0:0:0:
192,192,129260,1,0,0:0:0:0:
64,192,129477,1,0,0:0:0:0:
192,192,129477,1,0,0:0:0:0:
320,192,129477,1,0,0:0:0:0:
448,192,129477,1,0,0:0:0:0:
320,192,129694,1,0,0:0:0:0:
448,192,129912,1,0,0:0:0:0:
64,192,129912,1,0,0:0:0:0:
192,192,129912,1,0,0:0:0:0:
448,192,130129,1,0,0:0:0:0:
192,192,130238,1,0,0:0:0:0:
64,192,130347,1,0,0:0:0:0:
320,192,130347,1,0,0:0:0:0:
448,192,130347,1,0,0:0:0:0:
192,192,130347,1,0,0:0:0:0:
64,192,130564,1,0,0:0:0:0:
64,192,130781,1,0,0:0:0:0:
320,192,130781,1,0,0:0:0:0:
448,192,130781,1,0,0:0:0:0:
64,192,131216,1,0,0:0:0:0:
192,192,131216,1,0,0:0:0:0:
320,192,131216,1,0,0:0:0:0:
448,192,131216,1,0,0:0:0:0:
64,192,131651,5,0,0:0:0:0:
192,192,131651,1,0,0:0:0:0:
448,192,131651,1,0,0:0:0:0:
64,192,131868,1,0,0:0:0:0:
320,192,131977,1,0,0:0:0:0:
64,192,132086,1,0,0:0:0:0:
448,192,132086,1,0,0:0:0:0:
320,192,132086,1,0,0:0:0:0:
192,192,132086,1,0,0:0:0:0:
448,192,132303,1,0,0:0:0:0:
192,192,132520,1,0,0:0:0:0:
320,192,132520,1,0,0:0:0:0:
64,192,132520,1,0,0:0:0:0:
320,192,132738,1,0,0:0:0:0:
192,192,132955,1,0,0:0:0:0:
64,192,132955,1,0,0:0:0:0:
448,192,132955,1,0,0:0:0:0:
320,192,132955,1,0,0:0:0:0:
192,192,133173,1,0,0:0:0:0:
64,192,133390,1,0,0:0:0:0:
192,192,133390,1,0,0:0:0:0:
320,192,133390,1,0,0:0:0:0:
192,192,133607,1,0,0:0:0:0:
320,192,133716,1,0,0:0:0:0:
192,192,133825,1,0,0:0:0:0:
64,192,133825,1,0,0:0:0:0:
448,192,133825,1,0,0:0:0:0:
320,192,133825,1,0,0:0:0:0:
448,192,134042,1,0,0:0:0:0:
64,192,134151,1,0,0:0:0:0:
320,192,134260,1,0,0:0:0:0:
64,192,134260,1,0,0:0:0:0:
448,192,134260,1,0,0:0:0:0:
192,192,134477,1,0,0:0:0:0:
192,192,134694,1,0,0:0:0:0:
448,192,134694,1,0,0:0:0:0:
320,192,134694,1,0,0:0:0:0:
64,192,134694,1,0,0:0:0:0:
448,192,134803,1,0,0:0:0:0:
192,192,134912,1,0,0:0:0:0:
64,192,135020,1,0,0:0:0:0:
448,192,135129,1,0,0:0:0:0:
192,192,135129,1,0,0:0:0:0:
64,192,135129,1,0,0:0:0:0:
448,192,135347,1,0,0:0:0:0:
320,192,135455,1,0,0:0:0:0:
64,192,135564,1,0,0:0:0:0:
448,192,135564,1,0,0:0:0:0:
192,192,135564,1,0,0:0:0:0:
320,192,135564,1,0,0:0:0:0:
448,192,135781,1,0,0:0:0:0:
64,192,135999,1,0,0:0:0:0:
320,192,135999,1,0,0:0:0:0:
448,192,135999,1,0,0:0:0:0:
320,192,136216,1,0,0:0:0:0:
448,192,136433,1,0,0:0:0:0:
320,192,136433,1,0,0:0:0:0:
192,192,136433,1,0,0:0:0:0:
64,192,136433,1,0,0:0:0:0:
192,192,136651,1,0,0:0:0:0:
64,192,136868,1,0,0:0:0:0:
448,192,136868,1,0,0:0:0:0:
320,192,136868,1,0,0:0:0:0:
64,192,137086,1,0,0:0:0:0:
320,192,137194,1,0,0:0:0:0:
448,192,137303,1,0,0:0:0:0:
192,192,137303,1,0,0:0:0:0:
64,192,137303,1,0,0:0:0:0:
320,192,137303,1,0,0:0:0:0:
448,192,137412,1,0,0:0:0:0:
320,192,137520,1,0,0:0:0:0:
192,192,137629,1,0,0:0:0:0:
192,192,137738,1,0,0:0:0:0:
64,192,137738,1,0,0:0:0:0:
320,192,137738,1,0,0:0:0:0:
448,192,137738,1,0,0:0:0:0:
448,192,138173,1,0,0:0:0:0:
320,192,138173,1,0,0:0:0:0:
64,192,138173,1,0,0:0:0:0:
192,192,138173,1,0,0:0:0:0:
448,192,138607,1,0,0:0:0:0:
320,192,138607,1,0,0:0:0:0:
192,192,138607,1,0,0:0:0:0:
64,192,138607,1,0,0:0:0:0:
192,192,138825,1,0,0:0:0:0:
320,192,138825,1,0,0:0:0:0:
448,192,138825,1,0,0:0:0:0:
448,192,139042,1,0,0:0:0:0:
320,192,139042,1,0,0:0:0:0:
192,192,139042,1,0,0:0:0:0:
64,192,139042,1,0,0:0:0:0:
64,192,139260,1,0,0:0:0:0:
448,192,139260,1,0,0:0:0:0:
192,192,139260,1,0,0:0:0:0:
448,192,139477,1,0,0:0:0:0:
320,192,139477,1,0,0:0:0:0:
192,192,139477,1,0,0:0:0:0:
64,192,139477,1,0,0:0:0:0:
64,192,139694,1,0,0:0:0:0:
320,192,139694,1,0,0:0:0:0:
448,192,139694,1,0,0:0:0:0:
64,192,139912,1,0,0:0:0:0:
192,192,139912,1,0,0:0:0:0:
320,192,139912,1,0,0:0:0:0:
448,192,139912,1,0,0:0:0:0:
448,192,140129,1,0,0:0:0:0:
320,192,140129,1,0,0:0:0:0:
192,192,140129,1,0,0:0:0:0:
64,192,140347,1,0,0:0:0:0:
192,192,140347,1,0,0:0:0:0:
320,192,140347,1,0,0:0:0:0:
448,192,140347,1,0,0:0:0:0:
64,192,140564,1,0,0:0:0:0:
320,192,140564,1,0,0:0:0:0:
192,192,140564,1,0,0:0:0:0:
64,192,140781,1,0,0:0:0:0:
192,192,140781,1,0,0:0:0:0:
320,192,140781,1,0,0:0:0:0:
448,192,140781,1,0,0:0:0:0:
448,192,140999,1,0,0:0:0:0:
192,192,140999,1,0,0:0:0:0:
64,192,140999,1,0,0:0:0:0:
64,192,141216,1,0,0:0:0:0:
192,192,141216,1,0,0:0:0:0:
320,192,141216,1,0,0:0:0:0:
448,192,141216,1,0,0:0:0:0:
320,192,141433,1,0,0:0:0:0:
192,192,141433,1,0,0:0:0:0:
448,192,141433,1,0,0:0:0:0:
64,192,141651,1,0,0:0:0:0:
192,192,141651,1,0,0:0:0:0:
320,192,141651,1,0,0:0:0:0:
448,192,141651,1,0,0:0:0:0:
448,192,141868,1,0,0:0:0:0:
192,192,141868,1,0,0:0:0:0:
64,192,141868,1,0,0:0:0:0:
64,192,142086,1,0,0:0:0:0:
192,192,142086,1,0,0:0:0:0:
320,192,142086,1,0,0:0:0:0:
448,192,142086,1,0,0:0:0:0:
64,192,142303,1,0,0:0:0:0:
192,192,142303,1,0,0:0:0:0:
448,192,142303,1,0,0:0:0:0:
64,192,142520,1,0,0:0:0:0:
192,192,142520,1,0,0:0:0:0:
320,192,142520,1,0,0:0:0:0:
448,192,142520,1,0,0:0:0:0:
448,192,142738,1,0,0:0:0:0:
320,192,142738,1,0,0:0:0:0:
192,192,142738,1,0,0:0:0:0:
64,192,142955,1,0,0:0:0:0:
320,192,142955,1,0,0:0:0:0:
448,192,142955,1,0,0:0:0:0:
192,192,142955,1,0,0:0:0:0:
64,192,143173,1,0,0:0:0:0:
320,192,143173,1,0,0:0:0:0:
192,192,143173,1,0,0:0:0:0:
192,192,143390,1,0,0:0:0:0:
64,192,143390,1,0,0:0:0:0:
320,192,143390,1,0,0:0:0:0:
448,192,143390,1,0,0:0:0:0:
448,192,143607,1,0,0:0:0:0:
320,192,143607,1,0,0:0:0:0:
64,192,143607,1,0,0:0:0:0:
64,192,143825,1,0,0:0:0:0:
192,192,143825,1,0,0:0:0:0:
320,192,143825,1,0,0:0:0:0:
448,192,143825,1,0,0:0:0:0:
64,192,144042,1,0,0:0:0:0:
448,192,144042,1,0,0:0:0:0:
192,192,144042,1,0,0:0:0:0:
64,192,144260,1,0,0:0:0:0:
192,192,144260,1,0,0:0:0:0:
320,192,144260,1,0,0:0:0:0:
448,192,144260,1,0,0:0:0:0:
192,192,144477,1,0,0:0:0:0:
320,192,144477,1,0,0:0:0:0:
64,192,144477,1,0,0:0:0:0:
448,192,144694,1,0,0:0:0:0:
320,192,144694,1,0,0:0:0:0:
192,192,144694,1,0,0:0:0:0:
64,192,144694,1,0,0:0:0:0:
448,192,144912,1,0,0:0:0:0:
320,192,144912,1,0,0:0:0:0:
192,192,144912,1,0,0:0:0:0:
448,192,145129,1,0,0:0:0:0:
320,192,145129,1,0,0:0:0:0:
192,192,145129,1,0,0:0:0:0:
64,192,145129,1,0,0:0:0:0:
448,192,145564,1,0,0:0:0:0:
320,192,145564,1,0,0:0:0:0:
192,192,145564,1,0,0:0:0:0:
64,192,145564,1,0,0:0:0:0:
64,192,145781,1,0,0:0:0:0:
320,192,145781,1,0,0:0:0:0:
448,192,145781,1,0,0:0:0:0:
64,192,145999,1,0,0:0:0:0:
192,192,145999,1,0,0:0:0:0:
320,192,145999,1,0,0:0:0:0:
448,192,145999,1,0,0:0:0:0:
192,192,146216,1,0,0:0:0:0:
320,192,146216,1,0,0:0:0:0:
64,192,146216,1,0,0:0:0:0:
64,192,146433,1,0,0:0:0:0:
448,192,146433,1,0,0:0:0:0:
320,192,146433,1,0,0:0:0:0:
192,192,146433,1,0,0:0:0:0:
448,192,146651,1,0,0:0:0:0:
192,192,146651,1,0,0:0:0:0:
320,192,146651,1,0,0:0:0:0:
64,192,146868,1,0,0:0:0:0:
192,192,146868,1,0,0:0:0:0:
320,192,146868,1,0,0:0:0:0:
448,192,146868,1,0,0:0:0:0:
320,192,147086,1,0,0:0:0:0:
192,192,147086,1,0,0:0:0:0:
64,192,147086,1,0,0:0:0:0:
64,192,147303,1,0,0:0:0:0:
192,192,147303,1,0,0:0:0:0:
320,192,147303,1,0,0:0:0:0:
448,192,147303,1,0,0:0:0:0:
64,192,147520,1,0,0:0:0:0:
192,192,147520,1,0,0:0:0:0:
448,192,147520,1,0,0:0:0:0:
64,192,147738,1,0,0:0:0:0:
320,192,147738,1,0,0:0:0:0:
448,192,147738,1,0,0:0:0:0:
192,192,147738,1,0,0:0:0:0:
448,192,147955,1,0,0:0:0:0:
192,192,147955,1,0,0:0:0:0:
320,192,147955,1,0,0:0:0:0:
64,192,148173,1,0,0:0:0:0:
192,192,148173,1,0,0:0:0:0:
320,192,148173,1,0,0:0:0:0:
448,192,148173,1,0,0:0:0:0:
64,192,148390,1,0,0:0:0:0:
192,192,148390,1,0,0:0:0:0:
448,192,148390,1,0,0:0:0:0:
64,192,148607,1,0,0:0:0:0:
192,192,148607,1,0,0:0:0:0:
320,192,148607,1,0,0:0:0:0:
448,192,148607,1,0,0:0:0:0:
448,192,148825,1,0,0:0:0:0:
192,192,148825,1,0,0:0:0:0:
64,192,148825,1,0,0:0:0:0:
64,192,149042,1,0,0:0:0:0:
192,192,149042,1,0,0:0:0:0:
448,192,149042,1,0,0:0:0:0:
320,192,149042,1,0,0:0:0:0:
64,192,149260,1,0,0:0:0:0:
448,192,149260,1,0,0:0:0:0:
320,192,149260,1,0,0:0:0:0:
448,192,149477,1,0,0:0:0:0:
320,192,149477,1,0,0:0:0:0:
192,192,149477,1,0,0:0:0:0:
64,192,149477,1,0,0:0:0:0:
64,192,149694,1,0,0:0:0:0:
320,192,149694,1,0,0:0:0:0:
448,192,149694,1,0,0:0:0:0:
64,192,149912,1,0,0:0:0:0:
320,192,149912,1,0,0:0:0:0:
448,192,149912,1,0,0:0:0:0:
192,192,149912,1,0,0:0:0:0:
192,192,150129,1,0,0:0:0:0:
320,192,150129,1,0,0:0:0:0:
64,192,150129,1,0,0:0:0:0:
448,192,150347,1,0,0:0:0:0:
320,192,150347,1,0,0:0:0:0:
192,192,150347,1,0,0:0:0:0:
64,192,150347,1,0,0:0:0:0:
192,192,150564,1,0,0:0:0:0:
448,192,150564,1,0,0:0:0:0:
320,192,150564,1,0,0:0:0:0:
448,192,150781,1,0,0:0:0:0:
192,192,150781,1,0,0:0:0:0:
64,192,150781,1,0,0:0:0:0:
320,192,150781,1,0,0:0:0:0:
192,192,150999,1,0,0:0:0:0:
320,192,150999,1,0,0:0:0:0:
64,192,150999,1,0,0:0:0:0:
448,192,151216,1,0,0:0:0:0:
320,192,151216,1,0,0:0:0:0:
192,192,151216,1,0,0:0:0:0:
64,192,151216,1,0,0:0:0:0:
320,192,151433,1,0,0:0:0:0:
448,192,151433,1,0,0:0:0:0:
64,192,151433,1,0,0:0:0:0:
448,192,151651,1,0,0:0:0:0:
320,192,151651,1,0,0:0:0:0:
192,192,151651,1,0,0:0:0:0:
64,192,151651,1,0,0:0:0:0:
64,192,151868,1,0,0:0:0:0:
448,192,151868,1,0,0:0:0:0:
320,192,151868,1,0,0:0:0:0:
448,192,152086,1,0,0:0:0:0:
320,192,152086,1,0,0:0:0:0:
192,192,152086,1,0,0:0:0:0:
64,192,152086,1,0,0:0:0:0:
64,192,152520,1,0,0:0:0:0:
192,192,152520,1,0,0:0:0:0:
320,192,152520,1,0,0:0:0:0:
448,192,152520,1,0,0:0:0:0:
320,192,152738,1,0,0:0:0:0:
192,192,152738,1,0,0:0:0:0:
64,192,152738,1,0,0:0:0:0:
64,192,152955,1,0,0:0:0:0:
192,192,152955,1,0,0:0:0:0:
320,192,152955,1,0,0:0:0:0:
448,192,152955,1,0,0:0:0:0:
448,192,153173,1,0,0:0:0:0:
64,192,153173,1,0,0:0:0:0:
320,192,153173,1,0,0:0:0:0:
64,192,153390,1,0,0:0:0:0:
192,192,153390,1,0,0:0:0:0:
320,192,153390,1,0,0:0:0:0:
448,192,153390,1,0,0:0:0:0:
448,192,153607,1,0,0:0:0:0:
192,192,153607,1,0,0:0:0:0:
64,192,153607,1,0,0:0:0:0:
448,192,153825,1,0,0:0:0:0:
320,192,153825,1,0,0:0:0:0:
192,192,153825,1,0,0:0:0:0:
64,192,153825,1,0,0:0:0:0:
64,192,154042,1,0,0:0:0:0:
192,192,154042,1,0,0:0:0:0:
320,192,154042,1,0,0:0:0:0:
448,192,154260,1,0,0:0:0:0:
320,192,154260,1,0,0:0:0:0:
192,192,154260,1,0,0:0:0:0:
64,192,154260,1,0,0:0:0:0:
448,192,154477,1,0,0:0:0:0:
192,192,154477,1,0,0:0:0:0:
320,192,154477,1,0,0:0:0:0:
448,192,154694,1,0,0:0:0:0:
320,192,154694,1,0,0:0:0:0:
192,192,154694,1,0,0:0:0:0:
64,192,154694,1,0,0:0:0:0:
64,192,154912,1,0,0:0:0:0:
320,192,154912,1,0,0:0:0:0:
448,192,154912,1,0,0:0:0:0:
448,192,155129,1,0,0:0:0:0:
320,192,155129,1,0,0:0:0:0:
192,192,155129,1,0,0:0:0:0:
64,192,155129,1,0,0:0:0:0:
192,192,155347,1,0,0:0:0:0:
320,192,155347,1,0,0:0:0:0:
64,192,155347,1,0,0:0:0:0:
448,192,155564,1,0,0:0:0:0:
320,192,155564,1,0,0:0:0:0:
192,192,155564,1,0,0:0:0:0:
64,192,155564,1,0,0:0:0:0:
64,192,155781,1,0,0:0:0:0:
320,192,155781,1,0,0:0:0:0:
448,192,155781,1,0,0:0:0:0:
448,192,155999,1,0,0:0:0:0:
320,192,155999,1,0,0:0:0:0:
192,192,155999,1,0,0:0:0:0:
64,192,155999,1,0,0:0:0:0:
448,192,156216,1,0,0:0:0:0:
320,192,156216,1,0,0:0:0:0:
64,192,156216,1,0,0:0:0:0:
448,192,156433,1,0,0:0:0:0:
320,192,156433,1,0,0:0:0:0:
192,192,156433,1,0,0:0:0:0:
64,192,156433,1,0,0:0:0:0:
64,192,156651,1,0,0:0:0:0:
192,192,156651,1,0,0:0:0:0:
320,192,156651,1,0,0:0:0:0:
448,192,156868,1,0,0:0:0:0:
192,192,156868,1,0,0:0:0:0:
64,192,156868,1,0,0:0:0:0:
320,192,156868,1,0,0:0:0:0:
448,192,157086,1,0,0:0:0:0:
192,192,157086,1,0,0:0:0:0:
320,192,157086,1,0,0:0:0:0:
320,192,157303,1,0,0:0:0:0:
448,192,157303,1,0,0:0:0:0:
192,192,157303,1,0,0:0:0:0:
64,192,157303,1,0,0:0:0:0:
64,192,157520,1,0,0:0:0:0:
192,192,157520,1,0,0:0:0:0:
448,192,157520,1,0,0:0:0:0:
448,192,157738,1,0,0:0:0:0:
320,192,157738,1,0,0:0:0:0:
192,192,157738,1,0,0:0:0:0:
64,192,157738,1,0,0:0:0:0:
448,192,157955,1,0,0:0:0:0:
64,192,157955,1,0,0:0:0:0:
320,192,157955,1,0,0:0:0:0:
448,192,158173,1,0,0:0:0:0:
320,192,158173,1,0,0:0:0:0:
192,192,158173,1,0,0:0:0:0:
64,192,158173,1,0,0:0:0:0:
320,192,158390,1,0,0:0:0:0:
192,192,158390,1,0,0:0:0:0:
448,192,158390,1,0,0:0:0:0:
64,192,158607,1,0,0:0:0:0:
192,192,158607,1,0,0:0:0:0:
320,192,158607,1,0,0:0:0:0:
448,192,158607,1,0,0:0:0:0:
64,192,158825,1,0,0:0:0:0:
192,192,158825,1,0,0:0:0:0:
320,192,158825,1,0,0:0:0:0:
64,192,159042,1,0,0:0:0:0:
192,192,159042,1,0,0:0:0:0:
320,192,159042,1,0,0:0:0:0:
448,192,159042,1,0,0:0:0:0:
64,192,159477,1,0,0:0:0:0:
192,192,159477,1,0,0:0:0:0:
320,192,159477,1,0,0:0:0:0:
448,192,159477,1,0,0:0:0:0:
448,192,159694,1,0,0:0:0:0:
192,192,159694,1,0,0:0:0:0:
64,192,159694,1,0,0:0:0:0:
448,192,159912,1,0,0:0:0:0:
320,192,159912,1,0,0:0:0:0:
192,192,159912,1,0,0:0:0:0:
64,192,159912,1,0,0:0:0:0:
320,192,160129,1,0,0:0:0:0:
192,192,160129,1,0,0:0:0:0:
448,192,160129,1,0,0:0:0:0:
448,192,160347,1,0,0:0:0:0:
64,192,160347,1,0,0:0:0:0:
192,192,160347,1,0,0:0:0:0:
320,192,160347,1,0,0:0:0:0:
64,192,160564,1,0,0:0:0:0:
320,192,160564,1,0,0:0:0:0:
192,192,160564,1,0,0:0:0:0:
448,192,160781,1,0,0:0:0:0:
320,192,160781,1,0,0:0:0:0:
192,192,160781,1,0,0:0:0:0:
64,192,160781,1,0,0:0:0:0:
192,192,160999,1,0,0:0:0:0:
320,192,160999,1,0,0:0:0:0:
448,192,160999,1,0,0:0:0:0:
448,192,161216,1,0,0:0:0:0:
320,192,161216,1,0,0:0:0:0:
192,192,161216,1,0,0:0:0:0:
64,192,161216,1,0,0:0:0:0:
448,192,161433,1,0,0:0:0:0:
320,192,161433,1,0,0:0:0:0:
64,192,161433,1,0,0:0:0:0:
448,192,161651,1,0,0:0:0:0:
192,192,161651,1,0,0:0:0:0:
64,192,161651,1,0,0:0:0:0:
320,192,161651,1,0,0:0:0:0:
64,192,161868,1,0,0:0:0:0:
320,192,161868,1,0,0:0:0:0:
192,192,161868,1,0,0:0:0:0:
448,192,162086,1,0,0:0:0:0:
320,192,162086,1,0,0:0:0:0:
192,192,162086,1,0,0:0:0:0:
64,192,162086,1,0,0:0:0:0:
448,192,162303,1,0,0:0:0:0:
320,192,162303,1,0,0:0:0:0:
64,192,162303,1,0,0:0:0:0:
448,192,162520,1,0,0:0:0:0:
320,192,162520,1,0,0:0:0:0:
192,192,162520,1,0,0:0:0:0:
64,192,162520,1,0,0:0:0:0:
64,192,162738,1,0,0:0:0:0:
320,192,162738,1,0,0:0:0:0:
448,192,162738,1,0,0:0:0:0:
448,192,162955,1,0,0:0:0:0:
320,192,162955,1,0,0:0:0:0:
64,192,162955,1,0,0:0:0:0:
192,192,162955,1,0,0:0:0:0:
448,192,163173,1,0,0:0:0:0:
64,192,163173,1,0,0:0:0:0:
192,192,163173,1,0,0:0:0:0:
64,192,163390,1,0,0:0:0:0:
192,192,163390,1,0,0:0:0:0:
320,192,163390,1,0,0:0:0:0:
448,192,163390,1,0,0:0:0:0:
448,192,163607,1,0,0:0:0:0:
192,192,163607,1,0,0:0:0:0:
64,192,163607,1,0,0:0:0:0:
448,192,163825,1,0,0:0:0:0:
192,192,163825,1,0,0:0:0:0:
64,192,163825,1,0,0:0:0:0:
320,192,163825,1,0,0:0:0:0:
320,192,164042,1,0,0:0:0:0:
192,192,164042,1,0,0:0:0:0:
448,192,164042,1,0,0:0:0:0:
64,192,164260,1,0,0:0:0:0:
192,192,164260,1,0,0:0:0:0:
320,192,164260,1,0,0:0:0:0:
448,192,164260,1,0,0:0:0:0:
320,192,164477,1,0,0:0:0:0:
64,192,164477,1,0,0:0:0:0:
192,192,164477,1,0,0:0:0:0:
64,192,164694,1,0,0:0:0:0:
320,192,164694,1,0,0:0:0:0:
448,192,164694,1,0,0:0:0:0:
192,192,164694,1,0,0:0:0:0:
320,192,164912,1,0,0:0:0:0:
192,192,164912,1,0,0:0:0:0:
448,192,164912,1,0,0:0:0:0:
64,192,165129,1,0,0:0:0:0:
192,192,165129,1,0,0:0:0:0:
320,192,165129,1,0,0:0:0:0:
448,192,165129,1,0,0:0:0:0:
192,192,165347,1,0,0:0:0:0:
64,192,165347,1,0,0:0:0:0:
448,192,165347,1,0,0:0:0:0:
64,192,165564,1,0,0:0:0:0:
192,192,165564,1,0,0:0:0:0:
320,192,165564,1,0,0:0:0:0:
448,192,165564,1,0,0:0:0:0:
448,192,165781,1,0,0:0:0:0:
64,192,165781,1,0,0:0:0:0:
192,192,165781,1,0,0:0:0:0:
64,192,165999,1,0,0:0:0:0:
192,192,165999,1,0,0:0:0:0:
320,192,165999,1,0,0:0:0:0:
448,192,165999,1,0,0:0:0:0:
320,192,166433,128,0,166868:0:0:0:0:
192,192,166433,1,0,0:0:0:0:
64,192,166433,1,0,0:0:0:0:
448,192,166651,1,0,0:0:0:0:
64,192,166868,128,0,167303:0:0:0:0:
192,192,166868,1,0,0:0:0:0:
448,192,166868,1,0,0:0:0:0:
320,192,167086,1,0,0:0:0:0:
448,192,167303,128,0,167738:0:0:0:0:
320,192,167303,1,0,0:0:0:0:
192,192,167303,1,0,0:0:0:0:
64,192,167520,1,0,0:0:0:0:
192,192,167738,1,0,0:0:0:0:
320,192,167738,1,0,0:0:0:0:
64,192,167955,1,0,0:0:0:0:
192,192,168173,128,0,168499:0:0:0:0:
320,192,168173,1,0,0:0:0:0:
448,192,168173,1,0,0:0:0:0:
64,192,168390,1,0,0:0:0:0:
320,192,168499,128,0,168607:0:0:0:0:
448,192,168607,128,0,168825:0:0:0:0:
64,192,168607,1,0,0:0:0:0:
192,192,168607,1,0,0:0:0:0:
64,192,168825,128,0,169042:0:0:0:0:
320,192,168825,1,0,0:0:0:0:
320,192,169042,128,0,169260:0:0:0:0:
192,192,169042,1,0,0:0:0:0:
448,192,169042,1,0,0:0:0:0:
192,192,169260,128,0,169477:0:0:0:0:
64,192,169260,1,0,0:0:0:0:
64,192,169477,128,0,169694:0:0:0:0:
320,192,169477,1,0,0:0:0:0:
448,192,169477,1,0,0:0:0:0:
320,192,169694,128,0,169912:0:0:0:0:
192,192,169694,1,0,0:0:0:0:
448,192,169912,128,0,170347:0:0:0:0:
192,192,169912,1,0,0:0:0:0:
64,192,169912,1,0,0:0:0:0:
320,192,170129,1,0,0:0:0:0:
192,192,170347,128,0,170781:0:0:0:0:
64,192,170347,1,0,0:0:0:0:
320,192,170347,1,0,0:0:0:0:
448,192,170564,1,0,0:0:0:0:
64,192,170781,128,0,171216:0:0:0:0:
320,192,170781,1,0,0:0:0:0:
448,192,170781,1,0,0:0:0:0:
192,192,170999,1,0,0:0:0:0:
320,192,171216,1,0,0:0:0:0:
448,192,171216,1,0,0:0:0:0:
64,192,171433,1,0,0:0:0:0:
192,192,171433,128,0,171651:0:0:0:0:
448,192,171651,128,0,171868:0:0:0:0:
320,192,171651,1,0,0:0:0:0:
64,192,171651,1,0,0:0:0:0:
192,192,171868,128,0,172086:0:0:0:0:
320,192,171868,1,0,0:0:0:0:
64,192,172086,128,0,172303:0:0:0:0:
320,192,172086,1,0,0:0:0:0:
448,192,172086,1,0,0:0:0:0:
320,192,172303,128,0,172520:0:0:0:0:
448,192,172303,1,0,0:0:0:0:
448,192,172520,128,0,172955:0:0:0:0:
192,192,172520,1,0,0:0:0:0:
64,192,172520,1,0,0:0:0:0:
320,192,172738,1,0,0:0:0:0:
320,192,172955,1,0,0:0:0:0:
192,192,172955,1,0,0:0:0:0:
64,192,172955,1,0,0:0:0:0:
192,192,173390,128,0,173825:0:0:0:0:
320,192,173390,1,0,0:0:0:0:
448,192,173390,1,0,0:0:0:0:
64,192,173607,1,0,0:0:0:0:
448,192,173825,128,0,174260:0:0:0:0:
320,192,173825,1,0,0:0:0:0:
64,192,173825,1,0,0:0:0:0:
192,192,174042,1,0,0:0:0:0:
64,192,174260,128,0,174694:0:0:0:0:
192,192,174260,1,0,0:0:0:0:
320,192,174260,1,0,0:0:0:0:
448,192,174477,1,0,0:0:0:0:
320,192,174694,1,0,0:0:0:0:
192,192,174694,1,0,0:0:0:0:
448,192,174912,1,0,0:0:0:0:
320,192,175129,128,0,175455:0:0:0:0:
192,192,175129,1,0,0:0:0:0:
64,192,175129,1,0,0:0:0:0:
448,192,175347,1,0,0:0:0:0:
192,192,175455,128,0,175564:0:0:0:0:
64,192,175564,128,0,175781:0:0:0:0:
448,192,175564,1,0,0:0:0:0:
320,192,175564,1,0,0:0:0:0:
448,192,175781,128,0,175999:0:0:0:0:
192,192,175781,1,0,0:0:0:0:
192,192,175999,128,0,176216:0:0:0:0:
320,192,175999,1,0,0:0:0:0:
64,192,175999,1,0,0:0:0:0:
320,192,176216,128,0,176433:0:0:0:0:
448,192,176216,1,0,0:0:0:0:
448,192,176433,128,0,176651:0:0:0:0:
192,192,176433,1,0,0:0:0:0:
64,192,176433,1,0,0:0:0:0:
192,192,176651,128,0,176868:0:0:0:0:
320,192,176651,1,0,0:0:0:0:
64,192,176868,128,0,177303:0:0:0:0:
320,192,176868,1,0,0:0:0:0:
448,192,176868,1,0,0:0:0:0:
192,192,177086,1,0,0:0:0:0:
320,192,177303,128,0,177738:0:0:0:0:
448,192,177303,1,0,0:0:0:0:
192,192,177303,1,0,0:0:0:0:
64,192,177520,1,0,0:0:0:0:
448,192,177738,128,0,178173:0:0:0:0:
192,192,177738,1,0,0:0:0:0:
64,192,177738,1,0,0:0:0:0:
320,192,177955,1,0,0:0:0:0:
192,192,178173,1,0,0:0:0:0:
64,192,178173,1,0,0:0:0:0:
320,192,178173,1,0,0:0:0:0:
192,192,178607,1,0,0:0:0:0:
320,192,178607,1,0,0:0:0:0:
448,192,178607,1,0,0:0:0:0:
64,192,178607,1,0,0:0:0:0:
64,192,178716,1,0,0:0:0:0:
192,192,178716,1,0,0:0:0:0:
320,192,178825,1,0,0:0:0:0:
448,192,178825,1,0,0:0:0:0:
192,192,178933,1,0,0:0:0:0:
64,192,178933,1,0,0:0:0:0:
320,192,179042,1,0,0:0:0:0:
448,192,179042,1,0,0:0:0:0:
192,192,179151,1,0,0:0:0:0:
64,192,179151,1,0,0:0:0:0:
320,192,179260,1,0,0:0:0:0:
448,192,179260,1,0,0:0:0:0:
192,192,179368,1,0,0:0:0:0:
64,192,179368,1,0,0:0:0:0:
320,192,179477,1,0,0:0:0:0:
448,192,179477,1,0,0:0:0:0:
192,192,179477,1,0,0:0:0:0:
64,192,179477,1,0,0:0:0:0:
