osu file format v14

[General]
AudioFilename: audio 1.2x.mp3
AudioLeadIn: 0
PreviewTime: 40144
Countdown: 0
SampleSet: None
StackLeniency: 0.7
Mode: 3
LetterboxInBreaks: 0

[Editor]
Bookmarks:
DistanceSpacing: 1.2
BeatDivisor: 4
GridSize: 8
TimelineZoom: 1

[Metadata]
Title:Kissy Kissy
TitleUnicode:Kissy Kissy
Artist:Smile DK
ArtistUnicode:Smile DK
Creator:Verald
Version:Kisu 1.2x
Source:
Tags:
BeatmapID:2084224
BeatmapSetID:996386

[Difficulty]
HPDrainRate:8
CircleSize:4
OverallDifficulty:8
ApproachRate:5 DifficultySliderMultiplier:1.4 DifficultySliderTickRate:1

[Events]
//Background and Video events
0,0,"bg.png",0,0
//Background Colour Transformations
//Break Periods
2,97556,102911
//Storyboard Layer 0 (Background)
//Storyboard Layer 1 (Fail)
//Storyboard Layer 2 (Pass)
//Storyboard Layer 3 (Foreground)
//Storyboard Sound Samples

[TimingPoints]
5361,362.31884057971,4,3,0,100,1,0

[Colours]

[HitObjects]
448,192,5361,5,0,0:0:0:0:
320,192,5542,1,0,0:0:0:0:
448,192,5723,1,0,0:0:0:0:
192,192,5905,1,0,0:0:0:0:
320,192,6085,1,0,0:0:0:0:
64,192,6266,1,0,0:0:0:0:
320,192,6448,1,0,0:0:0:0:
192,192,6629,1,0,0:0:0:0:
64,192,6810,1,0,0:0:0:0:
448,192,6991,1,0,0:0:0:0:
320,192,7172,1,0,0:0:0:0:
64,192,7354,1,0,0:0:0:0:
320,192,7535,1,0,0:0:0:0:
192,192,7716,1,0,0:0:0:0:
448,192,7897,1,0,0:0:0:0:
192,192,8078,1,0,0:0:0:0:
320,192,8260,1,0,0:0:0:0:
448,192,8440,1,0,0:0:0:0:
192,192,8622,1,0,0:0:0:0:
320,192,8803,1,0,0:0:0:0:
64,192,8984,1,0,0:0:0:0:
448,192,9165,1,0,0:0:0:0:
192,192,9346,1,0,0:0:0:0:
64,192,9527,1,0,0:0:0:0:
448,192,9709,1,0,0:0:0:0:
192,192,9890,1,0,0:0:0:0:
320,192,10071,1,0,0:0:0:0:
64,192,10252,1,0,0:0:0:0:
192,192,10433,1,0,0:0:0:0:
320,192,11158,1,0,0:0:0:0:
64,192,11339,1,0,0:0:0:0:
320,192,11520,1,0,0:0:0:0:
448,192,11701,1,0,0:0:0:0:
320,192,11883,1,0,0:0:0:0:
64,192,12064,1,0,0:0:0:0:
192,192,12245,1,0,0:0:0:0:
320,192,12426,1,0,0:0:0:0:
192,192,12607,1,0,0:0:0:0:
448,192,12789,1,0,0:0:0:0:
64,192,12970,1,0,0:0:0:0:
320,192,13150,1,0,0:0:0:0:
192,192,13332,1,0,0:0:0:0:
448,192,13513,1,0,0:0:0:0:
192,192,13694,1,0,0:0:0:0:
64,192,13875,1,0,0:0:0:0:
320,192,14056,1,0,0:0:0:0:
448,192,14238,1,0,0:0:0:0:
192,192,14419,1,0,0:0:0:0:
320,192,14600,1,0,0:0:0:0:
64,192,14781,1,0,0:0:0:0:
192,192,14962,1,0,0:0:0:0:
448,192,15144,1,0,0:0:0:0:
192,192,15325,1,0,0:0:0:0:
64,192,15505,1,0,0:0:0:0:
320,192,15505,1,0,0:0:0:0:
192,192,15505,1,0,0:0:0:0:
448,192,15687,1,0,0:0:0:0:
320,192,15868,1,0,0:0:0:0:
192,192,16050,1,0,0:0:0:0:
64,192,16230,1,0,0:0:0:0:
448,192,16955,1,0,0:0:0:0:
320,192,16955,1,0,0:0:0:0:
192,192,16955,1,0,0:0:0:0:
64,192,17136,1,0,0:0:0:0:
320,192,17227,1,0,0:0:0:0:
448,192,17317,1,0,0:0:0:0:
64,192,17317,1,0,0:0:0:0:
192,192,17317,1,0,0:0:0:0:
320,192,17317,1,0,0:0:0:0:
448,192,17499,1,0,0:0:0:0:
64,192,17680,1,0,0:0:0:0:
320,192,17680,1,0,0:0:0:0:
192,192,17680,1,0,0:0:0:0:
320,192,17860,1,0,0:0:0:0:
320,192,18042,1,0,0:0:0:0:
448,192,18042,1,0,0:0:0:0:
64,192,18042,1,0,0:0:0:0:
192,192,18042,1,0,0:0:0:0:
64,192,18223,1,0,0:0:0:0:
448,192,18405,1,0,0:0:0:0:
320,192,18405,1,0,0:0:0:0:
192,192,18405,1,0,0:0:0:0:
64,192,18585,1,0,0:0:0:0:
192,192,18676,1,0,0:0:0:0:
320,192,18766,1,0,0:0:0:0:
448,192,18766,1,0,0:0:0:0:
64,192,18766,1,0,0:0:0:0:
192,192,18766,1,0,0:0:0:0:
192,192,18948,1,0,0:0:0:0:
320,192,19039,1,0,0:0:0:0:
192,192,19129,1,0,0:0:0:0:
448,192,19129,1,0,0:0:0:0:
64,192,19129,1,0,0:0:0:0:
192,192,19310,1,0,0:0:0:0:
320,192,19491,1,0,0:0:0:0:
64,192,19491,1,0,0:0:0:0:
192,192,19491,1,0,0:0:0:0:
448,192,19491,1,0,0:0:0:0:
448,192,19582,1,0,0:0:0:0:
320,192,19672,1,0,0:0:0:0:
192,192,19763,1,0,0:0:0:0:
64,192,19854,1,0,0:0:0:0:
320,192,19854,1,0,0:0:0:0:
448,192,19854,1,0,0:0:0:0:
320,192,20035,1,0,0:0:0:0:
192,192,20125,1,0,0:0:0:0:
448,192,20216,1,0,0:0:0:0:
64,192,20216,1,0,0:0:0:0:
320,192,20216,1,0,0:0:0:0:
192,192,20216,1,0,0:0:0:0:
320,192,20397,1,0,0:0:0:0:
448,192,20578,1,0,0:0:0:0:
320,192,20578,1,0,0:0:0:0:
192,192,20578,1,0,0:0:0:0:
192,192,20760,1,0,0:0:0:0:
64,192,20940,1,0,0:0:0:0:
192,192,20940,1,0,0:0:0:0:
320,192,20940,1,0,0:0:0:0:
448,192,20940,1,0,0:0:0:0:
320,192,21122,1,0,0:0:0:0:
320,192,21303,1,0,0:0:0:0:
448,192,21303,1,0,0:0:0:0:
64,192,21303,1,0,0:0:0:0:
64,192,21484,1,0,0:0:0:0:
192,192,21575,1,0,0:0:0:0:
64,192,21665,1,0,0:0:0:0:
320,192,21665,1,0,0:0:0:0:
448,192,21665,1,0,0:0:0:0:
192,192,21665,1,0,0:0:0:0:
320,192,21846,1,0,0:0:0:0:
64,192,22027,1,0,0:0:0:0:
192,192,22027,1,0,0:0:0:0:
320,192,22027,1,0,0:0:0:0:
64,192,22390,1,0,0:0:0:0:
192,192,22390,1,0,0:0:0:0:
320,192,22390,1,0,0:0:0:0:
448,192,22390,1,0,0:0:0:0:
448,192,22752,1,0,0:0:0:0:
192,192,22752,1,0,0:0:0:0:
64,192,22752,1,0,0:0:0:0:
320,192,22933,1,0,0:0:0:0:
64,192,23024,1,0,0:0:0:0:
448,192,23115,1,0,0:0:0:0:
192,192,23115,1,0,0:0:0:0:
64,192,23115,1,0,0:0:0:0:
320,192,23115,1,0,0:0:0:0:
192,192,23295,1,0,0:0:0:0:
64,192,23477,1,0,0:0:0:0:
192,192,23477,1,0,0:0:0:0:
320,192,23477,1,0,0:0:0:0:
64,192,23658,1,0,0:0:0:0:
448,192,23839,1,0,0:0:0:0:
320,192,23839,1,0,0:0:0:0:
192,192,23839,1,0,0:0:0:0:
64,192,23839,1,0,0:0:0:0:
448,192,24020,1,0,0:0:0:0:
64,192,24201,1,0,0:0:0:0:
192,192,24201,1,0,0:0:0:0:
448,192,24201,1,0,0:0:0:0:
320,192,24383,1,0,0:0:0:0:
192,192,24473,1,0,0:0:0:0:
64,192,24564,1,0,0:0:0:0:
192,192,24564,1,0,0:0:0:0:
320,192,24564,1,0,0:0:0:0:
448,192,24564,1,0,0:0:0:0:
320,192,24745,1,0,0:0:0:0:
192,192,24835,1,0,0:0:0:0:
448,192,24926,1,0,0:0:0:0:
320,192,24926,1,0,0:0:0:0:
64,192,24926,1,0,0:0:0:0:
192,192,25107,1,0,0:0:0:0:
320,192,25289,1,0,0:0:0:0:
448,192,25289,1,0,0:0:0:0:
192,192,25289,1,0,0:0:0:0:
64,192,25289,1,0,0:0:0:0:
64,192,25379,1,0,0:0:0:0:
192,192,25470,1,0,0:0:0:0:
320,192,25560,1,0,0:0:0:0:
448,192,25650,1,0,0:0:0:0:
192,192,25650,1,0,0:0:0:0:
64,192,25650,1,0,0:0:0:0:
320,192,25832,1,0,0:0:0:0:
192,192,25922,1,0,0:0:0:0:
64,192,26013,1,0,0:0:0:0:
192,192,26013,1,0,0:0:0:0:
320,192,26013,1,0,0:0:0:0:
448,192,26013,1,0,0:0:0:0:
64,192,26194,1,0,0:0:0:0:
64,192,26375,1,0,0:0:0:0:
448,192,26375,1,0,0:0:0:0:
320,192,26375,1,0,0:0:0:0:
320,192,26556,1,0,0:0:0:0:
64,192,26738,1,0,0:0:0:0:
192,192,26738,1,0,0:0:0:0:
320,192,26738,1,0,0:0:0:0:
448,192,26738,1,0,0:0:0:0:
192,192,26919,5,0,0:0:0:0:
64,192,27100,1,0,0:0:0:0:
192,192,27100,1,0,0:0:0:0:
320,192,27100,1,0,0:0:0:0:
448,192,27281,1,0,0:0:0:0:
320,192,27372,1,0,0:0:0:0:
192,192,27462,1,0,0:0:0:0:
64,192,27462,1,0,0:0:0:0:
320,192,27462,1,0,0:0:0:0:
448,192,27462,1,0,0:0:0:0:
64,192,27553,1,0,0:0:0:0:
192,192,27644,1,0,0:0:0:0:
320,192,27734,1,0,0:0:0:0:
448,192,27825,5,0,0:0:0:0:
192,192,27825,1,0,0:0:0:0:
64,192,27825,1,0,0:0:0:0:
320,192,28005,1,0,0:0:0:0:
64,192,28187,1,0,0:0:0:0:
192,192,28187,1,0,0:0:0:0:
448,192,28187,1,0,0:0:0:0:
320,192,28187,1,0,0:0:0:0:
64,192,28368,1,0,0:0:0:0:
192,192,28414,1,0,0:0:0:0:
320,192,28459,1,0,0:0:0:0:
448,192,28504,1,0,0:0:0:0:
64,192,28550,1,0,0:0:0:0:
320,192,28550,1,0,0:0:0:0:
192,192,28550,1,0,0:0:0:0:
192,192,28730,1,0,0:0:0:0:
320,192,28730,1,0,0:0:0:0:
64,192,28911,1,0,0:0:0:0:
192,192,28911,1,0,0:0:0:0:
320,192,28911,1,0,0:0:0:0:
448,192,28911,1,0,0:0:0:0:
64,192,29093,1,0,0:0:0:0:
448,192,29093,1,0,0:0:0:0:
192,192,29274,1,0,0:0:0:0:
320,192,29274,1,0,0:0:0:0:
448,192,29274,1,0,0:0:0:0:
320,192,29455,1,0,0:0:0:0:
64,192,29455,1,0,0:0:0:0:
64,192,29636,1,0,0:0:0:0:
192,192,29636,1,0,0:0:0:0:
320,192,29636,1,0,0:0:0:0:
448,192,29636,1,0,0:0:0:0:
192,192,29817,1,0,0:0:0:0:
448,192,29817,1,0,0:0:0:0:
192,192,29999,1,0,0:0:0:0:
64,192,29999,1,0,0:0:0:0:
320,192,29999,1,0,0:0:0:0:
192,192,30180,1,0,0:0:0:0:
320,192,30180,1,0,0:0:0:0:
320,192,30360,1,0,0:0:0:0:
192,192,30360,1,0,0:0:0:0:
64,192,30360,1,0,0:0:0:0:
448,192,30360,1,0,0:0:0:0:
64,192,30542,1,0,0:0:0:0:
448,192,30542,1,0,0:0:0:0:
320,192,30723,1,0,0:0:0:0:
192,192,30723,1,0,0:0:0:0:
64,192,30723,1,0,0:0:0:0:
448,192,30905,1,0,0:0:0:0:
192,192,30905,1,0,0:0:0:0:
64,192,31085,1,0,0:0:0:0:
192,192,31085,1,0,0:0:0:0:
320,192,31085,1,0,0:0:0:0:
448,192,31085,1,0,0:0:0:0:
64,192,31266,1,0,0:0:0:0:
192,192,31266,1,0,0:0:0:0:
64,192,31448,1,0,0:0:0:0:
448,192,31448,1,0,0:0:0:0:
320,192,31448,1,0,0:0:0:0:
320,192,31629,1,0,0:0:0:0:
192,192,31629,1,0,0:0:0:0:
448,192,31810,1,0,0:0:0:0:
320,192,31810,1,0,0:0:0:0:
192,192,31810,1,0,0:0:0:0:
64,192,31810,1,0,0:0:0:0:
448,192,31991,1,0,0:0:0:0:
64,192,31991,1,0,0:0:0:0:
192,192,32172,1,0,0:0:0:0:
320,192,32172,1,0,0:0:0:0:
448,192,32172,1,0,0:0:0:0:
320,192,32354,1,0,0:0:0:0:
64,192,32354,1,0,0:0:0:0:
64,192,32535,1,0,0:0:0:0:
192,192,32535,1,0,0:0:0:0:
320,192,32535,1,0,0:0:0:0:
448,192,32535,1,0,0:0:0:0:
192,192,32716,1,0,0:0:0:0:
448,192,32716,1,0,0:0:0:0:
64,192,32897,1,0,0:0:0:0:
192,192,32897,1,0,0:0:0:0:
320,192,32897,1,0,0:0:0:0:
320,192,33078,1,0,0:0:0:0:
448,192,33078,1,0,0:0:0:0:
448,192,33260,1,0,0:0:0:0:
320,192,33260,1,0,0:0:0:0:
192,192,33260,1,0,0:0:0:0:
64,192,33260,1,0,0:0:0:0:
64,192,33440,1,0,0:0:0:0:
192,192,33440,1,0,0:0:0:0:
192,192,33622,1,0,0:0:0:0:
64,192,33622,1,0,0:0:0:0:
448,192,33622,1,0,0:0:0:0:
320,192,33803,1,0,0:0:0:0:
192,192,33803,1,0,0:0:0:0:
448,192,33984,1,0,0:0:0:0:
320,192,33984,1,0,0:0:0:0:
192,192,33984,1,0,0:0:0:0:
64,192,33984,1,0,0:0:0:0:
448,192,34165,1,0,0:0:0:0:
192,192,34165,1,0,0:0:0:0:
64,192,34346,1,0,0:0:0:0:
192,192,34346,1,0,0:0:0:0:
448,192,34346,1,0,0:0:0:0:
320,192,34527,1,0,0:0:0:0:
192,192,34527,1,0,0:0:0:0:
64,192,34709,1,0,0:0:0:0:
192,192,34709,1,0,0:0:0:0:
320,192,34709,1,0,0:0:0:0:
448,192,34709,1,0,0:0:0:0:
64,192,34890,1,0,0:0:0:0:
320,192,34890,1,0,0:0:0:0:
192,192,35071,1,0,0:0:0:0:
320,192,35071,1,0,0:0:0:0:
448,192,35071,1,0,0:0:0:0:
64,192,35252,1,0,0:0:0:0:
192,192,35252,1,0,0:0:0:0:
64,192,35433,1,0,0:0:0:0:
192,192,35433,1,0,0:0:0:0:
320,192,35433,1,0,0:0:0:0:
448,192,35433,1,0,0:0:0:0:
448,192,35615,1,0,0:0:0:0:
192,192,35615,1,0,0:0:0:0:
64,192,35795,1,0,0:0:0:0:
192,192,35795,1,0,0:0:0:0:
448,192,35795,1,0,0:0:0:0:
192,192,35977,1,0,0:0:0:0:
320,192,35977,1,0,0:0:0:0:
64,192,36158,1,0,0:0:0:0:
192,192,36158,1,0,0:0:0:0:
320,192,36158,1,0,0:0:0:0:
448,192,36158,1,0,0:0:0:0:
448,192,36339,1,0,0:0:0:0:
64,192,36339,1,0,0:0:0:0:
192,192,36520,1,0,0:0:0:0:
320,192,36520,1,0,0:0:0:0:
448,192,36520,1,0,0:0:0:0:
192,192,36701,1,0,0:0:0:0:
64,192,36701,1,0,0:0:0:0:
192,192,36883,1,0,0:0:0:0:
64,192,36883,1,0,0:0:0:0:
448,192,36883,1,0,0:0:0:0:
320,192,36883,1,0,0:0:0:0:
320,192,37064,1,0,0:0:0:0:
64,192,37064,1,0,0:0:0:0:
192,192,37245,1,0,0:0:0:0:
448,192,37245,1,0,0:0:0:0:
64,192,37245,1,0,0:0:0:0:
320,192,37426,1,0,0:0:0:0:
192,192,37426,1,0,0:0:0:0:
448,192,37607,1,0,0:0:0:0:
320,192,37607,1,0,0:0:0:0:
64,192,37607,1,0,0:0:0:0:
192,192,37607,1,0,0:0:0:0:
448,192,37789,1,0,0:0:0:0:
192,192,37789,1,0,0:0:0:0:
64,192,37970,1,0,0:0:0:0:
448,192,37970,1,0,0:0:0:0:
320,192,37970,1,0,0:0:0:0:
64,192,38150,1,0,0:0:0:0:
320,192,38150,1,0,0:0:0:0:
64,192,38332,1,0,0:0:0:0:
192,192,38332,1,0,0:0:0:0:
448,192,38332,1,0,0:0:0:0:
320,192,38332,1,0,0:0:0:0:
192,192,38513,1,0,0:0:0:0:
320,192,38513,1,0,0:0:0:0:
448,192,38694,1,0,0:0:0:0:
320,192,38694,1,0,0:0:0:0:
64,192,38694,1,0,0:0:0:0:
64,192,38875,1,0,0:0:0:0:
192,192,38875,1,0,0:0:0:0:
64,192,39056,1,0,0:0:0:0:
192,192,39056,1,0,0:0:0:0:
320,192,39056,1,0,0:0:0:0:
448,192,39056,1,0,0:0:0:0:
448,192,39238,1,0,0:0:0:0:
320,192,39238,1,0,0:0:0:0:
64,192,39419,1,0,0:0:0:0:
192,192,39419,1,0,0:0:0:0:
448,192,39419,1,0,0:0:0:0:
320,192,39600,1,0,0:0:0:0:
192,192,39600,1,0,0:0:0:0:
192,192,39781,1,0,0:0:0:0:
320,192,39781,1,0,0:0:0:0:
448,192,40144,1,0,0:0:0:0:
64,192,40144,1,0,0:0:0:0:
192,192,40144,1,0,0:0:0:0:
320,192,40144,1,0,0:0:0:0:
320,192,40325,1,0,0:0:0:0:
192,192,40325,1,0,0:0:0:0:
448,192,40325,1,0,0:0:0:0:
64,192,40505,1,0,0:0:0:0:
192,192,40505,1,0,0:0:0:0:
320,192,40505,1,0,0:0:0:0:
448,192,40505,1,0,0:0:0:0:
64,192,40687,1,0,0:0:0:0:
192,192,40687,1,0,0:0:0:0:
448,192,40687,1,0,0:0:0:0:
320,192,40868,1,0,0:0:0:0:
192,192,40868,1,0,0:0:0:0:
64,192,40868,1,0,0:0:0:0:
448,192,40868,1,0,0:0:0:0:
448,192,41050,1,0,0:0:0:0:
64,192,41050,1,0,0:0:0:0:
320,192,41050,1,0,0:0:0:0:
64,192,41230,1,0,0:0:0:0:
192,192,41230,1,0,0:0:0:0:
320,192,41230,1,0,0:0:0:0:
448,192,41230,1,0,0:0:0:0:
320,192,41411,1,0,0:0:0:0:
192,192,41411,1,0,0:0:0:0:
64,192,41411,1,0,0:0:0:0:
192,192,41593,1,0,0:0:0:0:
64,192,41593,1,0,0:0:0:0:
320,192,41593,1,0,0:0:0:0:
448,192,41593,1,0,0:0:0:0:
448,192,41774,1,0,0:0:0:0:
64,192,41774,1,0,0:0:0:0:
192,192,41774,1,0,0:0:0:0:
64,192,41955,1,0,0:0:0:0:
192,192,41955,1,0,0:0:0:0:
320,192,41955,1,0,0:0:0:0:
448,192,41955,1,0,0:0:0:0:
448,192,42136,1,0,0:0:0:0:
320,192,42136,1,0,0:0:0:0:
192,192,42136,1,0,0:0:0:0:
64,192,42317,1,0,0:0:0:0:
192,192,42317,1,0,0:0:0:0:
320,192,42317,1,0,0:0:0:0:
448,192,42317,1,0,0:0:0:0:
64,192,42499,1,0,0:0:0:0:
320,192,42499,1,0,0:0:0:0:
448,192,42499,1,0,0:0:0:0:
192,192,42680,1,0,0:0:0:0:
64,192,42680,1,0,0:0:0:0:
320,192,42680,1,0,0:0:0:0:
448,192,42680,1,0,0:0:0:0:
448,192,42860,1,0,0:0:0:0:
192,192,42860,1,0,0:0:0:0:
64,192,42860,1,0,0:0:0:0:
64,192,43042,1,0,0:0:0:0:
192,192,43042,1,0,0:0:0:0:
320,192,43042,1,0,0:0:0:0:
448,192,43042,1,0,0:0:0:0:
448,192,43223,1,0,0:0:0:0:
320,192,43223,1,0,0:0:0:0:
192,192,43223,1,0,0:0:0:0:
64,192,43405,1,0,0:0:0:0:
192,192,43405,1,0,0:0:0:0:
320,192,43405,1,0,0:0:0:0:
448,192,43405,1,0,0:0:0:0:
64,192,43585,1,0,0:0:0:0:
192,192,43585,1,0,0:0:0:0:
320,192,43585,1,0,0:0:0:0:
320,192,43766,1,0,0:0:0:0:
192,192,43766,1,0,0:0:0:0:
64,192,43766,1,0,0:0:0:0:
448,192,43766,1,0,0:0:0:0:
448,192,43948,1,0,0:0:0:0:
320,192,43948,1,0,0:0:0:0:
64,192,43948,1,0,0:0:0:0:
64,192,44129,1,0,0:0:0:0:
192,192,44129,1,0,0:0:0:0:
320,192,44129,1,0,0:0:0:0:
448,192,44129,1,0,0:0:0:0:
192,192,44310,1,0,0:0:0:0:
64,192,44310,1,0,0:0:0:0:
448,192,44310,1,0,0:0:0:0:
448,192,44491,1,0,0:0:0:0:
320,192,44491,1,0,0:0:0:0:
192,192,44491,1,0,0:0:0:0:
64,192,44491,1,0,0:0:0:0:
320,192,44672,1,0,0:0:0:0:
192,192,44672,1,0,0:0:0:0:
448,192,44672,1,0,0:0:0:0:
64,192,44854,1,0,0:0:0:0:
192,192,44854,1,0,0:0:0:0:
320,192,44854,1,0,0:0:0:0:
448,192,44854,1,0,0:0:0:0:
192,192,45035,1,0,0:0:0:0:
64,192,45035,1,0,0:0:0:0:
448,192,45035,1,0,0:0:0:0:
448,192,45216,1,0,0:0:0:0:
320,192,45216,1,0,0:0:0:0:
192,192,45216,1,0,0:0:0:0:
64,192,45216,1,0,0:0:0:0:
192,192,45397,1,0,0:0:0:0:
64,192,45397,1,0,0:0:0:0:
448,192,45397,1,0,0:0:0:0:
448,192,45578,1,0,0:0:0:0:
320,192,45578,1,0,0:0:0:0:
64,192,45578,1,0,0:0:0:0:
192,192,45578,1,0,0:0:0:0:
448,192,45940,1,0,0:0:0:0:
320,192,45940,1,0,0:0:0:0:
192,192,45940,1,0,0:0:0:0:
64,192,45940,1,0,0:0:0:0:
448,192,46122,1,0,0:0:0:0:
192,192,46122,1,0,0:0:0:0:
64,192,46122,1,0,0:0:0:0:
64,192,46303,1,0,0:0:0:0:
192,192,46303,1,0,0:0:0:0:
320,192,46303,1,0,0:0:0:0:
448,192,46303,1,0,0:0:0:0:
192,192,46484,1,0,0:0:0:0:
320,192,46484,1,0,0:0:0:0:
448,192,46484,1,0,0:0:0:0:
64,192,46665,1,0,0:0:0:0:
320,192,46665,1,0,0:0:0:0:
192,192,46665,1,0,0:0:0:0:
448,192,46665,1,0,0:0:0:0:
64,192,46846,1,0,0:0:0:0:
320,192,46846,1,0,0:0:0:0:
448,192,46846,1,0,0:0:0:0:
448,192,47027,1,0,0:0:0:0:
320,192,47027,1,0,0:0:0:0:
192,192,47027,1,0,0:0:0:0:
64,192,47027,1,0,0:0:0:0:
64,192,47209,1,0,0:0:0:0:
448,192,47209,1,0,0:0:0:0:
192,192,47209,1,0,0:0:0:0:
64,192,47390,1,0,0:0:0:0:
192,192,47390,1,0,0:0:0:0:
320,192,47390,1,0,0:0:0:0:
448,192,47390,1,0,0:0:0:0:
320,192,47571,1,0,0:0:0:0:
64,192,47571,1,0,0:0:0:0:
192,192,47571,1,0,0:0:0:0:
64,192,47752,1,0,0:0:0:0:
192,192,47752,1,0,0:0:0:0:
320,192,47752,1,0,0:0:0:0:
448,192,47752,1,0,0:0:0:0:
192,192,47933,1,0,0:0:0:0:
448,192,47933,1,0,0:0:0:0:
320,192,47933,1,0,0:0:0:0:
64,192,48115,1,0,0:0:0:0:
320,192,48115,1,0,0:0:0:0:
448,192,48115,1,0,0:0:0:0:
192,192,48115,1,0,0:0:0:0:
64,192,48295,1,0,0:0:0:0:
320,192,48295,1,0,0:0:0:0:
448,192,48295,1,0,0:0:0:0:
64,192,48477,1,0,0:0:0:0:
320,192,48477,1,0,0:0:0:0:
448,192,48477,1,0,0:0:0:0:
192,192,48477,1,0,0:0:0:0:
192,192,48658,1,0,0:0:0:0:
448,192,48658,1,0,0:0:0:0:
320,192,48658,1,0,0:0:0:0:
64,192,48839,1,0,0:0:0:0:
192,192,48839,1,0,0:0:0:0:
320,192,48839,1,0,0:0:0:0:
448,192,48839,1,0,0:0:0:0:
192,192,49020,1,0,0:0:0:0:
64,192,49020,1,0,0:0:0:0:
448,192,49020,1,0,0:0:0:0:
448,192,49201,1,0,0:0:0:0:
320,192,49201,1,0,0:0:0:0:
64,192,49201,1,0,0:0:0:0:
192,192,49201,1,0,0:0:0:0:
64,192,49383,1,0,0:0:0:0:
192,192,49383,1,0,0:0:0:0:
448,192,49383,1,0,0:0:0:0:
448,192,49564,1,0,0:0:0:0:
320,192,49564,1,0,0:0:0:0:
64,192,49564,1,0,0:0:0:0:
192,192,49564,1,0,0:0:0:0:
64,192,49745,1,0,0:0:0:0:
320,192,49745,1,0,0:0:0:0:
192,192,49745,1,0,0:0:0:0:
448,192,49926,1,0,0:0:0:0:
320,192,49926,1,0,0:0:0:0:
192,192,49926,1,0,0:0:0:0:
64,192,49926,1,0,0:0:0:0:
192,192,50107,1,0,0:0:0:0:
64,192,50107,1,0,0:0:0:0:
448,192,50107,1,0,0:0:0:0:
448,192,50289,1,0,0:0:0:0:
320,192,50289,1,0,0:0:0:0:
192,192,50289,1,0,0:0:0:0:
64,192,50289,1,0,0:0:0:0:
192,192,50470,1,0,0:0:0:0:
320,192,50470,1,0,0:0:0:0:
448,192,50470,1,0,0:0:0:0:
448,192,50650,1,0,0:0:0:0:
320,192,50650,1,0,0:0:0:0:
192,192,50650,1,0,0:0:0:0:
64,192,50650,1,0,0:0:0:0:
64,192,50832,1,0,0:0:0:0:
192,192,50832,1,0,0:0:0:0:
320,192,50832,1,0,0:0:0:0:
448,192,51013,1,0,0:0:0:0:
64,192,51013,1,0,0:0:0:0:
192,192,51013,1,0,0:0:0:0:
320,192,51013,1,0,0:0:0:0:
320,192,51375,1,0,0:0:0:0:
64,192,51375,1,0,0:0:0:0:
448,192,51375,1,0,0:0:0:0:
64,192,51738,1,0,0:0:0:0:
192,192,51738,1,0,0:0:0:0:
320,192,51738,1,0,0:0:0:0:
448,192,51919,1,0,0:0:0:0:
192,192,52010,1,0,0:0:0:0:
64,192,52100,1,0,0:0:0:0:
448,192,52100,1,0,0:0:0:0:
320,192,52100,1,0,0:0:0:0:
192,192,52100,1,0,0:0:0:0:
64,192,52281,1,0,0:0:0:0:
448,192,52462,1,0,0:0:0:0:
192,192,52462,1,0,0:0:0:0:
320,192,52462,1,0,0:0:0:0:
192,192,52644,1,0,0:0:0:0:
192,192,52825,1,0,0:0:0:0:
64,192,52825,1,0,0:0:0:0:
448,192,52825,1,0,0:0:0:0:
320,192,52825,1,0,0:0:0:0:
448,192,53005,1,0,0:0:0:0:
64,192,53187,1,0,0:0:0:0:
192,192,53187,1,0,0:0:0:0:
320,192,53187,1,0,0:0:0:0:
448,192,53368,1,0,0:0:0:0:
320,192,53459,1,0,0:0:0:0:
192,192,53550,1,0,0:0:0:0:
64,192,53550,1,0,0:0:0:0:
448,192,53550,1,0,0:0:0:0:
320,192,53550,1,0,0:0:0:0:
320,192,53730,1,0,0:0:0:0:
192,192,53821,1,0,0:0:0:0:
320,192,53911,1,0,0:0:0:0:
64,192,53911,1,0,0:0:0:0:
448,192,53911,1,0,0:0:0:0:
320,192,54093,1,0,0:0:0:0:
192,192,54274,1,0,0:0:0:0:
448,192,54274,1,0,0:0:0:0:
320,192,54274,1,0,0:0:0:0:
64,192,54274,1,0,0:0:0:0:
64,192,54365,1,0,0:0:0:0:
192,192,54455,1,0,0:0:0:0:
320,192,54545,1,0,0:0:0:0:
448,192,54636,1,0,0:0:0:0:
192,192,54636,1,0,0:0:0:0:
64,192,54636,1,0,0:0:0:0:
192,192,54817,1,0,0:0:0:0:
320,192,54908,1,0,0:0:0:0:
64,192,54999,1,0,0:0:0:0:
448,192,54999,1,0,0:0:0:0:
192,192,54999,1,0,0:0:0:0:
320,192,54999,1,0,0:0:0:0:
192,192,55180,1,0,0:0:0:0:
64,192,55360,1,0,0:0:0:0:
192,192,55360,1,0,0:0:0:0:
320,192,55360,1,0,0:0:0:0:
320,192,55542,1,0,0:0:0:0:
448,192,55723,1,0,0:0:0:0:
320,192,55723,1,0,0:0:0:0:
192,192,55723,1,0,0:0:0:0:
64,192,55723,1,0,0:0:0:0:
192,192,55905,1,0,0:0:0:0:
192,192,56085,1,0,0:0:0:0:
64,192,56085,1,0,0:0:0:0:
448,192,56085,1,0,0:0:0:0:
448,192,56266,1,0,0:0:0:0:
320,192,56357,1,0,0:0:0:0:
448,192,56448,1,0,0:0:0:0:
192,192,56448,1,0,0:0:0:0:
64,192,56448,1,0,0:0:0:0:
320,192,56448,1,0,0:0:0:0:
192,192,56629,1,0,0:0:0:0:
448,192,56810,1,0,0:0:0:0:
320,192,56810,1,0,0:0:0:0:
192,192,56810,1,0,0:0:0:0:
448,192,57172,1,0,0:0:0:0:
320,192,57172,1,0,0:0:0:0:
192,192,57172,1,0,0:0:0:0:
64,192,57172,1,0,0:0:0:0:
64,192,57535,1,0,0:0:0:0:
320,192,57535,1,0,0:0:0:0:
448,192,57535,1,0,0:0:0:0:
192,192,57716,1,0,0:0:0:0:
448,192,57806,1,0,0:0:0:0:
64,192,57897,1,0,0:0:0:0:
320,192,57897,1,0,0:0:0:0:
448,192,57897,1,0,0:0:0:0:
192,192,57897,1,0,0:0:0:0:
320,192,58078,1,0,0:0:0:0:
448,192,58260,1,0,0:0:0:0:
320,192,58260,1,0,0:0:0:0:
192,192,58260,1,0,0:0:0:0:
448,192,58440,1,0,0:0:0:0:
64,192,58622,1,0,0:0:0:0:
192,192,58622,1,0,0:0:0:0:
320,192,58622,1,0,0:0:0:0:
448,192,58622,1,0,0:0:0:0:
64,192,58803,1,0,0:0:0:0:
448,192,58984,1,0,0:0:0:0:
320,192,58984,1,0,0:0:0:0:
64,192,58984,1,0,0:0:0:0:
192,192,59165,1,0,0:0:0:0:
320,192,59255,1,0,0:0:0:0:
448,192,59346,1,0,0:0:0:0:
320,192,59346,1,0,0:0:0:0:
192,192,59346,1,0,0:0:0:0:
64,192,59346,1,0,0:0:0:0:
192,192,59527,1,0,0:0:0:0:
320,192,59618,1,0,0:0:0:0:
64,192,59709,1,0,0:0:0:0:
192,192,59709,1,0,0:0:0:0:
448,192,59709,1,0,0:0:0:0:
320,192,59890,1,0,0:0:0:0:
192,192,60071,1,0,0:0:0:0:
64,192,60071,1,0,0:0:0:0:
320,192,60071,1,0,0:0:0:0:
448,192,60071,1,0,0:0:0:0:
448,192,60161,1,0,0:0:0:0:
320,192,60252,1,0,0:0:0:0:
192,192,60343,1,0,0:0:0:0:
64,192,60433,1,0,0:0:0:0:
320,192,60433,1,0,0:0:0:0:
448,192,60433,1,0,0:0:0:0:
192,192,60615,1,0,0:0:0:0:
320,192,60705,1,0,0:0:0:0:
448,192,60795,1,0,0:0:0:0:
320,192,60795,1,0,0:0:0:0:
192,192,60795,1,0,0:0:0:0:
64,192,60795,1,0,0:0:0:0:
448,192,60977,1,0,0:0:0:0:
448,192,61158,1,0,0:0:0:0:
64,192,61158,1,0,0:0:0:0:
192,192,61158,1,0,0:0:0:0:
192,192,61339,1,0,0:0:0:0:
448,192,61520,5,0,0:0:0:0:
320,192,61520,1,0,0:0:0:0:
192,192,61520,1,0,0:0:0:0:
64,192,61520,1,0,0:0:0:0:
320,192,61701,1,0,0:0:0:0:
448,192,61883,1,0,0:0:0:0:
320,192,61883,1,0,0:0:0:0:
192,192,61883,1,0,0:0:0:0:
64,192,62064,1,0,0:0:0:0:
192,192,62155,1,0,0:0:0:0:
320,192,62245,1,0,0:0:0:0:
448,192,62245,1,0,0:0:0:0:
192,192,62245,1,0,0:0:0:0:
64,192,62245,1,0,0:0:0:0:
448,192,62335,1,0,0:0:0:0:
320,192,62426,1,0,0:0:0:0:
192,192,62516,5,0,0:0:0:0:
64,192,62607,1,0,0:0:0:0:
320,192,62607,1,0,0:0:0:0:
448,192,62607,1,0,0:0:0:0:
192,192,62789,1,0,0:0:0:0:
448,192,62970,1,0,0:0:0:0:
320,192,62970,1,0,0:0:0:0:
64,192,62970,1,0,0:0:0:0:
192,192,62970,1,0,0:0:0:0:
448,192,63150,1,0,0:0:0:0:
320,192,63196,1,0,0:0:0:0:
192,192,63241,1,0,0:0:0:0:
64,192,63286,1,0,0:0:0:0:
448,192,63332,1,0,0:0:0:0:
192,192,63332,1,0,0:0:0:0:
320,192,63332,1,0,0:0:0:0:
320,192,63513,1,0,0:0:0:0:
192,192,63513,1,0,0:0:0:0:
448,192,63694,1,0,0:0:0:0:
320,192,63694,1,0,0:0:0:0:
192,192,63694,1,0,0:0:0:0:
64,192,63694,1,0,0:0:0:0:
448,192,63875,1,0,0:0:0:0:
64,192,63875,1,0,0:0:0:0:
320,192,64056,1,0,0:0:0:0:
192,192,64056,1,0,0:0:0:0:
64,192,64056,1,0,0:0:0:0:
192,192,64238,1,0,0:0:0:0:
448,192,64238,1,0,0:0:0:0:
448,192,64419,1,0,0:0:0:0:
320,192,64419,1,0,0:0:0:0:
192,192,64419,1,0,0:0:0:0:
64,192,64419,1,0,0:0:0:0:
320,192,64600,1,0,0:0:0:0:
64,192,64600,1,0,0:0:0:0:
320,192,64781,1,0,0:0:0:0:
448,192,64781,1,0,0:0:0:0:
192,192,64781,1,0,0:0:0:0:
320,192,64962,1,0,0:0:0:0:
192,192,64962,1,0,0:0:0:0:
192,192,65144,1,0,0:0:0:0:
320,192,65144,1,0,0:0:0:0:
448,192,65144,1,0,0:0:0:0:
64,192,65144,1,0,0:0:0:0:
448,192,65325,1,0,0:0:0:0:
64,192,65325,1,0,0:0:0:0:
192,192,65505,1,0,0:0:0:0:
320,192,65505,1,0,0:0:0:0:
448,192,65505,1,0,0:0:0:0:
64,192,65687,1,0,0:0:0:0:
320,192,65687,1,0,0:0:0:0:
448,192,65868,1,0,0:0:0:0:
320,192,65868,1,0,0:0:0:0:
192,192,65868,1,0,0:0:0:0:
64,192,65868,1,0,0:0:0:0:
448,192,66050,1,0,0:0:0:0:
320,192,66050,1,0,0:0:0:0:
448,192,66230,1,0,0:0:0:0:
64,192,66230,1,0,0:0:0:0:
192,192,66230,1,0,0:0:0:0:
192,192,66411,1,0,0:0:0:0:
320,192,66411,1,0,0:0:0:0:
64,192,66593,1,0,0:0:0:0:
192,192,66593,1,0,0:0:0:0:
320,192,66593,1,0,0:0:0:0:
448,192,66593,1,0,0:0:0:0:
64,192,66774,1,0,0:0:0:0:
448,192,66774,1,0,0:0:0:0:
320,192,66955,1,0,0:0:0:0:
192,192,66955,1,0,0:0:0:0:
64,192,66955,1,0,0:0:0:0:
192,192,67136,1,0,0:0:0:0:
448,192,67136,1,0,0:0:0:0:
448,192,67317,1,0,0:0:0:0:
320,192,67317,1,0,0:0:0:0:
192,192,67317,1,0,0:0:0:0:
64,192,67317,1,0,0:0:0:0:
320,192,67499,1,0,0:0:0:0:
64,192,67499,1,0,0:0:0:0:
448,192,67680,1,0,0:0:0:0:
320,192,67680,1,0,0:0:0:0:
192,192,67680,1,0,0:0:0:0:
192,192,67860,1,0,0:0:0:0:
64,192,67860,1,0,0:0:0:0:
64,192,68042,1,0,0:0:0:0:
192,192,68042,1,0,0:0:0:0:
320,192,68042,1,0,0:0:0:0:
448,192,68042,1,0,0:0:0:0:
448,192,68223,1,0,0:0:0:0:
320,192,68223,1,0,0:0:0:0:
320,192,68405,1,0,0:0:0:0:
448,192,68405,1,0,0:0:0:0:
64,192,68405,1,0,0:0:0:0:
192,192,68585,1,0,0:0:0:0:
320,192,68585,1,0,0:0:0:0:
64,192,68766,1,0,0:0:0:0:
192,192,68766,1,0,0:0:0:0:
320,192,68766,1,0,0:0:0:0:
448,192,68766,1,0,0:0:0:0:
64,192,68948,1,0,0:0:0:0:
320,192,68948,1,0,0:0:0:0:
448,192,69129,1,0,0:0:0:0:
320,192,69129,1,0,0:0:0:0:
64,192,69129,1,0,0:0:0:0:
192,192,69310,1,0,0:0:0:0:
320,192,69310,1,0,0:0:0:0:
448,192,69491,1,0,0:0:0:0:
320,192,69491,1,0,0:0:0:0:
192,192,69491,1,0,0:0:0:0:
64,192,69491,1,0,0:0:0:0:
448,192,69672,1,0,0:0:0:0:
192,192,69672,1,0,0:0:0:0:
320,192,69854,1,0,0:0:0:0:
192,192,69854,1,0,0:0:0:0:
64,192,69854,1,0,0:0:0:0:
448,192,70035,1,0,0:0:0:0:
320,192,70035,1,0,0:0:0:0:
448,192,70216,1,0,0:0:0:0:
320,192,70216,1,0,0:0:0:0:
192,192,70216,1,0,0:0:0:0:
64,192,70216,1,0,0:0:0:0:
64,192,70397,1,0,0:0:0:0:
320,192,70397,1,0,0:0:0:0:
448,192,70578,1,0,0:0:0:0:
320,192,70578,1,0,0:0:0:0:
64,192,70578,1,0,0:0:0:0:
320,192,70760,1,0,0:0:0:0:
192,192,70760,1,0,0:0:0:0:
448,192,70940,1,0,0:0:0:0:
320,192,70940,1,0,0:0:0:0:
192,192,70940,1,0,0:0:0:0:
64,192,70940,1,0,0:0:0:0:
64,192,71122,1,0,0:0:0:0:
448,192,71122,1,0,0:0:0:0:
320,192,71303,1,0,0:0:0:0:
192,192,71303,1,0,0:0:0:0:
64,192,71303,1,0,0:0:0:0:
320,192,71484,1,0,0:0:0:0:
448,192,71484,1,0,0:0:0:0:
320,192,71665,1,0,0:0:0:0:
448,192,71665,1,0,0:0:0:0:
64,192,71665,1,0,0:0:0:0:
192,192,71665,1,0,0:0:0:0:
192,192,71846,1,0,0:0:0:0:
448,192,71846,1,0,0:0:0:0:
320,192,72027,1,0,0:0:0:0:
64,192,72027,1,0,0:0:0:0:
448,192,72027,1,0,0:0:0:0:
192,192,72209,1,0,0:0:0:0:
320,192,72209,1,0,0:0:0:0:
64,192,72390,1,0,0:0:0:0:
192,192,72390,1,0,0:0:0:0:
448,192,72390,1,0,0:0:0:0:
320,192,72390,1,0,0:0:0:0:
64,192,72571,1,0,0:0:0:0:
320,192,72571,1,0,0:0:0:0:
448,192,72752,1,0,0:0:0:0:
64,192,72752,1,0,0:0:0:0:
192,192,72752,1,0,0:0:0:0:
448,192,72933,1,0,0:0:0:0:
192,192,72933,1,0,0:0:0:0:
448,192,73115,1,0,0:0:0:0:
320,192,73115,1,0,0:0:0:0:
64,192,73115,1,0,0:0:0:0:
192,192,73115,1,0,0:0:0:0:
320,192,73295,1,0,0:0:0:0:
192,192,73295,1,0,0:0:0:0:
64,192,73477,1,0,0:0:0:0:
192,192,73477,1,0,0:0:0:0:
448,192,73477,1,0,0:0:0:0:
448,192,73658,1,0,0:0:0:0:
320,192,73658,1,0,0:0:0:0:
448,192,73839,1,0,0:0:0:0:
320,192,73839,1,0,0:0:0:0:
192,192,73839,1,0,0:0:0:0:
64,192,73839,1,0,0:0:0:0:
64,192,74020,1,0,0:0:0:0:
192,192,74020,1,0,0:0:0:0:
448,192,74201,1,0,0:0:0:0:
320,192,74201,1,0,0:0:0:0:
64,192,74201,1,0,0:0:0:0:
192,192,74383,1,0,0:0:0:0:
320,192,74383,1,0,0:0:0:0:
320,192,74564,1,0,0:0:0:0:
192,192,74564,1,0,0:0:0:0:
64,192,74926,1,0,0:0:0:0:
448,192,74926,1,0,0:0:0:0:
320,192,74926,1,0,0:0:0:0:
192,192,74926,1,0,0:0:0:0:
192,192,75107,1,0,0:0:0:0:
320,192,75107,1,0,0:0:0:0:
64,192,75107,1,0,0:0:0:0:
448,192,75289,1,0,0:0:0:0:
320,192,75289,1,0,0:0:0:0:
192,192,75289,1,0,0:0:0:0:
64,192,75289,1,0,0:0:0:0:
448,192,75470,1,0,0:0:0:0:
320,192,75470,1,0,0:0:0:0:
64,192,75470,1,0,0:0:0:0:
192,192,75650,1,0,0:0:0:0:
320,192,75650,1,0,0:0:0:0:
448,192,75650,1,0,0:0:0:0:
64,192,75650,1,0,0:0:0:0:
64,192,75832,1,0,0:0:0:0:
448,192,75832,1,0,0:0:0:0:
192,192,75832,1,0,0:0:0:0:
448,192,76013,1,0,0:0:0:0:
320,192,76013,1,0,0:0:0:0:
192,192,76013,1,0,0:0:0:0:
64,192,76013,1,0,0:0:0:0:
192,192,76194,1,0,0:0:0:0:
320,192,76194,1,0,0:0:0:0:
448,192,76194,1,0,0:0:0:0:
320,192,76375,1,0,0:0:0:0:
448,192,76375,1,0,0:0:0:0:
192,192,76375,1,0,0:0:0:0:
64,192,76375,1,0,0:0:0:0:
64,192,76556,1,0,0:0:0:0:
448,192,76556,1,0,0:0:0:0:
320,192,76556,1,0,0:0:0:0:
448,192,76738,1,0,0:0:0:0:
320,192,76738,1,0,0:0:0:0:
192,192,76738,1,0,0:0:0:0:
64,192,76738,1,0,0:0:0:0:
64,192,76919,1,0,0:0:0:0:
192,192,76919,1,0,0:0:0:0:
320,192,76919,1,0,0:0:0:0:
448,192,77100,1,0,0:0:0:0:
320,192,77100,1,0,0:0:0:0:
192,192,77100,1,0,0:0:0:0:
64,192,77100,1,0,0:0:0:0:
448,192,77281,1,0,0:0:0:0:
192,192,77281,1,0,0:0:0:0:
64,192,77281,1,0,0:0:0:0:
320,192,77462,1,0,0:0:0:0:
448,192,77462,1,0,0:0:0:0:
192,192,77462,1,0,0:0:0:0:
64,192,77462,1,0,0:0:0:0:
64,192,77644,1,0,0:0:0:0:
320,192,77644,1,0,0:0:0:0:
448,192,77644,1,0,0:0:0:0:
448,192,77825,1,0,0:0:0:0:
320,192,77825,1,0,0:0:0:0:
192,192,77825,1,0,0:0:0:0:
64,192,77825,1,0,0:0:0:0:
192,192,78005,1,0,0:0:0:0:
64,192,78005,1,0,0:0:0:0:
320,192,78005,1,0,0:0:0:0:
448,192,78187,1,0,0:0:0:0:
320,192,78187,1,0,0:0:0:0:
192,192,78187,1,0,0:0:0:0:
64,192,78187,1,0,0:0:0:0:
448,192,78368,1,0,0:0:0:0:
320,192,78368,1,0,0:0:0:0:
192,192,78368,1,0,0:0:0:0:
192,192,78550,1,0,0:0:0:0:
320,192,78550,1,0,0:0:0:0:
448,192,78550,1,0,0:0:0:0:
64,192,78550,1,0,0:0:0:0:
448,192,78730,1,0,0:0:0:0:
64,192,78730,1,0,0:0:0:0:
192,192,78730,1,0,0:0:0:0:
448,192,78911,1,0,0:0:0:0:
320,192,78911,1,0,0:0:0:0:
192,192,78911,1,0,0:0:0:0:
64,192,78911,1,0,0:0:0:0:
320,192,79093,1,0,0:0:0:0:
448,192,79093,1,0,0:0:0:0:
64,192,79093,1,0,0:0:0:0:
64,192,79274,1,0,0:0:0:0:
192,192,79274,1,0,0:0:0:0:
320,192,79274,1,0,0:0:0:0:
448,192,79274,1,0,0:0:0:0:
192,192,79455,1,0,0:0:0:0:
320,192,79455,1,0,0:0:0:0:
64,192,79455,1,0,0:0:0:0:
448,192,79636,1,0,0:0:0:0:
320,192,79636,1,0,0:0:0:0:
192,192,79636,1,0,0:0:0:0:
64,192,79636,1,0,0:0:0:0:
320,192,79817,1,0,0:0:0:0:
448,192,79817,1,0,0:0:0:0:
64,192,79817,1,0,0:0:0:0:
64,192,79999,1,0,0:0:0:0:
192,192,79999,1,0,0:0:0:0:
320,192,79999,1,0,0:0:0:0:
448,192,79999,1,0,0:0:0:0:
320,192,80180,1,0,0:0:0:0:
448,192,80180,1,0,0:0:0:0:
64,192,80180,1,0,0:0:0:0:
64,192,80360,1,0,0:0:0:0:
192,192,80360,1,0,0:0:0:0:
448,192,80360,1,0,0:0:0:0:
320,192,80360,1,0,0:0:0:0:
64,192,80723,1,0,0:0:0:0:
192,192,80723,1,0,0:0:0:0:
320,192,80723,1,0,0:0:0:0:
448,192,80723,1,0,0:0:0:0:
64,192,80905,1,0,0:0:0:0:
320,192,80905,1,0,0:0:0:0:
448,192,80905,1,0,0:0:0:0:
448,192,81085,1,0,0:0:0:0:
320,192,81085,1,0,0:0:0:0:
192,192,81085,1,0,0:0:0:0:
64,192,81085,1,0,0:0:0:0:
320,192,81266,1,0,0:0:0:0:
192,192,81266,1,0,0:0:0:0:
64,192,81266,1,0,0:0:0:0:
448,192,81448,1,0,0:0:0:0:
192,192,81448,1,0,0:0:0:0:
320,192,81448,1,0,0:0:0:0:
64,192,81448,1,0,0:0:0:0:
448,192,81629,1,0,0:0:0:0:
192,192,81629,1,0,0:0:0:0:
64,192,81629,1,0,0:0:0:0:
64,192,81810,1,0,0:0:0:0:
192,192,81810,1,0,0:0:0:0:
320,192,81810,1,0,0:0:0:0:
448,192,81810,1,0,0:0:0:0:
448,192,81991,1,0,0:0:0:0:
64,192,81991,1,0,0:0:0:0:
320,192,81991,1,0,0:0:0:0:
448,192,82172,1,0,0:0:0:0:
320,192,82172,1,0,0:0:0:0:
192,192,82172,1,0,0:0:0:0:
64,192,82172,1,0,0:0:0:0:
192,192,82354,1,0,0:0:0:0:
448,192,82354,1,0,0:0:0:0:
320,192,82354,1,0,0:0:0:0:
448,192,82535,1,0,0:0:0:0:
320,192,82535,1,0,0:0:0:0:
192,192,82535,1,0,0:0:0:0:
64,192,82535,1,0,0:0:0:0:
320,192,82716,1,0,0:0:0:0:
64,192,82716,1,0,0:0:0:0:
192,192,82716,1,0,0:0:0:0:
448,192,82897,1,0,0:0:0:0:
192,192,82897,1,0,0:0:0:0:
64,192,82897,1,0,0:0:0:0:
320,192,82897,1,0,0:0:0:0:
448,192,83078,1,0,0:0:0:0:
192,192,83078,1,0,0:0:0:0:
64,192,83078,1,0,0:0:0:0:
448,192,83260,1,0,0:0:0:0:
192,192,83260,1,0,0:0:0:0:
64,192,83260,1,0,0:0:0:0:
320,192,83260,1,0,0:0:0:0:
320,192,83440,1,0,0:0:0:0:
64,192,83440,1,0,0:0:0:0:
192,192,83440,1,0,0:0:0:0:
448,192,83622,1,0,0:0:0:0:
320,192,83622,1,0,0:0:0:0:
192,192,83622,1,0,0:0:0:0:
64,192,83622,1,0,0:0:0:0:
320,192,83803,1,0,0:0:0:0:
448,192,83803,1,0,0:0:0:0:
64,192,83803,1,0,0:0:0:0:
64,192,83984,1,0,0:0:0:0:
192,192,83984,1,0,0:0:0:0:
448,192,83984,1,0,0:0:0:0:
320,192,83984,1,0,0:0:0:0:
448,192,84165,1,0,0:0:0:0:
320,192,84165,1,0,0:0:0:0:
64,192,84165,1,0,0:0:0:0:
64,192,84346,1,0,0:0:0:0:
192,192,84346,1,0,0:0:0:0:
448,192,84346,1,0,0:0:0:0:
320,192,84346,1,0,0:0:0:0:
448,192,84527,1,0,0:0:0:0:
192,192,84527,1,0,0:0:0:0:
320,192,84527,1,0,0:0:0:0:
64,192,84709,1,0,0:0:0:0:
192,192,84709,1,0,0:0:0:0:
320,192,84709,1,0,0:0:0:0:
448,192,84709,1,0,0:0:0:0:
320,192,84890,1,0,0:0:0:0:
448,192,84890,1,0,0:0:0:0:
64,192,84890,1,0,0:0:0:0:
64,192,85071,1,0,0:0:0:0:
192,192,85071,1,0,0:0:0:0:
320,192,85071,1,0,0:0:0:0:
448,192,85071,1,0,0:0:0:0:
320,192,85252,1,0,0:0:0:0:
192,192,85252,1,0,0:0:0:0:
64,192,85252,1,0,0:0:0:0:
64,192,85433,1,0,0:0:0:0:
192,192,85433,1,0,0:0:0:0:
320,192,85433,1,0,0:0:0:0:
448,192,85433,1,0,0:0:0:0:
448,192,85615,1,0,0:0:0:0:
320,192,85615,1,0,0:0:0:0:
192,192,85615,1,0,0:0:0:0:
64,192,85795,1,0,0:0:0:0:
448,192,85795,1,0,0:0:0:0:
320,192,85795,1,0,0:0:0:0:
192,192,85795,1,0,0:0:0:0:
64,192,86520,128,0,86883:0:0:0:0:
448,192,86520,1,0,0:0:0:0:
320,192,86520,1,0,0:0:0:0:
192,192,86701,1,0,0:0:0:0:
320,192,86883,128,0,87245:0:0:0:0:
192,192,86883,1,0,0:0:0:0:
448,192,86883,1,0,0:0:0:0:
64,192,87064,1,0,0:0:0:0:
448,192,87245,128,0,87607:0:0:0:0:
64,192,87245,1,0,0:0:0:0:
192,192,87245,1,0,0:0:0:0:
320,192,87426,1,0,0:0:0:0:
64,192,87607,1,0,0:0:0:0:
320,192,87607,1,0,0:0:0:0:
192,192,87789,1,0,0:0:0:0:
64,192,87970,128,0,88241:0:0:0:0:
320,192,87970,1,0,0:0:0:0:
448,192,87970,1,0,0:0:0:0:
320,192,88150,1,0,0:0:0:0:
192,192,88241,128,0,88332:0:0:0:0:
320,192,88332,128,0,88513:0:0:0:0:
448,192,88332,1,0,0:0:0:0:
64,192,88332,1,0,0:0:0:0:
448,192,88513,128,0,88694:0:0:0:0:
64,192,88513,1,0,0:0:0:0:
192,192,88694,128,0,88875:0:0:0:0:
320,192,88694,1,0,0:0:0:0:
64,192,88694,1,0,0:0:0:0:
64,192,88875,128,0,89056:0:0:0:0:
448,192,88875,1,0,0:0:0:0:
320,192,89056,128,0,89238:0:0:0:0:
448,192,89056,1,0,0:0:0:0:
192,192,89056,1,0,0:0:0:0:
448,192,89238,128,0,89419:0:0:0:0:
64,192,89238,1,0,0:0:0:0:
192,192,89419,128,0,89781:0:0:0:0:
64,192,89419,1,0,0:0:0:0:
320,192,89419,1,0,0:0:0:0:
448,192,89600,1,0,0:0:0:0:
320,192,89781,128,0,90144:0:0:0:0:
448,192,89781,1,0,0:0:0:0:
64,192,89781,1,0,0:0:0:0:
192,192,89962,1,0,0:0:0:0:
64,192,90144,128,0,90505:0:0:0:0:
192,192,90144,1,0,0:0:0:0:
448,192,90144,1,0,0:0:0:0:
448,192,90325,1,0,0:0:0:0:
448,192,90505,1,0,0:0:0:0:
192,192,90505,1,0,0:0:0:0:
320,192,90687,128,0,90868:0:0:0:0:
64,192,90687,1,0,0:0:0:0:
448,192,90868,128,0,91050:0:0:0:0:
192,192,90868,1,0,0:0:0:0:
64,192,90868,1,0,0:0:0:0:
192,192,91050,128,0,91230:0:0:0:0:
320,192,91050,1,0,0:0:0:0:
64,192,91230,128,0,91411:0:0:0:0:
320,192,91230,1,0,0:0:0:0:
448,192,91230,1,0,0:0:0:0:
320,192,91411,128,0,91593:0:0:0:0:
192,192,91411,1,0,0:0:0:0:
192,192,91593,1,0,0:0:0:0:
64,192,91593,1,0,0:0:0:0:
448,192,91593,128,0,91955:0:0:0:0:
64,192,91774,1,0,0:0:0:0:
64,192,91955,1,0,0:0:0:0:
320,192,91955,1,0,0:0:0:0:
192,192,91955,1,0,0:0:0:0:
448,192,92317,128,0,92680:0:0:0:0:
64,192,92317,1,0,0:0:0:0:
192,192,92317,1,0,0:0:0:0:
320,192,92499,1,0,0:0:0:0:
192,192,92680,128,0,93042:0:0:0:0:
320,192,92680,1,0,0:0:0:0:
64,192,92680,1,0,0:0:0:0:
448,192,92860,1,0,0:0:0:0:
64,192,93042,128,0,93405:0:0:0:0:
448,192,93042,1,0,0:0:0:0:
320,192,93042,1,0,0:0:0:0:
192,192,93223,1,0,0:0:0:0:
448,192,93405,1,0,0:0:0:0:
192,192,93405,1,0,0:0:0:0:
320,192,93585,1,0,0:0:0:0:
448,192,93766,128,0,94039:0:0:0:0:
192,192,93766,1,0,0:0:0:0:
64,192,93766,1,0,0:0:0:0:
192,192,93948,1,0,0:0:0:0:
320,192,94039,128,0,94129:0:0:0:0:
192,192,94129,128,0,94310:0:0:0:0:
64,192,94129,1,0,0:0:0:0:
448,192,94129,1,0,0:0:0:0:
64,192,94310,128,0,94491:0:0:0:0:
448,192,94310,1,0,0:0:0:0:
320,192,94491,128,0,94672:0:0:0:0:
192,192,94491,1,0,0:0:0:0:
448,192,94491,1,0,0:0:0:0:
448,192,94672,128,0,94854:0:0:0:0:
64,192,94672,1,0,0:0:0:0:
192,192,94854,128,0,95035:0:0:0:0:
64,192,94854,1,0,0:0:0:0:
320,192,94854,1,0,0:0:0:0:
64,192,95035,128,0,95216:0:0:0:0:
448,192,95035,1,0,0:0:0:0:
320,192,95216,128,0,95578:0:0:0:0:
448,192,95216,1,0,0:0:0:0:
192,192,95216,1,0,0:0:0:0:
64,192,95397,1,0,0:0:0:0:
192,192,95578,128,0,95940:0:0:0:0:
64,192,95578,1,0,0:0:0:0:
448,192,95578,1,0,0:0:0:0:
320,192,95760,1,0,0:0:0:0:
448,192,95940,128,0,96303:0:0:0:0:
320,192,95940,1,0,0:0:0:0:
64,192,95940,1,0,0:0:0:0:
64,192,96122,1,0,0:0:0:0:
64,192,96303,1,0,0:0:0:0:
320,192,96303,1,0,0:0:0:0:
192,192,96484,128,0,96665:0:0:0:0:
448,192,96484,1,0,0:0:0:0:
64,192,96665,128,0,96846:0:0:0:0:
320,192,96665,1,0,0:0:0:0:
448,192,96665,1,0,0:0:0:0:
320,192,96846,128,0,97027:0:0:0:0:
192,192,96846,1,0,0:0:0:0:
448,192,97027,128,0,97209:0:0:0:0:
192,192,97027,1,0,0:0:0:0:
64,192,97027,1,0,0:0:0:0:
192,192,97209,128,0,97390:0:0:0:0:
320,192,97209,1,0,0:0:0:0:
320,192,97390,1,0,0:0:0:0:
448,192,97390,1,0,0:0:0:0:
64,192,97390,1,0,0:0:0:0:
448,192,103911,5,0,0:0:0:0:
320,192,103911,1,0,0:0:0:0:
64,192,103911,1,0,0:0:0:0:
448,192,104093,1,0,0:0:0:0:
192,192,104183,1,0,0:0:0:0:
448,192,104274,1,0,0:0:0:0:
64,192,104274,1,0,0:0:0:0:
192,192,104274,1,0,0:0:0:0:
320,192,104274,1,0,0:0:0:0:
64,192,104455,1,0,0:0:0:0:
320,192,104636,1,0,0:0:0:0:
192,192,104636,1,0,0:0:0:0:
448,192,104636,1,0,0:0:0:0:
192,192,104817,1,0,0:0:0:0:
320,192,104999,1,0,0:0:0:0:
448,192,104999,1,0,0:0:0:0:
64,192,104999,1,0,0:0:0:0:
192,192,104999,1,0,0:0:0:0:
320,192,105180,1,0,0:0:0:0:
448,192,105360,1,0,0:0:0:0:
320,192,105360,1,0,0:0:0:0:
192,192,105360,1,0,0:0:0:0:
320,192,105542,1,0,0:0:0:0:
192,192,105633,1,0,0:0:0:0:
320,192,105723,1,0,0:0:0:0:
448,192,105723,1,0,0:0:0:0:
64,192,105723,1,0,0:0:0:0:
192,192,105723,1,0,0:0:0:0:
64,192,105905,1,0,0:0:0:0:
448,192,105995,1,0,0:0:0:0:
192,192,106085,1,0,0:0:0:0:
448,192,106085,1,0,0:0:0:0:
64,192,106085,1,0,0:0:0:0:
320,192,106266,1,0,0:0:0:0:
320,192,106448,1,0,0:0:0:0:
64,192,106448,1,0,0:0:0:0:
192,192,106448,1,0,0:0:0:0:
448,192,106448,1,0,0:0:0:0:
64,192,106539,1,0,0:0:0:0:
320,192,106629,1,0,0:0:0:0:
448,192,106720,1,0,0:0:0:0:
64,192,106810,1,0,0:0:0:0:
320,192,106810,1,0,0:0:0:0:
448,192,106810,1,0,0:0:0:0:
64,192,106991,1,0,0:0:0:0:
192,192,107082,1,0,0:0:0:0:
448,192,107172,1,0,0:0:0:0:
64,192,107172,1,0,0:0:0:0:
320,192,107172,1,0,0:0:0:0:
192,192,107172,1,0,0:0:0:0:
64,192,107354,1,0,0:0:0:0:
448,192,107535,1,0,0:0:0:0:
192,192,107535,1,0,0:0:0:0:
64,192,107535,1,0,0:0:0:0:
192,192,107716,1,0,0:0:0:0:
64,192,107897,1,0,0:0:0:0:
192,192,107897,1,0,0:0:0:0:
320,192,107897,1,0,0:0:0:0:
448,192,107897,1,0,0:0:0:0:
320,192,108078,1,0,0:0:0:0:
448,192,108260,1,0,0:0:0:0:
64,192,108260,1,0,0:0:0:0:
192,192,108260,1,0,0:0:0:0:
448,192,108440,1,0,0:0:0:0:
192,192,108531,1,0,0:0:0:0:
64,192,108622,1,0,0:0:0:0:
320,192,108622,1,0,0:0:0:0:
448,192,108622,1,0,0:0:0:0:
192,192,108622,1,0,0:0:0:0:
64,192,108803,1,0,0:0:0:0:
64,192,108984,1,0,0:0:0:0:
320,192,108984,1,0,0:0:0:0:
448,192,108984,1,0,0:0:0:0:
64,192,109346,1,0,0:0:0:0:
192,192,109346,1,0,0:0:0:0:
320,192,109346,1,0,0:0:0:0:
448,192,109346,1,0,0:0:0:0:
64,192,109709,5,0,0:0:0:0:
192,192,109709,1,0,0:0:0:0:
448,192,109709,1,0,0:0:0:0:
64,192,109890,1,0,0:0:0:0:
320,192,109980,1,0,0:0:0:0:
64,192,110071,1,0,0:0:0:0:
448,192,110071,1,0,0:0:0:0:
320,192,110071,1,0,0:0:0:0:
192,192,110071,1,0,0:0:0:0:
448,192,110252,1,0,0:0:0:0:
192,192,110433,1,0,0:0:0:0:
320,192,110433,1,0,0:0:0:0:
64,192,110433,1,0,0:0:0:0:
320,192,110615,1,0,0:0:0:0:
192,192,110795,1,0,0:0:0:0:
64,192,110795,1,0,0:0:0:0:
448,192,110795,1,0,0:0:0:0:
320,192,110795,1,0,0:0:0:0:
192,192,110977,1,0,0:0:0:0:
64,192,111158,1,0,0:0:0:0:
192,192,111158,1,0,0:0:0:0:
320,192,111158,1,0,0:0:0:0:
192,192,111339,1,0,0:0:0:0:
320,192,111430,1,0,0:0:0:0:
192,192,111520,1,0,0:0:0:0:
64,192,111520,1,0,0:0:0:0:
448,192,111520,1,0,0:0:0:0:
320,192,111520,1,0,0:0:0:0:
448,192,111701,1,0,0:0:0:0:
64,192,111792,1,0,0:0:0:0:
320,192,111883,1,0,0:0:0:0:
64,192,111883,1,0,0:0:0:0:
448,192,111883,1,0,0:0:0:0:
192,192,112064,1,0,0:0:0:0:
192,192,112245,1,0,0:0:0:0:
448,192,112245,1,0,0:0:0:0:
320,192,112245,1,0,0:0:0:0:
64,192,112245,1,0,0:0:0:0:
448,192,112335,1,0,0:0:0:0:
192,192,112426,1,0,0:0:0:0:
64,192,112516,1,0,0:0:0:0:
448,192,112607,1,0,0:0:0:0:
192,192,112607,1,0,0:0:0:0:
64,192,112607,1,0,0:0:0:0:
448,192,112789,1,0,0:0:0:0:
320,192,112879,1,0,0:0:0:0:
64,192,112970,1,0,0:0:0:0:
448,192,112970,1,0,0:0:0:0:
192,192,112970,1,0,0:0:0:0:
320,192,112970,1,0,0:0:0:0:
448,192,113150,1,0,0:0:0:0:
64,192,113332,1,0,0:0:0:0:
320,192,113332,1,0,0:0:0:0:
448,192,113332,1,0,0:0:0:0:
320,192,113513,1,0,0:0:0:0:
448,192,113694,1,0,0:0:0:0:
320,192,113694,1,0,0:0:0:0:
192,192,113694,1,0,0:0:0:0:
64,192,113694,1,0,0:0:0:0:
192,192,113875,1,0,0:0:0:0:
64,192,114056,1,0,0:0:0:0:
448,192,114056,1,0,0:0:0:0:
320,192,114056,1,0,0:0:0:0:
64,192,114238,1,0,0:0:0:0:
320,192,114328,1,0,0:0:0:0:
448,192,114419,1,0,0:0:0:0:
192,192,114419,1,0,0:0:0:0:
64,192,114419,1,0,0:0:0:0:
320,192,114419,1,0,0:0:0:0:
448,192,114510,1,0,0:0:0:0:
320,192,114600,1,0,0:0:0:0:
192,192,114690,1,0,0:0:0:0:
192,192,114781,1,0,0:0:0:0:
64,192,114781,1,0,0:0:0:0:
320,192,114781,1,0,0:0:0:0:
448,192,114781,1,0,0:0:0:0:
448,192,115144,1,0,0:0:0:0:
320,192,115144,1,0,0:0:0:0:
64,192,115144,1,0,0:0:0:0:
192,192,115144,1,0,0:0:0:0:
448,192,115505,1,0,0:0:0:0:
320,192,115505,1,0,0:0:0:0:
192,192,115505,1,0,0:0:0:0:
64,192,115505,1,0,0:0:0:0:
192,192,115687,1,0,0:0:0:0:
320,192,115687,1,0,0:0:0:0:
448,192,115687,1,0,0:0:0:0:
448,192,115868,1,0,0:0:0:0:
320,192,115868,1,0,0:0:0:0:
192,192,115868,1,0,0:0:0:0:
64,192,115868,1,0,0:0:0:0:
64,192,116050,1,0,0:0:0:0:
448,192,116050,1,0,0:0:0:0:
192,192,116050,1,0,0:0:0:0:
448,192,116230,1,0,0:0:0:0:
320,192,116230,1,0,0:0:0:0:
192,192,116230,1,0,0:0:0:0:
64,192,116230,1,0,0:0:0:0:
64,192,116411,1,0,0:0:0:0:
320,192,116411,1,0,0:0:0:0:
448,192,116411,1,0,0:0:0:0:
64,192,116593,1,0,0:0:0:0:
192,192,116593,1,0,0:0:0:0:
320,192,116593,1,0,0:0:0:0:
448,192,116593,1,0,0:0:0:0:
448,192,116774,1,0,0:0:0:0:
320,192,116774,1,0,0:0:0:0:
192,192,116774,1,0,0:0:0:0:
64,192,116955,1,0,0:0:0:0:
192,192,116955,1,0,0:0:0:0:
320,192,116955,1,0,0:0:0:0:
448,192,116955,1,0,0:0:0:0:
64,192,117136,1,0,0:0:0:0:
320,192,117136,1,0,0:0:0:0:
192,192,117136,1,0,0:0:0:0:
64,192,117317,1,0,0:0:0:0:
192,192,117317,1,0,0:0:0:0:
320,192,117317,1,0,0:0:0:0:
448,192,117317,1,0,0:0:0:0:
448,192,117499,1,0,0:0:0:0:
192,192,117499,1,0,0:0:0:0:
64,192,117499,1,0,0:0:0:0:
64,192,117680,1,0,0:0:0:0:
192,192,117680,1,0,0:0:0:0:
320,192,117680,1,0,0:0:0:0:
448,192,117680,1,0,0:0:0:0:
320,192,117860,1,0,0:0:0:0:
192,192,117860,1,0,0:0:0:0:
448,192,117860,1,0,0:0:0:0:
64,192,118042,1,0,0:0:0:0:
192,192,118042,1,0,0:0:0:0:
320,192,118042,1,0,0:0:0:0:
448,192,118042,1,0,0:0:0:0:
448,192,118223,1,0,0:0:0:0:
192,192,118223,1,0,0:0:0:0:
64,192,118223,1,0,0:0:0:0:
64,192,118405,1,0,0:0:0:0:
192,192,118405,1,0,0:0:0:0:
320,192,118405,1,0,0:0:0:0:
448,192,118405,1,0,0:0:0:0:
64,192,118585,1,0,0:0:0:0:
192,192,118585,1,0,0:0:0:0:
448,192,118585,1,0,0:0:0:0:
64,192,118766,1,0,0:0:0:0:
192,192,118766,1,0,0:0:0:0:
320,192,118766,1,0,0:0:0:0:
448,192,118766,1,0,0:0:0:0:
448,192,118948,1,0,0:0:0:0:
320,192,118948,1,0,0:0:0:0:
192,192,118948,1,0,0:0:0:0:
64,192,119129,1,0,0:0:0:0:
320,192,119129,1,0,0:0:0:0:
448,192,119129,1,0,0:0:0:0:
192,192,119129,1,0,0:0:0:0:
64,192,119310,1,0,0:0:0:0:
320,192,119310,1,0,0:0:0:0:
192,192,119310,1,0,0:0:0:0:
192,192,119491,1,0,0:0:0:0:
64,192,119491,1,0,0:0:0:0:
320,192,119491,1,0,0:0:0:0:
448,192,119491,1,0,0:0:0:0:
448,192,119672,1,0,0:0:0:0:
320,192,119672,1,0,0:0:0:0:
64,192,119672,1,0,0:0:0:0:
64,192,119854,1,0,0:0:0:0:
192,192,119854,1,0,0:0:0:0:
320,192,119854,1,0,0:0:0:0:
448,192,119854,1,0,0:0:0:0:
64,192,120035,1,0,0:0:0:0:
448,192,120035,1,0,0:0:0:0:
192,192,120035,1,0,0:0:0:0:
64,192,120216,1,0,0:0:0:0:
192,192,120216,1,0,0:0:0:0:
320,192,120216,1,0,0:0:0:0:
448,192,120216,1,0,0:0:0:0:
192,192,120397,1,0,0:0:0:0:
320,192,120397,1,0,0:0:0:0:
64,192,120397,1,0,0:0:0:0:
448,192,120578,1,0,0:0:0:0:
320,192,120578,1,0,0:0:0:0:
192,192,120578,1,0,0:0:0:0:
64,192,120578,1,0,0:0:0:0:
448,192,120760,1,0,0:0:0:0:
320,192,120760,1,0,0:0:0:0:
192,192,120760,1,0,0:0:0:0:
448,192,120940,1,0,0:0:0:0:
320,192,120940,1,0,0:0:0:0:
192,192,120940,1,0,0:0:0:0:
64,192,120940,1,0,0:0:0:0:
448,192,121303,1,0,0:0:0:0:
320,192,121303,1,0,0:0:0:0:
192,192,121303,1,0,0:0:0:0:
64,192,121303,1,0,0:0:0:0:
64,192,121484,1,0,0:0:0:0:
320,192,121484,1,0,0:0:0:0:
448,192,121484,1,0,0:0:0:0:
64,192,121665,1,0,0:0:0:0:
192,192,121665,1,0,0:0:0:0:
320,192,121665,1,0,0:0:0:0:
448,192,121665,1,0,0:0:0:0:
192,192,121846,1,0,0:0:0:0:
320,192,121846,1,0,0:0:0:0:
64,192,121846,1,0,0:0:0:0:
64,192,122027,1,0,0:0:0:0:
448,192,122027,1,0,0:0:0:0:
320,192,122027,1,0,0:0:0:0:
192,192,122027,1,0,0:0:0:0:
448,192,122209,1,0,0:0:0:0:
192,192,122209,1,0,0:0:0:0:
320,192,122209,1,0,0:0:0:0:
64,192,122390,1,0,0:0:0:0:
192,192,122390,1,0,0:0:0:0:
320,192,122390,1,0,0:0:0:0:
448,192,122390,1,0,0:0:0:0:
320,192,122571,1,0,0:0:0:0:
192,192,122571,1,0,0:0:0:0:
64,192,122571,1,0,0:0:0:0:
64,192,122752,1,0,0:0:0:0:
192,192,122752,1,0,0:0:0:0:
320,192,122752,1,0,0:0:0:0:
448,192,122752,1,0,0:0:0:0:
64,192,122933,1,0,0:0:0:0:
192,192,122933,1,0,0:0:0:0:
448,192,122933,1,0,0:0:0:0:
64,192,123115,1,0,0:0:0:0:
320,192,123115,1,0,0:0:0:0:
448,192,123115,1,0,0:0:0:0:
192,192,123115,1,0,0:0:0:0:
448,192,123295,1,0,0:0:0:0:
192,192,123295,1,0,0:0:0:0:
320,192,123295,1,0,0:0:0:0:
64,192,123477,1,0,0:0:0:0:
192,192,123477,1,0,0:0:0:0:
320,192,123477,1,0,0:0:0:0:
448,192,123477,1,0,0:0:0:0:
64,192,123658,1,0,0:0:0:0:
192,192,123658,1,0,0:0:0:0:
448,192,123658,1,0,0:0:0:0:
64,192,123839,1,0,0:0:0:0:
192,192,123839,1,0,0:0:0:0:
320,192,123839,1,0,0:0:0:0:
448,192,123839,1,0,0:0:0:0:
448,192,124020,1,0,0:0:0:0:
192,192,124020,1,0,0:0:0:0:
64,192,124020,1,0,0:0:0:0:
64,192,124201,1,0,0:0:0:0:
192,192,124201,1,0,0:0:0:0:
448,192,124201,1,0,0:0:0:0:
320,192,124201,1,0,0:0:0:0:
64,192,124383,1,0,0:0:0:0:
448,192,124383,1,0,0:0:0:0:
320,192,124383,1,0,0:0:0:0:
448,192,124564,1,0,0:0:0:0:
320,192,124564,1,0,0:0:0:0:
192,192,124564,1,0,0:0:0:0:
64,192,124564,1,0,0:0:0:0:
64,192,124745,1,0,0:0:0:0:
320,192,124745,1,0,0:0:0:0:
448,192,124745,1,0,0:0:0:0:
64,192,124926,1,0,0:0:0:0:
320,192,124926,1,0,0:0:0:0:
448,192,124926,1,0,0:0:0:0:
192,192,124926,1,0,0:0:0:0:
192,192,125107,1,0,0:0:0:0:
320,192,125107,1,0,0:0:0:0:
64,192,125107,1,0,0:0:0:0:
448,192,125289,1,0,0:0:0:0:
320,192,125289,1,0,0:0:0:0:
192,192,125289,1,0,0:0:0:0:
64,192,125289,1,0,0:0:0:0:
192,192,125470,1,0,0:0:0:0:
448,192,125470,1,0,0:0:0:0:
320,192,125470,1,0,0:0:0:0:
448,192,125650,1,0,0:0:0:0:
192,192,125650,1,0,0:0:0:0:
64,192,125650,1,0,0:0:0:0:
320,192,125650,1,0,0:0:0:0:
192,192,125832,1,0,0:0:0:0:
320,192,125832,1,0,0:0:0:0:
64,192,125832,1,0,0:0:0:0:
448,192,126013,1,0,0:0:0:0:
320,192,126013,1,0,0:0:0:0:
192,192,126013,1,0,0:0:0:0:
64,192,126013,1,0,0:0:0:0:
320,192,126194,1,0,0:0:0:0:
448,192,126194,1,0,0:0:0:0:
64,192,126194,1,0,0:0:0:0:
448,192,126375,1,0,0:0:0:0:
320,192,126375,1,0,0:0:0:0:
192,192,126375,1,0,0:0:0:0:
64,192,126375,1,0,0:0:0:0:
64,192,126556,1,0,0:0:0:0:
448,192,126556,1,0,0:0:0:0:
320,192,126556,1,0,0:0:0:0:
448,192,126738,1,0,0:0:0:0:
320,192,126738,1,0,0:0:0:0:
192,192,126738,1,0,0:0:0:0:
64,192,126738,1,0,0:0:0:0:
64,192,127100,1,0,0:0:0:0:
192,192,127100,1,0,0:0:0:0:
320,192,127100,1,0,0:0:0:0:
448,192,127100,1,0,0:0:0:0:
320,192,127281,1,0,0:0:0:0:
192,192,127281,1,0,0:0:0:0:
64,192,127281,1,0,0:0:0:0:
64,192,127462,1,0,0:0:0:0:
192,192,127462,1,0,0:0:0:0:
320,192,127462,1,0,0:0:0:0:
448,192,127462,1,0,0:0:0:0:
448,192,127644,1,0,0:0:0:0:
64,192,127644,1,0,0:0:0:0:
320,192,127644,1,0,0:0:0:0:
64,192,127825,1,0,0:0:0:0:
192,192,127825,1,0,0:0:0:0:
320,192,127825,1,0,0:0:0:0:
448,192,127825,1,0,0:0:0:0:
448,192,128005,1,0,0:0:0:0:
192,192,128005,1,0,0:0:0:0:
64,192,128005,1,0,0:0:0:0:
448,192,128187,1,0,0:0:0:0:
320,192,128187,1,0,0:0:0:0:
192,192,128187,1,0,0:0:0:0:
64,192,128187,1,0,0:0:0:0:
64,192,128368,1,0,0:0:0:0:
192,192,128368,1,0,0:0:0:0:
320,192,128368,1,0,0:0:0:0:
448,192,128550,1,0,0:0:0:0:
320,192,128550,1,0,0:0:0:0:
192,192,128550,1,0,0:0:0:0:
64,192,128550,1,0,0:0:0:0:
448,192,128730,1,0,0:0:0:0:
192,192,128730,1,0,0:0:0:0:
320,192,128730,1,0,0:0:0:0:
448,192,128911,1,0,0:0:0:0:
320,192,128911,1,0,0:0:0:0:
192,192,128911,1,0,0:0:0:0:
64,192,128911,1,0,0:0:0:0:
64,192,129093,1,0,0:0:0:0:
320,192,129093,1,0,0:0:0:0:
448,192,129093,1,0,0:0:0:0:
448,192,129274,1,0,0:0:0:0:
320,192,129274,1,0,0:0:0:0:
192,192,129274,1,0,0:0:0:0:
64,192,129274,1,0,0:0:0:0:
192,192,129455,1,0,0:0:0:0:
320,192,129455,1,0,0:0:0:0:
64,192,129455,1,0,0:0:0:0:
448,192,129636,1,0,0:0:0:0:
320,192,129636,1,0,0:0:0:0:
192,192,129636,1,0,0:0:0:0:
64,192,129636,1,0,0:0:0:0:
64,192,129817,1,0,0:0:0:0:
320,192,129817,1,0,0:0:0:0:
448,192,129817,1,0,0:0:0:0:
448,192,129999,1,0,0:0:0:0:
320,192,129999,1,0,0:0:0:0:
192,192,129999,1,0,0:0:0:0:
64,192,129999,1,0,0:0:0:0:
448,192,130180,1,0,0:0:0:0:
320,192,130180,1,0,0:0:0:0:
64,192,130180,1,0,0:0:0:0:
448,192,130360,1,0,0:0:0:0:
320,192,130360,1,0,0:0:0:0:
192,192,130360,1,0,0:0:0:0:
64,192,130360,1,0,0:0:0:0:
64,192,130542,1,0,0:0:0:0:
192,192,130542,1,0,0:0:0:0:
320,192,130542,1,0,0:0:0:0:
448,192,130723,1,0,0:0:0:0:
192,192,130723,1,0,0:0:0:0:
64,192,130723,1,0,0:0:0:0:
320,192,130723,1,0,0:0:0:0:
448,192,130905,1,0,0:0:0:0:
192,192,130905,1,0,0:0:0:0:
320,192,130905,1,0,0:0:0:0:
320,192,131085,1,0,0:0:0:0:
448,192,131085,1,0,0:0:0:0:
192,192,131085,1,0,0:0:0:0:
64,192,131085,1,0,0:0:0:0:
64,192,131266,1,0,0:0:0:0:
192,192,131266,1,0,0:0:0:0:
448,192,131266,1,0,0:0:0:0:
448,192,131448,1,0,0:0:0:0:
320,192,131448,1,0,0:0:0:0:
192,192,131448,1,0,0:0:0:0:
64,192,131448,1,0,0:0:0:0:
448,192,131629,1,0,0:0:0:0:
64,192,131629,1,0,0:0:0:0:
320,192,131629,1,0,0:0:0:0:
448,192,131810,1,0,0:0:0:0:
320,192,131810,1,0,0:0:0:0:
192,192,131810,1,0,0:0:0:0:
64,192,131810,1,0,0:0:0:0:
320,192,131991,1,0,0:0:0:0:
192,192,131991,1,0,0:0:0:0:
448,192,131991,1,0,0:0:0:0:
64,192,132172,1,0,0:0:0:0:
192,192,132172,1,0,0:0:0:0:
320,192,132172,1,0,0:0:0:0:
448,192,132172,1,0,0:0:0:0:
64,192,132354,1,0,0:0:0:0:
192,192,132354,1,0,0:0:0:0:
320,192,132354,1,0,0:0:0:0:
64,192,132535,1,0,0:0:0:0:
192,192,132535,1,0,0:0:0:0:
320,192,132535,1,0,0:0:0:0:
448,192,132535,1,0,0:0:0:0:
64,192,132897,1,0,0:0:0:0:
192,192,132897,1,0,0:0:0:0:
320,192,132897,1,0,0:0:0:0:
448,192,132897,1,0,0:0:0:0:
448,192,133078,1,0,0:0:0:0:
192,192,133078,1,0,0:0:0:0:
64,192,133078,1,0,0:0:0:0:
448,192,133260,1,0,0:0:0:0:
320,192,133260,1,0,0:0:0:0:
192,192,133260,1,0,0:0:0:0:
64,192,133260,1,0,0:0:0:0:
320,192,133440,1,0,0:0:0:0:
192,192,133440,1,0,0:0:0:0:
448,192,133440,1,0,0:0:0:0:
448,192,133622,1,0,0:0:0:0:
64,192,133622,1,0,0:0:0:0:
192,192,133622,1,0,0:0:0:0:
320,192,133622,1,0,0:0:0:0:
64,192,133803,1,0,0:0:0:0:
320,192,133803,1,0,0:0:0:0:
192,192,133803,1,0,0:0:0:0:
448,192,133984,1,0,0:0:0:0:
320,192,133984,1,0,0:0:0:0:
192,192,133984,1,0,0:0:0:0:
64,192,133984,1,0,0:0:0:0:
192,192,134165,1,0,0:0:0:0:
320,192,134165,1,0,0:0:0:0:
448,192,134165,1,0,0:0:0:0:
448,192,134346,1,0,0:0:0:0:
320,192,134346,1,0,0:0:0:0:
192,192,134346,1,0,0:0:0:0:
64,192,134346,1,0,0:0:0:0:
448,192,134527,1,0,0:0:0:0:
320,192,134527,1,0,0:0:0:0:
64,192,134527,1,0,0:0:0:0:
448,192,134709,1,0,0:0:0:0:
192,192,134709,1,0,0:0:0:0:
64,192,134709,1,0,0:0:0:0:
320,192,134709,1,0,0:0:0:0:
64,192,134890,1,0,0:0:0:0:
320,192,134890,1,0,0:0:0:0:
192,192,134890,1,0,0:0:0:0:
448,192,135071,1,0,0:0:0:0:
320,192,135071,1,0,0:0:0:0:
192,192,135071,1,0,0:0:0:0:
64,192,135071,1,0,0:0:0:0:
448,192,135252,1,0,0:0:0:0:
320,192,135252,1,0,0:0:0:0:
64,192,135252,1,0,0:0:0:0:
448,192,135433,1,0,0:0:0:0:
320,192,135433,1,0,0:0:0:0:
192,192,135433,1,0,0:0:0:0:
64,192,135433,1,0,0:0:0:0:
64,192,135615,1,0,0:0:0:0:
320,192,135615,1,0,0:0:0:0:
448,192,135615,1,0,0:0:0:0:
448,192,135795,1,0,0:0:0:0:
320,192,135795,1,0,0:0:0:0:
64,192,135795,1,0,0:0:0:0:
192,192,135795,1,0,0:0:0:0:
448,192,135977,1,0,0:0:0:0:
64,192,135977,1,0,0:0:0:0:
192,192,135977,1,0,0:0:0:0:
64,192,136158,1,0,0:0:0:0:
192,192,136158,1,0,0:0:0:0:
320,192,136158,1,0,0:0:0:0:
448,192,136158,1,0,0:0:0:0:
448,192,136339,1,0,0:0:0:0:
192,192,136339,1,0,0:0:0:0:
64,192,136339,1,0,0:0:0:0:
448,192,136520,1,0,0:0:0:0:
192,192,136520,1,0,0:0:0:0:
64,192,136520,1,0,0:0:0:0:
320,192,136520,1,0,0:0:0:0:
320,192,136701,1,0,0:0:0:0:
192,192,136701,1,0,0:0:0:0:
448,192,136701,1,0,0:0:0:0:
64,192,136883,1,0,0:0:0:0:
192,192,136883,1,0,0:0:0:0:
320,192,136883,1,0,0:0:0:0:
448,192,136883,1,0,0:0:0:0:
320,192,137064,1,0,0:0:0:0:
64,192,137064,1,0,0:0:0:0:
192,192,137064,1,0,0:0:0:0:
64,192,137245,1,0,0:0:0:0:
320,192,137245,1,0,0:0:0:0:
448,192,137245,1,0,0:0:0:0:
192,192,137245,1,0,0:0:0:0:
320,192,137426,1,0,0:0:0:0:
192,192,137426,1,0,0:0:0:0:
448,192,137426,1,0,0:0:0:0:
64,192,137607,1,0,0:0:0:0:
192,192,137607,1,0,0:0:0:0:
320,192,137607,1,0,0:0:0:0:
448,192,137607,1,0,0:0:0:0:
192,192,137789,1,0,0:0:0:0:
64,192,137789,1,0,0:0:0:0:
448,192,137789,1,0,0:0:0:0:
64,192,137970,1,0,0:0:0:0:
192,192,137970,1,0,0:0:0:0:
320,192,137970,1,0,0:0:0:0:
448,192,137970,1,0,0:0:0:0:
448,192,138150,1,0,0:0:0:0:
64,192,138150,1,0,0:0:0:0:
192,192,138150,1,0,0:0:0:0:
64,192,138332,1,0,0:0:0:0:
192,192,138332,1,0,0:0:0:0:
320,192,138332,1,0,0:0:0:0:
448,192,138332,1,0,0:0:0:0:
320,192,138694,128,0,139056:0:0:0:0:
192,192,138694,1,0,0:0:0:0:
64,192,138694,1,0,0:0:0:0:
448,192,138875,1,0,0:0:0:0:
64,192,139056,128,0,139419:0:0:0:0:
192,192,139056,1,0,0:0:0:0:
448,192,139056,1,0,0:0:0:0:
320,192,139238,1,0,0:0:0:0:
448,192,139419,128,0,139781:0:0:0:0:
320,192,139419,1,0,0:0:0:0:
192,192,139419,1,0,0:0:0:0:
64,192,139600,1,0,0:0:0:0:
192,192,139781,1,0,0:0:0:0:
320,192,139781,1,0,0:0:0:0:
64,192,139962,1,0,0:0:0:0:
192,192,140144,128,0,140415:0:0:0:0:
320,192,140144,1,0,0:0:0:0:
448,192,140144,1,0,0:0:0:0:
64,192,140325,1,0,0:0:0:0:
320,192,140415,128,0,140505:0:0:0:0:
448,192,140505,128,0,140687:0:0:0:0:
64,192,140505,1,0,0:0:0:0:
192,192,140505,1,0,0:0:0:0:
64,192,140687,128,0,140868:0:0:0:0:
320,192,140687,1,0,0:0:0:0:
320,192,140868,128,0,141050:0:0:0:0:
192,192,140868,1,0,0:0:0:0:
448,192,140868,1,0,0:0:0:0:
192,192,141050,128,0,141230:0:0:0:0:
64,192,141050,1,0,0:0:0:0:
64,192,141230,128,0,141411:0:0:0:0:
320,192,141230,1,0,0:0:0:0:
448,192,141230,1,0,0:0:0:0:
320,192,141411,128,0,141593:0:0:0:0:
192,192,141411,1,0,0:0:0:0:
448,192,141593,128,0,141955:0:0:0:0:
192,192,141593,1,0,0:0:0:0:
64,192,141593,1,0,0:0:0:0:
320,192,141774,1,0,0:0:0:0:
192,192,141955,128,0,142317:0:0:0:0:
64,192,141955,1,0,0:0:0:0:
320,192,141955,1,0,0:0:0:0:
448,192,142136,1,0,0:0:0:0:
64,192,142317,128,0,142680:0:0:0:0:
320,192,142317,1,0,0:0:0:0:
448,192,142317,1,0,0:0:0:0:
192,192,142499,1,0,0:0:0:0:
320,192,142680,1,0,0:0:0:0:
448,192,142680,1,0,0:0:0:0:
64,192,142860,1,0,0:0:0:0:
192,192,142860,128,0,143042:0:0:0:0:
448,192,143042,128,0,143223:0:0:0:0:
320,192,143042,1,0,0:0:0:0:
64,192,143042,1,0,0:0:0:0:
192,192,143223,128,0,143405:0:0:0:0:
320,192,143223,1,0,0:0:0:0:
64,192,143405,128,0,143585:0:0:0:0:
320,192,143405,1,0,0:0:0:0:
448,192,143405,1,0,0:0:0:0:
320,192,143585,128,0,143766:0:0:0:0:
448,192,143585,1,0,0:0:0:0:
448,192,143766,128,0,144129:0:0:0:0:
192,192,143766,1,0,0:0:0:0:
64,192,143766,1,0,0:0:0:0:
320,192,143948,1,0,0:0:0:0:
320,192,144129,1,0,0:0:0:0:
192,192,144129,1,0,0:0:0:0:
64,192,144129,1,0,0:0:0:0:
192,192,144491,128,0,144854:0:0:0:0:
320,192,144491,1,0,0:0:0:0:
448,192,144491,1,0,0:0:0:0:
64,192,144672,1,0,0:0:0:0:
448,192,144854,128,0,145216:0:0:0:0:
320,192,144854,1,0,0:0:0:0:
64,192,144854,1,0,0:0:0:0:
192,192,145035,1,0,0:0:0:0:
64,192,145216,128,0,145578:0:0:0:0:
192,192,145216,1,0,0:0:0:0:
320,192,145216,1,0,0:0:0:0:
448,192,145397,1,0,0:0:0:0:
320,192,145578,1,0,0:0:0:0:
192,192,145578,1,0,0:0:0:0:
448,192,145760,1,0,0:0:0:0:
320,192,145940,128,0,146212:0:0:0:0:
192,192,145940,1,0,0:0:0:0:
64,192,145940,1,0,0:0:0:0:
448,192,146122,1,0,0:0:0:0:
192,192,146212,128,0,146303:0:0:0:0:
64,192,146303,128,0,146484:0:0:0:0:
448,192,146303,1,0,0:0:0:0:
320,192,146303,1,0,0:0:0:0:
448,192,146484,128,0,146665:0:0:0:0:
192,192,146484,1,0,0:0:0:0:
192,192,146665,128,0,146846:0:0:0:0:
320,192,146665,1,0,0:0:0:0:
64,192,146665,1,0,0:0:0:0:
320,192,146846,128,0,147027:0:0:0:0:
448,192,146846,1,0,0:0:0:0:
448,192,147027,128,0,147209:0:0:0:0:
192,192,147027,1,0,0:0:0:0:
64,192,147027,1,0,0:0:0:0:
192,192,147209,128,0,147390:0:0:0:0:
320,192,147209,1,0,0:0:0:0:
64,192,147390,128,0,147752:0:0:0:0:
320,192,147390,1,0,0:0:0:0:
448,192,147390,1,0,0:0:0:0:
192,192,147571,1,0,0:0:0:0:
320,192,147752,128,0,148115:0:0:0:0:
448,192,147752,1,0,0:0:0:0:
192,192,147752,1,0,0:0:0:0:
64,192,147933,1,0,0:0:0:0:
448,192,148115,128,0,148477:0:0:0:0:
192,192,148115,1,0,0:0:0:0:
64,192,148115,1,0,0:0:0:0:
320,192,148295,1,0,0:0:0:0:
192,192,148477,1,0,0:0:0:0:
64,192,148477,1,0,0:0:0:0:
320,192,148477,1,0,0:0:0:0:
192,192,148839,1,0,0:0:0:0:
320,192,148839,1,0,0:0:0:0:
448,192,148839,1,0,0:0:0:0:
64,192,148839,1,0,0:0:0:0:
64,192,148930,1,0,0:0:0:0:
192,192,148930,1,0,0:0:0:0:
320,192,149020,1,0,0:0:0:0:
448,192,149020,1,0,0:0:0:0:
192,192,149110,1,0,0:0:0:0:
64,192,149110,1,0,0:0:0:0:
320,192,149201,1,0,0:0:0:0:
448,192,149201,1,0,0:0:0:0:
192,192,149292,1,0,0:0:0:0:
64,192,149292,1,0,0:0:0:0:
320,192,149383,1,0,0:0:0:0:
448,192,149383,1,0,0:0:0:0:
192,192,149473,1,0,0:0:0:0:
64,192,149473,1,0,0:0:0:0:
320,192,149564,1,0,0:0:0:0:
448,192,149564,1,0,0:0:0:0:
192,192,149564,1,0,0:0:0:0:
64,192,149564,1,0,0:0:0:0:
