osu file format v14

[General]
AudioFilename: audio1.mp3
AudioLeadIn: 0
PreviewTime: -1
Countdown: 1
SampleSet: None
StackLeniency: 0.7
Mode: 0
LetterboxInBreaks: 0
WidescreenStoryboard: 0

[Editor]
Bookmarks: 136499,166815,176920,197131,217341
DistanceSpacing: 0.5
BeatDivisor: 4
GridSize: 4
TimelineZoom: 2.5

[Metadata]
Title:Sound and Dust
TitleUnicode:Звуком и Пылью
Artist:Smile (Banana Boom)
ArtistUnicode:Smile (Banana Boom)
Creator:dima21
Version:WaRNiNG
Source:
Tags:
BeatmapID:1544965
BeatmapSetID:732206

[Difficulty]
HPDrainRate:3.9
CircleSize:3.6
OverallDifficulty:8.1
ApproachRate:9.7
SliderMultiplier:2.3
SliderTickRate:1

[Events]
//Background and Video events
0,0,"maxresdefault.jpg",0,0
//Break Periods
//Storyboard Layer 0 (Background)
//Storyboard Layer 1 (Fail)
//Storyboard Layer 2 (Pass)
//Storyboard Layer 3 (Foreground)
//Storyboard Sound Samples

[TimingPoints]
10184,315.789473684211,4,1,0,100,1,0
70815,-200,4,1,0,100,0,0
71131,-50,4,1,0,100,0,0
71447,-200,4,1,0,100,0,0
71762,-50,4,1,0,100,0,0
72078,-200,4,1,0,100,0,0
72394,-50,4,1,0,100,0,0
72710,-200,4,1,0,100,0,0
73026,-50,4,1,0,100,0,0
73341,-100,4,1,0,100,0,0
91026,-76.9230769230769,4,1,0,100,0,1
116289,-83.3333333333333,4,1,0,100,0,0
132710,-200,4,1,0,100,0,0
133026,-125,4,1,0,100,0,0
133341,-100,4,1,0,100,0,0
133657,-83.3333333333333,4,1,0,100,0,0

[HitObjects]
88,200,10183,6,0,B|104:160|134:117|134:117|145:165,1,115
344,56,10499,1,0,0:0:0:0:
232,296,10657,1,0,0:0:0:0:
376,48,10815,2,0,P|448:48|512:88,1,115
232,280,11131,2,0,B|199:242|199:242|166:231|166:231|138:198,1,115
412,136,11447,5,0,0:0:0:0:
336,316,11605,1,0,0:0:0:0:
212,148,11762,1,0,0:0:0:0:
360,308,11920,1,0,0:0:0:0:
212,124,12078,1,0,0:0:0:0:
424,120,12236,2,0,B|436:84|436:58|436:58|469:37|488:0,2,115
168,280,12710,5,0,0:0:0:0:
212,112,12868,2,0,B|271:94|271:94|326:100,1,115
176,272,13184,1,0,0:0:0:0:
328,96,13341,2,0,B|385:134|385:134|416:208,1,115
176,264,13657,2,0,B|126:224|126:224|108:176,1,115
292,312,13973,5,0,0:0:0:0:
216,96,14131,1,0,0:0:0:0:
204,348,14289,1,0,0:0:0:0:
328,80,14447,1,0,0:0:0:0:
360,376,14605,1,0,0:0:0:0:
280,152,14762,2,0,B|338:181|338:181|424:184,2,115
464,64,15236,5,0,0:0:0:0:
472,284,15394,1,0,0:0:0:0:
288,144,15552,2,0,B|263:90|263:90|208:48,1,115
312,352,15868,1,0,0:0:0:0:
468,176,16026,1,0,0:0:0:0:
254,251,16184,2,0,B|216:193|216:193|200:116,1,115
320,28,16499,5,0,0:0:0:0:
116,204,16657,1,0,0:0:0:0:
368,212,16815,2,0,B|403:284|403:284|400:356,1,115
288,144,17131,1,0,0:0:0:0:
208,308,17289,1,0,0:0:0:0:
172,104,17447,2,0,B|127:149|127:149|106:199,1,115
16,328,17762,5,0,0:0:0:0:
48,112,17920,1,0,0:0:0:0:
204,212,18078,1,0,0:0:0:0:
32,324,18236,1,0,0:0:0:0:
216,368,18394,1,0,0:0:0:0:
204,200,18552,2,0,B|143:208|143:208|68:248,1,115
244,60,18868,5,0,0:0:0:0:
172,288,19026,1,0,0:0:0:0:
368,188,19184,1,0,0:0:0:0:
116,136,19341,1,0,0:0:0:0:
296,280,19499,1,0,0:0:0:0:
356,88,19657,1,0,0:0:0:0:
276,280,19815,2,0,B|263:215|263:215|268:160,2,115
248,28,20289,5,0,0:0:0:0:
184,256,20447,1,0,0:0:0:0:
352,72,20605,1,0,0:0:0:0:
92,140,20762,1,0,0:0:0:0:
380,184,20920,1,0,0:0:0:0:
136,44,21078,1,0,0:0:0:0:
319,284,21236,2,0,B|391:292|391:292|463:332,1,115
192,352,21552,5,0,0:0:0:0:
260,88,21710,1,0,0:0:0:0:
312,264,21868,1,0,0:0:0:0:
396,32,22026,1,0,0:0:0:0:
188,192,22184,1,0,0:0:0:0:
464,180,22341,1,0,0:0:0:0:
248,88,22499,2,0,B|217:65|208:48|208:48|177:46|152:24,1,115
136,276,22815,5,0,0:0:0:0:
400,264,22973,1,0,0:0:0:0:
256,72,23131,1,0,0:0:0:0:
272,352,23289,1,0,0:0:0:0:
400,116,23447,1,0,0:0:0:0:
148,40,23605,1,0,0:0:0:0:
320,280,23762,1,0,0:0:0:0:
344,44,23920,1,0,0:0:0:0:
104,192,24078,5,0,0:0:0:0:
392,204,24236,1,0,0:0:0:0:
256,8,24394,1,0,0:0:0:0:
200,296,24552,1,0,0:0:0:0:
420,108,24710,1,0,0:0:0:0:
328,312,24868,1,0,0:0:0:0:
128,88,25026,2,0,B|187:73|187:73|260:92,1,115
184,292,25341,5,0,0:0:0:0:
24,200,25499,1,0,0:0:0:0:
200,168,25657,1,0,0:0:0:0:
40,312,25815,1,0,0:0:0:0:
108,84,25973,1,0,0:0:0:0:
112,360,26131,1,0,0:0:0:0:
108,168,26289,2,0,B|101:224|101:224|116:308,1,115
176,60,26605,5,0,0:0:0:0:
120,288,26762,2,0,B|109:230|109:230|116:174,1,115
376,128,27078,2,0,B|386:190|386:190|384:256,2,115
144,32,27552,1,0,0:0:0:0:
208,196,27710,1,0,0:0:0:0:
322,70,27868,2,0,P|388:48|434:70,1,115
304,264,28184,5,0,0:0:0:0:
464,136,28341,1,0,0:0:0:0:
312,280,28499,1,0,0:0:0:0:
452,128,28657,2,0,B|390:135|390:135|342:161,1,115
216,320,28973,1,0,0:0:0:0:
336,72,29131,1,0,0:0:0:0:
404,336,29289,1,0,0:0:0:0:
392,192,29447,5,0,0:0:0:0:
176,152,29605,2,0,B|120:172|120:172|32:168,2,115
352,64,30078,2,0,B|414:69|414:69|464:96,1,115
88,96,30394,5,0,0:0:0:0:
152,256,30552,1,0,0:0:0:0:
232,64,30710,1,0,0:0:0:0:
232,240,30868,1,0,0:0:0:0:
352,56,31026,1,0,0:0:0:0:
312,248,31184,1,0,0:0:0:0:
488,192,31341,1,0,0:0:0:0:
336,64,31499,1,0,0:0:0:0:
448,312,31657,5,0,0:0:0:0:
488,104,31815,1,0,0:0:0:0:
240,240,31973,1,0,0:0:0:0:
156,72,32131,1,0,0:0:0:0:
69,296,32289,1,0,0:0:0:0:
294,383,32447,1,0,0:0:0:0:
381,157,32605,1,0,0:0:0:0:
152,88,32762,1,0,0:0:0:0:
184,368,32920,5,0,0:0:0:0:
229,34,33078,1,0,0:0:0:0:
408,248,33236,1,0,0:0:0:0:
72,280,33394,1,0,0:0:0:0:
360,72,33552,1,0,0:0:0:0:
312,312,33710,1,0,0:0:0:0:
88,72,33868,1,0,0:0:0:0:
184,344,34026,1,0,0:0:0:0:
256,40,34184,5,0,0:0:0:0:
472,264,34341,1,0,0:0:0:0:
112,224,34499,1,0,0:0:0:0:
384,56,34657,1,0,0:0:0:0:
304,312,34815,1,0,0:0:0:0:
128,24,34973,1,0,0:0:0:0:
355,189,35131,2,0,B|297:197|297:197|248:224,1,115
429,222,35447,6,0,P|426:153|389:118,1,115
192,48,35762,1,0,0:0:0:0:
355,189,35920,1,0,0:0:0:0:
160,252,36078,1,0,0:0:0:0:
355,189,36236,2,0,P|418:144|503:163,2,115
168,244,36710,6,0,B|215:208|215:208|240:156,1,115
368,4,37026,1,0,0:0:0:0:
240,144,37184,2,0,B|186:134|186:134|129:91,1,115
384,192,37499,2,0,B|399:246|399:246|392:328,2,115
66,181,37973,6,0,B|99:118|99:118|162:85,1,115
228,284,38289,1,0,0:0:0:0:
300,92,38447,1,0,0:0:0:0:
2,231,38605,2,0,P|71:263|133:214,1,115
356,35,38920,2,0,P|299:14|237:38,1,115
396,264,39236,5,0,0:0:0:0:
128,132,39394,1,0,0:0:0:0:
412,244,39552,1,0,0:0:0:0:
132,128,39710,2,0,B|148:64|148:64|140:0,1,115
176,328,40026,1,0,0:0:0:0:
152,12,40184,2,0,B|158:60|158:60|142:124,1,115
47,318,40499,6,0,B|39:256|39:256|58:176,1,115
240,104,40815,1,0,0:0:0:0:
124,252,40973,1,0,0:0:0:0:
360,168,41131,1,0,0:0:0:0:
216,336,41289,1,0,0:0:0:0:
128,132,41447,1,0,0:0:0:0:
328,296,41605,1,0,0:0:0:0:
344,68,41762,5,0,0:0:0:0:
124,336,41920,1,0,0:0:0:0:
428,248,42078,1,0,0:0:0:0:
120,224,42236,2,0,B|181:204|181:204|224:136,1,115
332,44,42552,1,0,0:0:0:0:
252,333,42710,2,0,B|213:314|198:279|198:279|127:301,1,115
432,128,43026,6,0,B|371:99|371:99|312:24,1,115
160,40,43341,1,0,0:0:0:0:
162,289,43499,1,0,0:0:0:0:
341,61,43657,1,0,0:0:0:0:
72,240,43815,1,0,0:0:0:0:
312,312,43973,1,0,0:0:0:0:
64,120,44131,1,0,0:0:0:0:
162,289,44289,5,0,0:0:0:0:
160,40,44447,1,0,0:0:0:0:
296,288,44605,1,0,0:0:0:0:
328,44,44762,1,0,0:0:0:0:
220,344,44920,1,0,0:0:0:0:
464,160,45078,1,0,0:0:0:0:
316,172,45236,2,0,B|259:183|259:183|206:204,2,115
108,160,45868,5,0,0:0:0:0:
160,108,46026,1,0,0:0:0:0:
228,84,46184,2,0,P|296:80|356:92,1,115
304,328,46499,5,0,0:0:0:0:
248,304,46657,1,0,0:0:0:0:
204,272,46815,2,0,P|228:196|260:164,2,115
252,312,47289,5,0,0:0:0:0:
304,328,47447,1,0,0:0:0:0:
372,316,47605,1,0,0:0:0:0:
428,284,47762,2,0,P|415:228|381:182,1,115
176,52,48078,5,0,0:0:0:0:
208,264,48236,1,0,0:0:0:0:
276,40,48394,1,0,0:0:0:0:
296,268,48552,1,0,0:0:0:0:
172,64,48710,1,0,0:0:0:0:
188,292,48868,1,0,0:0:0:0:
304,16,49026,1,0,0:0:0:0:
336,296,49184,1,0,0:0:0:0:
408,124,49341,6,0,B|348:108|348:108|292:100,1,115
216,248,49657,6,0,B|276:264|276:264|332:272,1,115
420,112,49973,6,0,B|360:96|360:96|304:88,1,115
208,264,50289,6,0,B|268:280|268:280|324:288,1,115
236,48,50605,5,0,0:0:0:0:
392,240,50762,1,0,0:0:0:0:
307,88,50920,1,0,0:0:0:0:
320,287,51078,1,0,0:0:0:0:
117,104,51236,2,0,B|182:126|182:126|240:156,1,115
396,332,51551,1,0,0:0:0:0:
232,140,51710,1,0,0:0:0:0:
432,320,51868,6,0,B|437:255|437:255|424:206,1,115
112,300,52184,1,0,0:0:0:0:
316,208,52341,1,0,0:0:0:0:
132,112,52499,2,0,B|132:48|132:48|100:-36,2,115
316,60,53131,5,0,0:0:0:0:
368,220,53289,1,0,0:0:0:0:
424,48,53447,1,0,0:0:0:0:
240,172,53605,2,0,B|198:147|198:147|169:150|169:150|125:124,2,115
260,269,54078,6,0,B|320:261|320:261|400:217,1,115
308,52,54394,1,0,0:0:0:0:
400,312,54552,1,0,0:0:0:0:
424,108,54710,1,0,0:0:0:0:
212,360,54868,1,0,0:0:0:0:
488,228,55026,1,0,0:0:0:0:
224,96,55184,1,0,0:0:0:0:
209,365,55341,2,0,B|266:324|266:324|337:309,1,115
380,56,55657,5,0,0:0:0:0:
128,244,55815,1,0,0:0:0:0:
380,72,55973,1,0,0:0:0:0:
104,112,56131,1,0,0:0:0:0:
304,276,56289,1,0,0:0:0:0:
244,44,56447,1,0,0:0:0:0:
448,220,56605,1,0,0:0:0:0:
224,164,56762,1,0,0:0:0:0:
490,86,56920,6,0,B|429:63|429:63|362:74,1,115
100,124,57236,1,0,0:0:0:0:
232,352,57394,1,0,0:0:0:0:
236,52,57552,1,0,0:0:0:0:
116,264,57710,1,0,0:0:0:0:
440,228,57868,2,0,B|397:232|368:224|368:224|351:243|332:252,1,115
224,84,58184,5,0,0:0:0:0:
144,280,58341,1,0,0:0:0:0:
376,76,58499,1,0,0:0:0:0:
244,352,58657,1,0,0:0:0:0:
96,128,58815,1,0,0:0:0:0:
376,92,58973,1,0,0:0:0:0:
68,144,59131,2,0,B|93:154|109:179|109:179|132:173|169:187,1,115
192,288,59447,5,0,0:0:0:0:
292,116,59605,1,0,0:0:0:0:
192,268,59762,1,0,0:0:0:0:
304,88,59920,1,0,0:0:0:0:
140,172,60078,1,0,0:0:0:0:
372,232,60236,1,0,0:0:0:0:
232,16,60394,1,0,0:0:0:0:
280,356,60552,1,0,0:0:0:0:
309,79,60710,6,0,B|375:58|375:58|437:67,1,115
140,172,61026,1,0,0:0:0:0:
364,236,61184,1,0,0:0:0:0:
220,24,61341,1,0,0:0:0:0:
160,320,61499,1,0,0:0:0:0:
414,77,61657,6,0,B|368:70|368:70|302:91,1,115
32,144,61973,6,0,B|77:137|77:137|143:158,1,115
188,308,62289,1,0,0:0:0:0:
236,60,62447,1,0,0:0:0:0:
224,296,62605,1,0,0:0:0:0:
260,60,62762,2,0,P|324:48|380:64,1,115
476,196,63078,1,0,0:0:0:0:
76,92,63236,6,0,P|124:152|136:216,1,115
236,292,63552,1,0,0:0:0:0:
284,60,63710,1,0,0:0:0:0:
248,280,63868,2,0,P|272:220|312:168,1,115
464,104,64184,2,0,P|440:164|400:216,1,115
136,64,64499,5,0,0:0:0:0:
124,236,64657,1,0,0:0:0:0:
264,68,64815,1,0,0:0:0:0:
64,120,64973,1,0,0:0:0:0:
232,268,65131,1,0,0:0:0:0:
180,24,65289,1,0,0:0:0:0:
48,260,65447,1,0,0:0:0:0:
304,168,65605,1,0,0:0:0:0:
48,148,65762,6,0,P|120:172|164:228,1,115
236,308,66078,1,0,0:0:0:0:
216,144,66236,1,0,0:0:0:0:
348,268,66394,1,0,0:0:0:0:
212,136,66552,2,0,P|176:92|164:16,1,115
376,152,66868,1,0,0:0:0:0:
164,16,67026,5,0,0:0:0:0:
356,132,67184,2,0,B|384:76|384:76|460:36,1,115
340,276,67499,1,0,0:0:0:0:
163,15,67657,2,0,B|225:28|225:28|265:66,1,115
340,276,67973,2,0,B|278:263|278:263|238:225,1,115
260,72,68289,1,0,0:0:0:0:
248,88,68447,5,0,0:0:0:0:
340,276,68605,1,0,0:0:0:0:
416,92,68762,1,0,0:0:0:0:
184,184,68920,1,0,0:0:0:0:
436,244,69078,1,0,0:0:0:0:
208,48,69236,2,0,P|144:44|96:56,1,115
32,160,69552,5,0,0:0:0:0:
156,300,69710,1,0,0:0:0:0:
95,56,69868,2,0,P|51:104|23:172,1,115
440,168,70184,1,0,0:0:0:0:
216,48,70341,1,0,0:0:0:0:
270,285,70499,2,0,B|217:304|217:304|138:301,1,115
256,160,70815,6,0,P|296:132|344:124,1,86.25
356,136,71131,2,0,B|296:144|236:192|236:192|166:184|166:184|116:240|33:260,1,345
32,232,71447,2,0,P|104:192|120:180,1,86.25
96,176,71762,2,0,B|108:84|169:35|169:35|245:117|336:80,1,345
332,56,72078,2,0,P|269:60|240:36,1,86.25
236,72,72394,2,0,B|301:132|361:81|361:81|386:131|379:171|379:171|413:209|413:209|408:244|430:268,1,345
424,272,72710,2,0,B|400:241|403:214|403:214|391:196|376:186,1,86.25
376,208,73026,2,0,P|376:296|360:196,1,345
152,256,73341,5,0,0:0:0:0:
208,56,73499,1,0,0:0:0:0:
192,268,73657,1,0,0:0:0:0:
328,92,73815,1,0,0:0:0:0:
228,316,73973,1,0,0:0:0:0:
444,224,74131,1,0,0:0:0:0:
228,240,74289,1,0,0:0:0:0:
408,328,74447,1,0,0:0:0:0:
272,104,74605,5,0,0:0:0:0:
56,244,74762,1,0,0:0:0:0:
272,80,74920,1,0,0:0:0:0:
40,216,75078,1,0,0:0:0:0:
120,68,75236,1,0,0:0:0:0:
228,276,75394,1,0,0:0:0:0:
148,40,75552,1,0,0:0:0:0:
260,264,75710,1,0,0:0:0:0:
280,64,75868,6,0,P|360:36|416:48,1,115
268,64,76184,1,0,0:0:0:0:
136,156,76341,2,0,P|88:120|16:52,1,115
136,288,76657,1,0,0:0:0:0:
256,64,76815,2,0,P|328:48|384:56,1,115
280,204,77131,5,0,0:0:0:0:
352,352,77289,1,0,0:0:0:0:
396,164,77447,2,0,P|432:96|480:76,1,115
228,336,77762,1,0,0:0:0:0:
456,272,77920,2,0,P|480:212|472:160,1,115
220,76,78394,5,0,0:0:0:0:
160,248,78552,1,0,0:0:0:0:
324,148,78710,1,0,0:0:0:0:
100,132,78868,1,0,0:0:0:0:
280,280,79026,1,0,0:0:0:0:
316,52,79184,1,0,0:0:0:0:
172,228,79341,2,0,B|113:266|113:266|40:276,1,115
360,140,79657,5,0,0:0:0:0:
392,312,79815,1,0,0:0:0:0:
456,80,79973,1,0,0:0:0:0:
384,300,80131,1,0,0:0:0:0:
232,32,80289,1,0,0:0:0:0:
392,284,80447,1,0,0:0:0:0:
496,12,80605,1,0,0:0:0:0:
324,168,80762,1,0,0:0:0:0:
446,104,80920,6,0,B|474:82|474:82|478:140|504:195,1,115
152,128,81236,2,0,P|160:216|152:268,1,115
228,60,81552,1,0,0:0:0:0:
264,296,81710,1,0,0:0:0:0:
336,64,81868,2,0,P|396:52|444:72,2,115
416,300,82341,1,0,0:0:0:0:
180,180,82499,1,0,0:0:0:0:
396,292,82657,6,0,B|334:281|334:281|244:308,1,115
92,216,82973,1,0,0:0:0:0:
